  0
SECTION
  2
HEADER
  9
$ACADVER
  1
AC1018
  9
$ACADMAINTVER
 70
    39
  9
$DWGCODEPAGE
  3
ANSI_932
  9
$INSBASE
 10
0.0
 20
0.0
 30
0.0
  9
$EXTMIN
 10
-441.2087386804732
 20
24.00106911640739
 30
-0.0015258207003583
  9
$EXTMAX
 10
-83.53906121889485
 20
402.290558816272
 30
0.0000000349246037
  9
$LIMMIN
 10
-592.0
 20
0.0
  9
$LIMMAX
 10
0.0
 20
418.0
  9
$ORTHOMODE
 70
     0
  9
$REGENMODE
 70
     1
  9
$FILLMODE
 70
     1
  9
$QTEXTMODE
 70
     0
  9
$MIRRTEXT
 70
     0
  9
$LTSCALE
 40
1.0
  9
$ATTMODE
 70
     1
  9
$TEXTSIZE
 40
0.2
  9
$TRACEWID
 40
0.05
  9
$TEXTSTYLE
  7
STANDARD
  9
$CLAYER
  8
0
  9
$CELTYPE
  6
CONTINUOUS
  9
$CECOLOR
 62
   256
  9
$CELTSCALE
 40
1.0
  9
$DISPSILH
 70
     0
  9
$DIMSCALE
 40
1.0
  9
$DIMASZ
 40
1.0
  9
$DIMEXO
 40
2.54
  9
$DIMDLI
 40
0.38
  9
$DIMRND
 40
0.0
  9
$DIMDLE
 40
0.0
  9
$DIMEXE
 40
2.54
  9
$DIMTP
 40
0.0
  9
$DIMTM
 40
0.0
  9
$DIMTXT
 40
3.0
  9
$DIMCEN
 40
0.09
  9
$DIMTSZ
 40
0.0
  9
$DIMTOL
 70
     0
  9
$DIMLIM
 70
     0
  9
$DIMTIH
 70
     0
  9
$DIMTOH
 70
     0
  9
$DIMSE1
 70
     0
  9
$DIMSE2
 70
     0
  9
$DIMTAD
 70
     1
  9
$DIMZIN
 70
     0
  9
$DIMBLK
  1

  9
$DIMASO
 70
     1
  9
$DIMSHO
 70
     0
  9
$DIMPOST
  1

  9
$DIMAPOST
  1

  9
$DIMALT
 70
     0
  9
$DIMALTD
 70
     2
  9
$DIMALTF
 40
25.4
  9
$DIMLFAC
 40
1.0
  9
$DIMTOFL
 70
     0
  9
$DIMTVP
 40
1.0
  9
$DIMTIX
 70
     0
  9
$DIMSOXD
 70
     0
  9
$DIMSAH
 70
     1
  9
$DIMBLK1
  1

  9
$DIMBLK2
  1

  9
$DIMSTYLE
  2
DIMSTYLE1
  9
$DIMCLRD
 70
     0
  9
$DIMCLRE
 70
     0
  9
$DIMCLRT
 70
     0
  9
$DIMTFAC
 40
1.0
  9
$DIMGAP
 40
1.5
  9
$DIMJUST
 70
     0
  9
$DIMSD1
 70
     0
  9
$DIMSD2
 70
     0
  9
$DIMTOLJ
 70
     1
  9
$DIMTZIN
 70
     0
  9
$DIMALTZ
 70
     0
  9
$DIMALTTZ
 70
     0
  9
$DIMUPT
 70
     0
  9
$DIMDEC
 70
     4
  9
$DIMTDEC
 70
     4
  9
$DIMALTU
 70
     2
  9
$DIMALTTD
 70
     2
  9
$DIMTXSTY
  7
STANDARD
  9
$DIMAUNIT
 70
     0
  9
$DIMADEC
 70
     0
  9
$DIMALTRND
 40
0.0
  9
$DIMAZIN
 70
     0
  9
$DIMDSEP
 70
    46
  9
$DIMATFIT
 70
     3
  9
$DIMFRAC
 70
     0
  9
$DIMLDRBLK
  1

  9
$DIMLUNIT
 70
     2
  9
$DIMLWD
 70
    -2
  9
$DIMLWE
 70
    -2
  9
$DIMTMOVE
 70
     0
  9
$LUNITS
 70
     2
  9
$LUPREC
 70
     4
  9
$SKETCHINC
 40
0.1
  9
$FILLETRAD
 40
0.0
  9
$AUNITS
 70
     0
  9
$AUPREC
 70
     0
  9
$MENU
  1
.
  9
$ELEVATION
 40
0.0
  9
$PELEVATION
 40
0.0
  9
$THICKNESS
 40
0.0
  9
$LIMCHECK
 70
     0
  9
$CHAMFERA
 40
0.0
  9
$CHAMFERB
 40
0.0
  9
$CHAMFERC
 40
0.0
  9
$CHAMFERD
 40
0.0
  9
$SKPOLY
 70
     0
  9
$TDCREATE
 40
2457842.451767118
  9
$TDUCREATE
 40
2457842.076767118
  9
$TDUPDATE
 40
2457842.452293368
  9
$TDUUPDATE
 40
2457842.077293368
  9
$TDINDWG
 40
0.0005284491
  9
$TDUSRTIMER
 40
0.0005284491
  9
$USRTIMER
 70
     1
  9
$ANGBASE
 50
0.0
  9
$ANGDIR
 70
     0
  9
$PDMODE
 70
     0
  9
$PDSIZE
 40
0.0
  9
$PLINEWID
 40
0.0
  9
$SPLFRAME
 70
     0
  9
$SPLINETYPE
 70
     6
  9
$SPLINESEGS
 70
     8
  9
$HANDSEED
  5
2E8
  9
$SURFTAB1
 70
     6
  9
$SURFTAB2
 70
     6
  9
$SURFTYPE
 70
     6
  9
$SURFU
 70
     6
  9
$SURFV
 70
     6
  9
$UCSBASE
  2

  9
$UCSNAME
  2

  9
$UCSORG
 10
0.0
 20
0.0
 30
0.0
  9
$UCSXDIR
 10
1.0
 20
0.0
 30
0.0
  9
$UCSYDIR
 10
0.0
 20
1.0
 30
0.0
  9
$UCSORTHOREF
  2

  9
$UCSORTHOVIEW
 70
     0
  9
$UCSORGTOP
 10
0.0
 20
0.0
 30
0.0
  9
$UCSORGBOTTOM
 10
0.0
 20
0.0
 30
0.0
  9
$UCSORGLEFT
 10
0.0
 20
0.0
 30
0.0
  9
$UCSORGRIGHT
 10
0.0
 20
0.0
 30
0.0
  9
$UCSORGFRONT
 10
0.0
 20
0.0
 30
0.0
  9
$UCSORGBACK
 10
0.0
 20
0.0
 30
0.0
  9
$PUCSBASE
  2

  9
$PUCSNAME
  2

  9
$PUCSORG
 10
0.0
 20
0.0
 30
0.0
  9
$PUCSXDIR
 10
1.0
 20
0.0
 30
0.0
  9
$PUCSYDIR
 10
0.0
 20
1.0
 30
0.0
  9
$PUCSORTHOREF
  2

  9
$PUCSORTHOVIEW
 70
     0
  9
$PUCSORGTOP
 10
0.0
 20
0.0
 30
0.0
  9
$PUCSORGBOTTOM
 10
0.0
 20
0.0
 30
0.0
  9
$PUCSORGLEFT
 10
0.0
 20
0.0
 30
0.0
  9
$PUCSORGRIGHT
 10
0.0
 20
0.0
 30
0.0
  9
$PUCSORGFRONT
 10
0.0
 20
0.0
 30
0.0
  9
$PUCSORGBACK
 10
0.0
 20
0.0
 30
0.0
  9
$USERI1
 70
     0
  9
$USERI2
 70
     0
  9
$USERI3
 70
     0
  9
$USERI4
 70
     0
  9
$USERI5
 70
     0
  9
$USERR1
 40
0.0
  9
$USERR2
 40
0.0
  9
$USERR3
 40
0.0
  9
$USERR4
 40
0.0
  9
$USERR5
 40
0.0
  9
$WORLDVIEW
 70
     1
  9
$SHADEDGE
 70
     3
  9
$SHADEDIF
 70
    70
  9
$TILEMODE
 70
     1
  9
$MAXACTVP
 70
    64
  9
$PINSBASE
 10
0.0
 20
0.0
 30
0.0
  9
$PLIMCHECK
 70
     0
  9
$PEXTMIN
 10
1.000000000000000E+20
 20
1.000000000000000E+20
 30
1.000000000000000E+20
  9
$PEXTMAX
 10
-1.000000000000000E+20
 20
-1.000000000000000E+20
 30
-1.000000000000000E+20
  9
$PLIMMIN
 10
-592.0
 20
0.0
  9
$PLIMMAX
 10
0.0
 20
418.0
  9
$UNITMODE
 70
     0
  9
$VISRETAIN
 70
     1
  9
$PLINEGEN
 70
     0
  9
$PSLTSCALE
 70
     1
  9
$TREEDEPTH
 70
  3020
  9
$CMLSTYLE
  2
Standard
  9
$CMLJUST
 70
     0
  9
$CMLSCALE
 40
1.0
  9
$PROXYGRAPHICS
 70
     1
  9
$MEASUREMENT
 70
     0
  9
$CELWEIGHT
370
    -1
  9
$ENDCAPS
280
     0
  9
$JOINSTYLE
280
     0
  9
$LWDISPLAY
290
     0
  9
$INSUNITS
 70
     0
  9
$HYPERLINKBASE
  1

  9
$STYLESHEET
  1

  9
$XEDIT
290
     1
  9
$CEPSNTYPE
380
     0
  9
$PSTYLEMODE
290
     1
  9
$FINGERPRINTGUID
  2
{20F7F7C9-680A-45DA-B151-BE965A9D9385}
  9
$VERSIONGUID
  2
{AED6F92E-F62A-4B6F-BD66-716C947FCBDF}
  9
$EXTNAMES
290
     1
  9
$PSVPSCALE
 40
0.0
  9
$OLESTARTUP
290
     0
  9
$SORTENTS
280
   127
  9
$INDEXCTL
280
     0
  9
$HIDETEXT
280
     0
  9
$XCLIPFRAME
290
     0
  9
$HALOGAP
280
     0
  9
$OBSCOLOR
 70
   257
  9
$OBSLTYPE
280
     0
  9
$INTERSECTIONDISPLAY
280
     0
  9
$INTERSECTIONCOLOR
 70
   257
  9
$DIMASSOC
280
     1
  9
$PROJECTNAME
  1

  0
ENDSEC
  0
SECTION
  2
CLASSES
  0
CLASS
  1
ACDBDICTIONARYWDFLT
  2
AcDbDictionaryWithDefault
  3
ObjectDBX Classes
 90
        0
 91
        1
280
     0
281
     0
  0
CLASS
  1
TABLESTYLE
  2
AcDbTableStyle
  3
ObjectDBX Classes
 90
     2047
 91
        1
280
     0
281
     0
  0
CLASS
  1
DICTIONARYVAR
  2
AcDbDictionaryVar
  3
ObjectDBX Classes
 90
        0
 91
        1
280
     0
281
     0
  0
ENDSEC
  0
SECTION
  2
TABLES
  0
TABLE
  2
VPORT
  5
8
330
0
100
AcDbSymbolTable
 70
     2
  0
VPORT
  5
2E7
330
8
100
AcDbSymbolTableRecord
100
AcDbViewportTableRecord
  2
*Active
 70
     0
 10
0.0
 20
0.0
 11
1.0
 21
1.0
 12
-296.0
 22
209.0
 13
0.0
 23
0.0
 14
1.0
 24
1.0
 15
0.0
 25
0.0
 16
0.0
 26
0.0
 36
1.0
 17
0.0
 27
0.0
 37
0.0
 40
421.3043478260869
 41
1.707124010554089
 42
50.0
 43
0.0
 44
0.0
 50
0.0
 51
0.0
 71
     0
 72
   100
 73
     1
 74
     1
 75
     0
 76
     0
 77
     0
 78
     0
281
     0
 65
     1
110
0.0
120
0.0
130
0.0
111
1.0
121
0.0
131
0.0
112
0.0
122
1.0
132
0.0
 79
     0
146
0.0
  0
ENDTAB
  0
TABLE
  2
LTYPE
  5
5
330
0
100
AcDbSymbolTable
 70
     6
  0
LTYPE
  5
13
330
5
100
AcDbSymbolTableRecord
100
AcDbLinetypeTableRecord
  2
ByBlock
 70
     0
  3

 72
    65
 73
     0
 40
0.0
  0
LTYPE
  5
14
330
5
100
AcDbSymbolTableRecord
100
AcDbLinetypeTableRecord
  2
ByLayer
 70
     0
  3

 72
    65
 73
     0
 40
0.0
  0
LTYPE
  5
15
330
5
100
AcDbSymbolTableRecord
100
AcDbLinetypeTableRecord
  2
CONTINUOUS
 70
     0
  3
Solid line
 72
    65
 73
     0
 40
0.0
  0
LTYPE
  5
26
330
5
100
AcDbSymbolTableRecord
100
AcDbLinetypeTableRecord
  2
DASHED
 70
     0
  3
__ __ __ __ __ __ __ __ __ __ __ __ __ __ __
 72
    65
 73
     2
 40
3.5
 49
2.0
 74
     0
 49
-1.5
 74
     0
  0
LTYPE
  5
27
330
5
100
AcDbSymbolTableRecord
100
AcDbLinetypeTableRecord
  2
CENTER
 70
     0
  3
____ _ ____ _ ____ _ ____ _ ____ _ ____ _ ____
 72
    65
 73
     4
 40
17.5
 49
13.0
 74
     0
 49
-1.5
 74
     0
 49
1.5
 74
     0
 49
-1.5
 74
     0
  0
LTYPE
  5
28
330
5
100
AcDbSymbolTableRecord
100
AcDbLinetypeTableRecord
  2
PHANTOM
 70
     0
  3
_____ _ _ _____ _ _ _____ _ _ _____ _ _ ____  
 72
    65
 73
     6
 40
15.5
 49
8.0
 74
     0
 49
-1.5
 74
     0
 49
1.5
 74
     0
 49
-1.5
 74
     0
 49
1.5
 74
     0
 49
-1.5
 74
     0
  0
LTYPE
  5
29
330
5
100
AcDbSymbolTableRecord
100
AcDbLinetypeTableRecord
  2
DOT
 70
     0
  3
. . . . . . . . . . . . . . . . . . . . . . . .
 72
    65
 73
     2
 40
0.25
 49
0.0
 74
     0
 49
-0.25
 74
     0
  0
LTYPE
  5
2A
330
5
100
AcDbSymbolTableRecord
100
AcDbLinetypeTableRecord
  2
HIDDEN
 70
     0
  3
__ __ __ __ __ __ __ __ __ __ __ __ __ __ __
 72
    65
 73
     2
 40
3.5
 49
2.0
 74
     0
 49
-1.5
 74
     0
  0
ENDTAB
  0
TABLE
  2
LAYER
  5
2
330
0
100
AcDbSymbolTable
 70
     2
  0
LAYER
  5
10
330
2
100
AcDbSymbolTableRecord
100
AcDbLayerTableRecord
  2
0
 70
     0
 62
     7
  6
CONTINUOUS
370
    -3
390
F
  0
LAYER
  5
2B
330
2
100
AcDbSymbolTableRecord
100
AcDbLayerTableRecord
  2
DEFPOINTS
 70
     0
 62
     7
  6
CONTINUOUS
290
     0
370
    -3
390
F
  0
ENDTAB
  0
TABLE
  2
STYLE
  5
3
330
0
100
AcDbSymbolTable
 70
     2
  0
STYLE
  5
11
330
3
100
AcDbSymbolTableRecord
100
AcDbTextStyleTableRecord
  2
STANDARD
 70
     0
 40
0.0
 41
1.0
 50
0.0
 71
     0
 42
0.2
  3

  4

1001
ACAD
1000
MS Gothic
1071
    32817
  0
ENDTAB
  0
TABLE
  2
VIEW
  5
6
330
0
100
AcDbSymbolTable
 70
     0
  0
ENDTAB
  0
TABLE
  2
UCS
  5
7
330
0
100
AcDbSymbolTable
 70
     0
  0
ENDTAB
  0
TABLE
  2
APPID
  5
9
330
0
100
AcDbSymbolTable
 70
     2
  0
APPID
  5
12
330
9
100
AcDbSymbolTableRecord
100
AcDbRegAppTableRecord
  2
ACAD
 70
     0
  0
APPID
  5
2DC
330
9
100
AcDbSymbolTableRecord
100
AcDbRegAppTableRecord
  2
ACAD_PSEXT
 70
     0
  0
ENDTAB
  0
TABLE
  2
DIMSTYLE
  5
A
330
0
100
AcDbSymbolTable
 70
     6
100
AcDbDimStyleTable
 71
     1
340
2C
  0
DIMSTYLE
105
2C
102
{ACAD_REACTORS
330
2D4
102
}
330
A
100
AcDbSymbolTableRecord
100
AcDbDimStyleTableRecord
  2
DIMSTYLE1
 70
     0
 41
1.0
 42
2.54
 44
2.54
 73
     0
 74
     0
 77
     1
140
3.0
145
1.0
147
1.5
172
     1
173
     1
279
     2
340
11
  0
DIMSTYLE
105
2D
102
{ACAD_REACTORS
330
2D5
102
}
330
A
100
AcDbSymbolTableRecord
100
AcDbDimStyleTableRecord
  2
DIMSTYLE2
 70
     0
 41
1.0
 42
2.54
 44
2.54
 73
     0
 74
     0
 77
     1
140
3.0
145
1.0
147
1.5
172
     1
173
     1
279
     2
340
11
  0
DIMSTYLE
105
2E
102
{ACAD_REACTORS
330
2D6
102
}
330
A
100
AcDbSymbolTableRecord
100
AcDbDimStyleTableRecord
  2
DIMSTYLE3
 70
     0
 41
1.0
 42
2.54
 44
2.54
 73
     0
 74
     0
 77
     1
140
3.0
145
1.0
147
1.5
172
     1
173
     1
279
     2
340
11
  0
DIMSTYLE
105
2F
102
{ACAD_REACTORS
330
2D7
102
}
330
A
100
AcDbSymbolTableRecord
100
AcDbDimStyleTableRecord
  2
DIMSTYLE4
 70
     0
 41
1.0
 42
2.54
 44
2.54
 73
     0
 74
     0
 77
     1
140
3.0
145
1.0
147
1.5
172
     1
173
     1
279
     2
340
11
  0
DIMSTYLE
105
30
102
{ACAD_REACTORS
330
2D8
102
}
330
A
100
AcDbSymbolTableRecord
100
AcDbDimStyleTableRecord
  2
DIMSTYLE5
 70
     0
 41
1.0
 42
2.54
 44
2.54
 73
     0
 74
     0
 77
     1
140
3.0
145
1.0
147
1.5
172
     1
173
     1
279
     2
340
11
  0
ENDTAB
  0
TABLE
  2
BLOCK_RECORD
  5
1
330
0
100
AcDbSymbolTable
 70
     8
  0
BLOCK_RECORD
  5
22
330
1
100
AcDbSymbolTableRecord
100
AcDbBlockTableRecord
  2
*Model_Space
340
25
  0
BLOCK_RECORD
  5
1E
330
1
100
AcDbSymbolTableRecord
100
AcDbBlockTableRecord
  2
*Paper_Space
340
21
  0
BLOCK_RECORD
  5
34
330
1
100
AcDbSymbolTableRecord
100
AcDbBlockTableRecord
  2
_OPEN30
340
0
102
{BLKREFS
331
3D
331
3E
331
49
331
4A
331
55
331
56
331
61
331
62
331
6D
331
6E
102
}
  0
BLOCK_RECORD
  5
3A
330
1
100
AcDbSymbolTableRecord
100
AcDbBlockTableRecord
  2
*D1
340
0
  0
BLOCK_RECORD
  5
46
330
1
100
AcDbSymbolTableRecord
100
AcDbBlockTableRecord
  2
*D2
340
0
  0
BLOCK_RECORD
  5
52
330
1
100
AcDbSymbolTableRecord
100
AcDbBlockTableRecord
  2
*D3
340
0
  0
BLOCK_RECORD
  5
5E
330
1
100
AcDbSymbolTableRecord
100
AcDbBlockTableRecord
  2
*D4
340
0
  0
BLOCK_RECORD
  5
6A
330
1
100
AcDbSymbolTableRecord
100
AcDbBlockTableRecord
  2
*D5
340
0
  0
BLOCK_RECORD
  5
76
330
1
100
AcDbSymbolTableRecord
100
AcDbBlockTableRecord
  2
KOZU0001
340
0
102
{BLKREFS
331
2D9
102
}
  0
ENDTAB
  0
ENDSEC
  0
SECTION
  2
BLOCKS
  0
BLOCK
  5
23
330
22
100
AcDbEntity
  8
0
100
AcDbBlockBegin
  2
*Model_Space
 70
     0
 10
0.0
 20
0.0
 30
0.0
  3
*Model_Space
  1

  0
ENDBLK
  5
24
330
22
100
AcDbEntity
  8
0
100
AcDbBlockEnd
  0
BLOCK
  5
1F
330
1E
100
AcDbEntity
 67
     1
  8
0
100
AcDbBlockBegin
  2
*Paper_Space
 70
     0
 10
0.0
 20
0.0
 30
0.0
  3
*Paper_Space
  1

  0
ENDBLK
  5
20
330
1E
100
AcDbEntity
 67
     1
  8
0
100
AcDbBlockEnd
  0
BLOCK
  5
35
330
34
100
AcDbEntity
  8
0
100
AcDbBlockBegin
  2
_OPEN30
 70
     0
 10
0.0
 20
0.0
 30
0.0
  3
_OPEN30
  1

  0
LINE
  5
36
330
34
100
AcDbEntity
  8
0
  6
ByBlock
 62
     0
100
AcDbLine
 10
0.0
 20
0.0
 30
0.0
 11
-2.999999999999993
 21
-1.000000000000017
 31
0.0
  0
LINE
  5
37
330
34
100
AcDbEntity
  8
0
  6
ByBlock
 62
     0
100
AcDbLine
 10
0.0
 20
0.0
 30
0.0
 11
-3.000000000000006
 21
0.9999999999999815
 31
0.0
  0
LINE
  5
38
330
34
100
AcDbEntity
  8
0
  6
ByBlock
 62
     0
100
AcDbLine
 10
0.0
 20
0.0
 30
0.0
 11
-3.0
 21
0.0
 31
0.0
  0
ENDBLK
  5
39
330
34
100
AcDbEntity
  8
0
100
AcDbBlockEnd
  0
BLOCK
  5
3B
330
3A
100
AcDbEntity
  8
0
100
AcDbBlockBegin
  2
*D1
 70
     1
 10
0.0
 20
0.0
 30
0.0
  3
*D1
  1

  0
LINE
  5
3C
330
3A
100
AcDbEntity
  8
0
  6
Continuous
 62
     7
100
AcDbLine
 10
-197.4208068847656
 20
175.2651062011719
 30
0.0
 11
-197.4208068847656
 21
369.2651062011719
 31
0.0
  0
INSERT
  5
3D
330
3A
100
AcDbEntity
  8
0
  6
Continuous
 62
     7
100
AcDbBlockReference
  2
_OPEN30
 10
-197.4208068847656
 20
172.2651062011719
 30
0.0
 50
270.0000000000005
  0
INSERT
  5
3E
330
3A
100
AcDbEntity
  8
0
  6
Continuous
 62
     7
100
AcDbBlockReference
  2
_OPEN30
 10
-197.4208068847656
 20
372.2651062011719
 30
0.0
 50
90.00000000000019
  0
LINE
  5
3F
330
3A
100
AcDbEntity
  8
0
  6
Continuous
 62
     7
100
AcDbLine
 10
-238.3078088378906
 20
172.2651062011719
 30
0.0
 11
-195.1348114013672
 21
172.2651062011719
 31
0.0
  0
LINE
  5
40
330
3A
100
AcDbEntity
  8
0
  6
Continuous
 62
     7
100
AcDbLine
 10
-238.3078088378906
 20
372.2651062011719
 30
0.0
 11
-195.1348114013672
 21
372.2651062011719
 31
0.0
  0
TEXT
  5
41
330
3A
100
AcDbEntity
  8
0
  6
Continuous
 62
     7
100
AcDbText
 10
-198.1708067068603
 20
268.195105996727
 30
0.0
 40
3.0
  1
200
 50
90.00000250447815
 41
1.135813968126164
100
AcDbText
  0
POINT
  5
42
330
3A
100
AcDbEntity
  8
DEFPOINTS
  6
Continuous
 62
     7
100
AcDbPoint
 10
-240.8478088378906
 20
172.2651062011719
 30
0.0
  0
POINT
  5
43
330
3A
100
AcDbEntity
  8
DEFPOINTS
  6
Continuous
 62
     7
100
AcDbPoint
 10
-240.8478088378906
 20
372.2651062011719
 30
0.0
  0
POINT
  5
44
330
3A
100
AcDbEntity
  8
DEFPOINTS
  6
Continuous
 62
     7
100
AcDbPoint
 10
-197.4208068847656
 20
372.2651062011719
 30
0.0
  0
ENDBLK
  5
45
330
3A
100
AcDbEntity
  8
0
100
AcDbBlockEnd
  0
BLOCK
  5
47
330
46
100
AcDbEntity
  8
0
100
AcDbBlockBegin
  2
*D2
 70
     1
 10
0.0
 20
0.0
 30
0.0
  3
*D2
  1

  0
LINE
  5
48
330
46
100
AcDbEntity
  8
0
  6
Continuous
 62
     7
100
AcDbLine
 10
-208.1103515625
 20
189.7651062011719
 30
0.0
 11
-208.1103515625
 21
354.7651062011719
 31
0.0
  0
INSERT
  5
49
330
46
100
AcDbEntity
  8
0
  6
Continuous
 62
     7
100
AcDbBlockReference
  2
_OPEN30
 10
-208.1103515625
 20
186.7651062011719
 30
0.0
 50
270.0000000000005
  0
INSERT
  5
4A
330
46
100
AcDbEntity
  8
0
  6
Continuous
 62
     7
100
AcDbBlockReference
  2
_OPEN30
 10
-208.1103515625
 20
357.7651062011719
 30
0.0
 50
90.00000000000019
  0
LINE
  5
4B
330
46
100
AcDbEntity
  8
0
  6
Continuous
 62
     7
100
AcDbLine
 10
-248.8078088378906
 20
186.7651062011719
 30
0.0
 11
-205.8243408203125
 21
186.7651062011719
 31
0.0
  0
LINE
  5
4C
330
46
100
AcDbEntity
  8
0
  6
Continuous
 62
     7
100
AcDbLine
 10
-248.8078088378906
 20
357.7651062011719
 30
0.0
 11
-205.8243408203125
 21
357.7651062011719
 31
0.0
  0
TEXT
  5
4D
330
46
100
AcDbEntity
  8
0
  6
Continuous
 62
     7
100
AcDbText
 10
-208.8603513845946
 20
268.195105996727
 30
0.0
 40
3.0
  1
171
 50
90.00000250447815
 41
1.285263174458553
100
AcDbText
  0
POINT
  5
4E
330
46
100
AcDbEntity
  8
DEFPOINTS
  6
Continuous
 62
     7
100
AcDbPoint
 10
-251.3478088378906
 20
186.7651062011719
 30
0.0
  0
POINT
  5
4F
330
46
100
AcDbEntity
  8
DEFPOINTS
  6
Continuous
 62
     7
100
AcDbPoint
 10
-251.3478088378906
 20
357.7651062011719
 30
0.0
  0
POINT
  5
50
330
46
100
AcDbEntity
  8
DEFPOINTS
  6
Continuous
 62
     7
100
AcDbPoint
 10
-208.1103515625
 20
357.7651062011719
 30
0.0
  0
ENDBLK
  5
51
330
46
100
AcDbEntity
  8
0
100
AcDbBlockEnd
  0
BLOCK
  5
53
330
52
100
AcDbEntity
  8
0
100
AcDbBlockBegin
  2
*D3
 70
     1
 10
0.0
 20
0.0
 30
0.0
  3
*D3
  1

  0
LINE
  5
54
330
52
100
AcDbEntity
  8
0
  6
Continuous
 62
     7
100
AcDbLine
 10
-432.8478088378906
 20
398.1734313964844
 30
0.0
 11
-238.8478088378906
 21
398.1734313964844
 31
0.0
  0
INSERT
  5
55
330
52
100
AcDbEntity
  8
0
  6
Continuous
 62
     7
100
AcDbBlockReference
  2
_OPEN30
 10
-435.8478088378906
 20
398.1734313964844
 30
0.0
 50
180.0000000000004
  0
INSERT
  5
56
330
52
100
AcDbEntity
  8
0
  6
Continuous
 62
     7
100
AcDbBlockReference
  2
_OPEN30
 10
-235.8478088378906
 20
398.1734313964844
 30
0.0
  0
LINE
  5
57
330
52
100
AcDbEntity
  8
0
  6
Continuous
 62
     7
100
AcDbLine
 10
-435.8478088378906
 20
369.8051062011719
 30
0.0
 11
-435.8478088378906
 21
400.4594421386718
 31
0.0
  0
LINE
  5
58
330
52
100
AcDbEntity
  8
0
  6
Continuous
 62
     7
100
AcDbLine
 10
-235.8478088378906
 20
369.8051062011719
 30
0.0
 11
-235.8478088378906
 21
400.4594421386718
 31
0.0
  0
TEXT
  5
59
330
52
100
AcDbEntity
  8
0
  6
Continuous
 62
     7
100
AcDbText
 10
-339.917809009552
 20
398.9234313964844
 30
0.0
 40
3.0
  1
200
 41
1.135813968126164
100
AcDbText
  0
POINT
  5
5A
330
52
100
AcDbEntity
  8
DEFPOINTS
  6
Continuous
 62
     7
100
AcDbPoint
 10
-435.8478088378906
 20
367.2651062011719
 30
0.0
  0
POINT
  5
5B
330
52
100
AcDbEntity
  8
DEFPOINTS
  6
Continuous
 62
     7
100
AcDbPoint
 10
-235.8478088378906
 20
367.2651062011719
 30
0.0
  0
POINT
  5
5C
330
52
100
AcDbEntity
  8
DEFPOINTS
  6
Continuous
 62
     7
100
AcDbPoint
 10
-235.8478088378906
 20
398.1734313964844
 30
0.0
  0
ENDBLK
  5
5D
330
52
100
AcDbEntity
  8
0
100
AcDbBlockEnd
  0
BLOCK
  5
5F
330
5E
100
AcDbEntity
  8
0
100
AcDbBlockBegin
  2
*D4
 70
     1
 10
0.0
 20
0.0
 30
0.0
  3
*D4
  1

  0
LINE
  5
60
330
5E
100
AcDbEntity
  8
0
  6
Continuous
 62
     7
100
AcDbLine
 10
-418.3478088378906
 20
388.7821350097656
 30
0.0
 11
-253.3478088378906
 21
388.7821350097656
 31
0.0
  0
INSERT
  5
61
330
5E
100
AcDbEntity
  8
0
  6
Continuous
 62
     7
100
AcDbBlockReference
  2
_OPEN30
 10
-421.3478088378906
 20
388.7821350097656
 30
0.0
 50
180.0000000000004
  0
INSERT
  5
62
330
5E
100
AcDbEntity
  8
0
  6
Continuous
 62
     7
100
AcDbBlockReference
  2
_OPEN30
 10
-250.3478088378906
 20
388.7821350097656
 30
0.0
  0
LINE
  5
63
330
5E
100
AcDbEntity
  8
0
  6
Continuous
 62
     7
100
AcDbLine
 10
-421.3478088378906
 20
359.3051062011719
 30
0.0
 11
-421.3478088378906
 21
391.0681457519531
 31
0.0
  0
LINE
  5
64
330
5E
100
AcDbEntity
  8
0
  6
Continuous
 62
     7
100
AcDbLine
 10
-250.3478088378906
 20
359.3051062011719
 30
0.0
 11
-250.3478088378906
 21
391.0681457519531
 31
0.0
  0
TEXT
  5
65
330
5E
100
AcDbEntity
  8
0
  6
Continuous
 62
     7
100
AcDbText
 10
-339.917809009552
 20
389.5321350097656
 30
0.0
 40
3.0
  1
171
 41
1.285263174458553
100
AcDbText
  0
POINT
  5
66
330
5E
100
AcDbEntity
  8
DEFPOINTS
  6
Continuous
 62
     7
100
AcDbPoint
 10
-421.3478088378906
 20
356.7651062011719
 30
0.0
  0
POINT
  5
67
330
5E
100
AcDbEntity
  8
DEFPOINTS
  6
Continuous
 62
     7
100
AcDbPoint
 10
-250.3478088378906
 20
356.7651062011719
 30
0.0
  0
POINT
  5
68
330
5E
100
AcDbEntity
  8
DEFPOINTS
  6
Continuous
 62
     7
100
AcDbPoint
 10
-250.3478088378906
 20
388.7821350097656
 30
0.0
  0
ENDBLK
  5
69
330
5E
100
AcDbEntity
  8
0
100
AcDbBlockEnd
  0
BLOCK
  5
6B
330
6A
100
AcDbEntity
  8
0
100
AcDbBlockBegin
  2
*D5
 70
     1
 10
0.0
 20
0.0
 30
0.0
  3
*D5
  1

  0
LINE
  5
6C
330
6A
100
AcDbEntity
  8
0
  6
Continuous
 62
     7
100
AcDbLine
 10
-213.2046051025391
 20
46.6732063293457
 30
0.0
 11
-213.204605102539
 21
123.673210144043
 31
0.0
  0
INSERT
  5
6D
330
6A
100
AcDbEntity
  8
0
  6
Continuous
 62
     7
100
AcDbBlockReference
  2
_OPEN30
 10
-213.2046051025391
 20
43.6732063293457
 30
0.0
 50
270.0000000000005
  0
INSERT
  5
6E
330
6A
100
AcDbEntity
  8
0
  6
Continuous
 62
     7
100
AcDbBlockReference
  2
_OPEN30
 10
-213.2046051025391
 20
126.673210144043
 30
0.0
 50
90.00000000000019
  0
LINE
  5
6F
330
6A
100
AcDbEntity
  8
0
  6
Continuous
 62
     7
100
AcDbLine
 10
-314.8079309082031
 20
43.6732063293457
 30
0.0
 11
-210.9186096191406
 21
43.6732063293457
 31
0.0
  0
LINE
  5
70
330
6A
100
AcDbEntity
  8
0
  6
Continuous
 62
     7
100
AcDbLine
 10
-234.3078088378906
 20
126.673210144043
 30
0.0
 11
-210.9186096191406
 21
126.673210144043
 31
0.0
  0
TEXT
  5
71
330
6A
100
AcDbEntity
  8
0
  6
Continuous
 62
     7
100
AcDbText
 10
-213.9546049902008
 20
82.60320999920269
 30
0.0
 40
3.0
  1
83
 50
90.00000250447815
 41
1.028000020980834
100
AcDbText
  0
POINT
  5
72
330
6A
100
AcDbEntity
  8
DEFPOINTS
  6
Continuous
 62
     7
100
AcDbPoint
 10
-317.3479309082031
 20
43.6732063293457
 30
0.0
  0
POINT
  5
73
330
6A
100
AcDbEntity
  8
DEFPOINTS
  6
Continuous
 62
     7
100
AcDbPoint
 10
-236.8478088378906
 20
126.673210144043
 30
0.0
  0
POINT
  5
74
330
6A
100
AcDbEntity
  8
DEFPOINTS
  6
Continuous
 62
     7
100
AcDbPoint
 10
-213.2046051025391
 20
126.673210144043
 30
0.0
  0
ENDBLK
  5
75
330
6A
100
AcDbEntity
  8
0
100
AcDbBlockEnd
  0
BLOCK
  5
77
330
76
100
AcDbEntity
  8
0
100
AcDbBlockBegin
  2
KOZU0001
 70
     0
 10
0.0
 20
0.0
 30
0.0
  3
KOZU0001
  1

  0
LINE
  5
78
330
76
100
AcDbEntity
  8
0
  6
Continuous
 62
     7
100
AcDbLine
 10
0.0
 20
0.0
 30
0.0
 11
-10.49606323242188
 21
-20.91861724853516
 31
0.0
  0
LINE
  5
79
330
76
100
AcDbEntity
  8
0
  6
Continuous
 62
     7
100
AcDbLine
 10
-10.49606323242188
 20
-20.91861724853516
 30
0.0
 11
-43.20367431640625
 21
-20.91861724853516
 31
0.0
  0
LINE
  5
7A
330
76
100
AcDbEntity
  8
0
  6
Continuous
 62
     7
100
AcDbLine
 10
0.0
 20
0.0
 30
0.0
 11
-0.4516103551400731
 21
-3.12986390872355
 31
0.0
  0
LINE
  5
7B
330
76
100
AcDbEntity
  8
0
  6
Continuous
 62
     7
100
AcDbLine
 10
0.0
 20
0.0
 30
0.0
 11
-2.239206629346187
 21
-2.232924913894795
 31
0.0
  0
TEXT
  5
7C
330
76
100
AcDbEntity
  8
0
  6
Continuous
 62
     7
100
AcDbText
 10
-41.48367393016815
 20
-20.16861724853516
 30
0.0
 40
3.0
  1
配管接続口
 41
0.8487395020950888
100
AcDbText
  0
TEXT
  5
7D
330
76
100
AcDbEntity
  8
0
  6
Continuous
 62
     7
100
AcDbText
 10
-41.48367393016815
 20
-25.43361724853516
 30
0.0
 40
3.0
  1
Ｒｃ１（２５Ａ）
 41
0.8454512278006642
100
AcDbText
  0
ENDBLK
  5
7E
330
76
100
AcDbEntity
  8
0
100
AcDbBlockEnd
  0
ENDSEC
  0
SECTION
  2
ENTITIES
  0
LINE
  5
7F
330
22
100
AcDbEntity
  8
0
  6
Continuous
 62
     7
100
AcDbLine
 10
-280.8478088378906
 20
126.173210144043
 30
0.0
 11
-280.8478088378906
 21
120.673210144043
 31
0.0
  0
LINE
  5
80
330
22
100
AcDbEntity
  8
0
  6
Continuous
 62
     7
100
AcDbLine
 10
-262.8478088378906
 20
119.173210144043
 30
0.0
 11
-262.8478088378906
 21
98.20910644531251
 31
0.0
  0
LINE
  5
81
330
22
100
AcDbEntity
  8
0
  6
Continuous
 62
     7
100
AcDbLine
 10
-255.3478088378906
 20
119.173210144043
 30
0.0
 11
-255.3478088378906
 21
102.8108901977539
 31
0.0
  0
LINE
  5
82
330
22
100
AcDbEntity
  8
0
  6
Continuous
 62
     7
100
AcDbLine
 10
-235.8478088378906
 20
125.673210144043
 30
0.0
 11
-235.8478088378906
 21
123.673210144043
 31
0.0
  0
LINE
  5
83
330
22
100
AcDbEntity
  8
0
  6
Continuous
 62
     7
100
AcDbLine
 10
-250.8478088378906
 20
126.673210144043
 30
0.0
 11
-250.8478088378906
 21
120.173210144043
 31
0.0
  0
LINE
  5
84
330
22
100
AcDbEntity
  8
0
  6
Continuous
 62
     7
100
AcDbLine
 10
-244.8478088378906
 20
122.673210144043
 30
0.0
 11
-236.8478088378906
 21
122.673210144043
 31
0.0
  0
LINE
  5
85
330
22
100
AcDbEntity
  8
0
  6
Continuous
 62
     7
100
AcDbLine
 10
-245.8478088378906
 20
104.5599594116211
 30
0.0
 11
-245.8478088378906
 21
121.673210144043
 31
0.0
  0
LINE
  5
86
330
22
100
AcDbEntity
  8
0
  6
Continuous
 62
     7
100
AcDbLine
 10
-264.8478088378906
 20
126.173210144043
 30
0.0
 11
-264.8478088378906
 21
120.673210144043
 31
0.0
  0
LINE
  5
87
330
22
100
AcDbEntity
  8
0
  6
Continuous
 62
     7
100
AcDbLine
 10
-254.8478088378906
 20
120.673210144043
 30
0.0
 11
-254.3478088378906
 21
120.673210144043
 31
0.0
  0
LINE
  5
88
330
22
100
AcDbEntity
  8
0
  6
Continuous
 62
     7
100
AcDbLine
 10
-259.8478088378906
 20
126.173210144043
 30
0.0
 11
-259.8478088378906
 21
120.673210144043
 31
0.0
  0
LINE
  5
89
330
22
100
AcDbEntity
  8
0
  6
Continuous
 62
     7
100
AcDbLine
 10
-251.3478088378906
 20
125.673210144043
 30
0.0
 11
-251.3478088378906
 21
119.673210144043
 31
0.0
  0
LINE
  5
8A
330
22
100
AcDbEntity
  8
0
  6
Continuous
 62
     7
100
AcDbLine
 10
-264.3478088378905
 20
95.61103057861329
 30
0.0
 11
-256.7792053222656
 21
100.2536544799805
 31
0.0
  0
LINE
  5
8B
330
22
100
AcDbEntity
  8
0
  6
Continuous
 62
     7
100
AcDbLine
 10
-355.5317687988281
 20
59.42729187011718
 30
0.0
 11
-353.0796508789063
 21
59.42729187011718
 31
0.0
  0
LINE
  5
8C
330
22
100
AcDbEntity
  8
0
  6
Continuous
 62
     7
100
AcDbLine
 10
-347.7185668945313
 20
44.6732063293457
 30
0.0
 11
-335.8478088378906
 21
44.6732063293457
 31
0.0
  0
LINE
  5
8D
330
22
100
AcDbEntity
  8
0
  6
Continuous
 62
     7
100
AcDbLine
 10
-354.3477172851563
 20
43.6732063293457
 30
0.0
 11
-335.8478088378906
 21
43.6732063293457
 31
0.0
  0
LINE
  5
8E
330
22
100
AcDbEntity
  8
0
  6
Continuous
 62
     7
100
AcDbLine
 10
-356.7355346679688
 20
61.54039001464844
 30
0.0
 11
-335.8478088378906
 21
61.54039001464844
 31
0.0
  0
LINE
  5
8F
330
22
100
AcDbEntity
  8
0
  6
Continuous
 62
     7
100
AcDbLine
 10
-347.4100036621094
 20
59.42729187011718
 30
0.0
 11
-335.8478088378906
 21
59.42729187011718
 31
0.0
  0
LINE
  5
90
330
22
100
AcDbEntity
  8
0
  6
Continuous
 62
     7
100
AcDbLine
 10
-322.2138366699219
 20
62.04736328125
 30
0.0
 11
-335.8478088378906
 21
62.04736328125
 31
0.0
  0
LINE
  5
91
330
22
100
AcDbEntity
  8
0
  6
Continuous
 62
     7
100
AcDbLine
 10
-321.1985473632813
 20
59.6732063293457
 30
0.0
 11
-335.8478088378906
 21
59.6732063293457
 31
0.0
  0
LINE
  5
92
330
22
100
AcDbEntity
  8
0
  6
Continuous
 62
     7
100
AcDbLine
 10
-251.8478088378906
 20
119.173210144043
 30
0.0
 11
-251.3478088378906
 21
119.673210144043
 31
0.0
  0
LINE
  5
93
330
22
100
AcDbEntity
  8
0
  6
Continuous
 62
     7
100
AcDbLine
 10
-253.8478088378906
 20
119.173210144043
 30
0.0
 11
-251.8478088378906
 21
119.173210144043
 31
0.0
  0
LINE
  5
94
330
22
100
AcDbEntity
  8
0
  6
Continuous
 62
     7
100
AcDbLine
 10
-254.3478088378906
 20
120.673210144043
 30
0.0
 11
-254.3478088378906
 21
119.673210144043
 31
0.0
  0
LINE
  5
95
330
22
100
AcDbEntity
  8
0
  6
Continuous
 62
     7
100
AcDbLine
 10
-254.3478088378906
 20
119.673210144043
 30
0.0
 11
-253.8478088378906
 21
119.173210144043
 31
0.0
  0
LINE
  5
96
330
22
100
AcDbEntity
  8
0
  6
Continuous
 62
     7
100
AcDbLine
 10
-251.8478088378906
 20
126.173210144043
 30
0.0
 11
-251.3478088378906
 21
125.673210144043
 31
0.0
  0
LINE
  5
97
330
22
100
AcDbEntity
  8
0
  6
Continuous
 62
     7
100
AcDbLine
 10
-285.8478088378906
 20
126.173210144043
 30
0.0
 11
-285.8478088378906
 21
120.673210144043
 31
0.0
  0
LINE
  5
98
330
22
100
AcDbEntity
  8
0
  6
Continuous
 62
     7
100
AcDbLine
 10
-316.3479309082031
 20
44.6732063293457
 30
0.0
 11
-316.3479309082031
 21
58.08320236206054
 31
0.0
  0
LINE
  5
99
330
22
100
AcDbEntity
  8
0
  6
Continuous
 62
     7
100
AcDbLine
 10
-321.1985473632813
 20
59.6732063293457
 30
0.0
 11
-319.7010498046875
 21
58.17570114135742
 31
0.0
  0
LINE
  5
9A
330
22
100
AcDbEntity
  8
0
  6
Continuous
 62
     7
100
AcDbLine
 10
-320.7453308105469
 20
45.17071533203124
 30
0.0
 11
-321.1985473632813
 21
59.6732063293457
 31
0.0
  0
LINE
  5
9B
330
22
100
AcDbEntity
  8
0
  6
Continuous
 62
     7
100
AcDbLine
 10
-319.247802734375
 20
43.6732063293457
 30
0.0
 11
-319.7010498046875
 21
58.17570114135742
 31
0.0
  0
LINE
  5
9C
330
22
100
AcDbEntity
  8
0
  6
Continuous
 62
     7
100
AcDbLine
 10
-322.3478088378906
 20
61.54736328125
 30
0.0
 11
-322.3478088378906
 21
60.1732063293457
 31
0.0
  0
LINE
  5
9D
330
22
100
AcDbEntity
  8
0
  6
Continuous
 62
     7
100
AcDbLine
 10
-317.3479309082031
 20
43.6732063293457
 30
0.0
 11
-316.3479309082031
 21
44.6732063293457
 31
0.0
  0
LINE
  5
9E
330
22
100
AcDbEntity
  8
0
  6
Continuous
 62
     7
100
AcDbLine
 10
-319.247802734375
 20
43.6732063293457
 30
0.0
 11
-320.7453308105469
 21
45.17071533203124
 31
0.0
  0
LINE
  5
9F
330
22
100
AcDbEntity
  8
0
  6
Continuous
 62
     7
100
AcDbLine
 10
-321.8478088378906
 20
59.6732063293457
 30
0.0
 11
-321.1985473632813
 21
59.6732063293457
 31
0.0
  0
LINE
  5
A0
330
22
100
AcDbEntity
  8
0
  6
Continuous
 62
     7
100
AcDbLine
 10
-327.8478088378906
 20
126.173210144043
 30
0.0
 11
-327.8478088378906
 21
120.673210144043
 31
0.0
  0
LINE
  5
A1
330
22
100
AcDbEntity
  8
0
  6
Continuous
 62
     7
100
AcDbLine
 10
-348.3902893066406
 20
43.6732063293457
 30
0.0
 11
-348.3902893066406
 21
60.40497589111328
 31
0.0
  0
LINE
  5
A2
330
22
100
AcDbEntity
  8
0
  6
Continuous
 62
     7
100
AcDbLine
 10
-355.3477172851563
 20
44.6732063293457
 30
0.0
 11
-352.9613952636719
 21
44.6732063293457
 31
0.0
  0
LINE
  5
A3
330
22
100
AcDbEntity
  8
0
  6
Continuous
 62
     7
100
AcDbLine
 10
-354.3477172851563
 20
43.6732063293457
 30
0.0
 11
-355.3477172851563
 21
44.6732063293457
 31
0.0
  0
LINE
  5
A4
330
22
100
AcDbEntity
  8
0
  6
Continuous
 62
     7
100
AcDbLine
 10
-355.3477172851563
 20
44.6732063293457
 30
0.0
 11
-355.3477172851563
 21
58.08320236206054
 31
0.0
  0
LINE
  5
A5
330
22
100
AcDbEntity
  8
0
  6
Continuous
 62
     7
100
AcDbLine
 10
-352.4537658691406
 20
43.6732063293457
 30
0.0
 11
-352.4537658691406
 21
60.40497589111328
 31
0.0
  0
LINE
  5
A6
330
22
100
AcDbEntity
  8
0
  6
Continuous
 62
     7
100
AcDbLine
 10
-435.8478088378906
 20
125.673210144043
 30
0.0
 11
-435.8478088378906
 21
123.673210144043
 31
0.0
  0
LINE
  5
A7
330
22
100
AcDbEntity
  8
0
  6
Continuous
 62
     7
100
AcDbLine
 10
-425.8478088378906
 20
104.5599594116211
 30
0.0
 11
-425.8478088378906
 21
122.673210144043
 31
0.0
  0
LINE
  5
A8
330
22
100
AcDbEntity
  8
0
  6
Continuous
 62
     7
100
AcDbLine
 10
-306.8478088378906
 20
126.173210144043
 30
0.0
 11
-306.8478088378906
 21
120.673210144043
 31
0.0
  0
LINE
  5
A9
330
22
100
AcDbEntity
  8
0
  6
Continuous
 62
     7
100
AcDbLine
 10
-322.8478088378906
 20
126.173210144043
 30
0.0
 11
-322.8478088378906
 21
120.673210144043
 31
0.0
  0
LINE
  5
AA
330
22
100
AcDbEntity
  8
0
  6
Continuous
 62
     7
100
AcDbLine
 10
-301.8478088378906
 20
126.173210144043
 30
0.0
 11
-301.8478088378906
 21
120.673210144043
 31
0.0
  0
LINE
  5
AB
330
22
100
AcDbEntity
  8
0
  6
Continuous
 62
     7
100
AcDbLine
 10
-335.8478088378906
 20
43.6732063293457
 30
0.0
 11
-317.3479309082031
 21
43.6732063293457
 31
0.0
  0
LINE
  5
AC
330
22
100
AcDbEntity
  8
0
  6
Continuous
 62
     7
100
AcDbLine
 10
-423.3478088378906
 20
100.2298278808594
 30
0.0
 11
-357.8477172851563
 21
62.413330078125
 31
0.0
  0
LINE
  5
AD
330
22
100
AcDbEntity
  8
0
  6
Continuous
 62
     7
100
AcDbLine
 10
-434.8478088378906
 20
122.673210144043
 30
0.0
 11
-335.8478088378906
 21
122.673210144043
 31
0.0
  0
LINE
  5
AE
330
22
100
AcDbEntity
  8
0
  6
Continuous
 62
     7
100
AcDbLine
 10
-420.8478088378906
 20
101.673210144043
 30
0.0
 11
-335.8478088378906
 21
101.673210144043
 31
0.0
  0
LINE
  5
AF
330
22
100
AcDbEntity
  8
0
  6
Continuous
 62
     7
100
AcDbLine
 10
-335.8478088378906
 20
45.17071533203124
 30
0.0
 11
-320.7453308105469
 21
45.17071533203124
 31
0.0
  0
LINE
  5
B0
330
22
100
AcDbEntity
  8
0
  6
CENTER
 62
     7
100
AcDbLine
 10
-335.8478088378906
 20
38.09936904907227
 30
0.0
 11
-335.8478088378906
 21
136.3109588623047
 31
0.0
  0
LINE
  5
B1
330
22
100
AcDbEntity
  8
0
  6
Continuous
 62
     7
100
AcDbLine
 10
-322.2765502929688
 20
60.00112152099609
 30
0.0
 11
-317.1546936035156
 21
65.12296295166016
 31
0.0
  0
LINE
  5
B2
330
22
100
AcDbEntity
  8
0
  6
Continuous
 62
     7
100
AcDbLine
 10
-320.4872741699219
 20
58.96194458007813
 30
0.0
 11
-310.4625549316406
 21
68.98666381835939
 31
0.0
  0
LINE
  5
B3
330
22
100
AcDbEntity
  8
0
  6
Continuous
 62
     7
100
AcDbLine
 10
-250.8478088378906
 20
125.7729873657227
 30
0.0
 11
-249.9476013183594
 21
126.673210144043
 31
0.0
  0
LINE
  5
B4
330
22
100
AcDbEntity
  8
0
  6
Continuous
 62
     7
100
AcDbLine
 10
-319.6629943847656
 20
56.95782470703125
 30
0.0
 11
-303.7704467773438
 21
72.85037231445312
 31
0.0
  0
LINE
  5
B5
330
22
100
AcDbEntity
  8
0
  6
Continuous
 62
     7
100
AcDbLine
 10
-250.8478088378906
 20
122.9445648193359
 30
0.0
 11
-247.1191711425781
 21
126.673210144043
 31
0.0
  0
LINE
  5
B6
330
22
100
AcDbEntity
  8
0
  6
Continuous
 62
     7
100
AcDbLine
 10
-255.3478088378906
 20
118.4445648193359
 30
0.0
 11
-254.6191711425781
 21
119.173210144043
 31
0.0
  0
LINE
  5
B7
330
22
100
AcDbEntity
  8
0
  6
Continuous
 62
     7
100
AcDbLine
 10
-308.0065002441406
 20
65.7858657836914
 30
0.0
 11
-297.0783081054688
 21
76.71407318115234
 31
0.0
  0
LINE
  5
B8
330
22
100
AcDbEntity
  8
0
  6
Continuous
 62
     7
100
AcDbLine
 10
-319.573486328125
 20
54.21887588500977
 30
0.0
 11
-316.3479309082031
 21
57.4444580078125
 31
0.0
  0
LINE
  5
B9
330
22
100
AcDbEntity
  8
0
  6
Continuous
 62
     7
100
AcDbLine
 10
-250.8881683349609
 20
120.0757827758789
 30
0.0
 11
-244.2907409667969
 21
126.673210144043
 31
0.0
  0
LINE
  5
BA
330
22
100
AcDbEntity
  8
0
  6
Continuous
 62
     7
100
AcDbLine
 10
-255.3478088378906
 20
115.6161346435547
 30
0.0
 11
-251.7503814697266
 21
119.2135620117188
 31
0.0
  0
LINE
  5
BB
330
22
100
AcDbEntity
  8
0
  6
Continuous
 62
     7
100
AcDbLine
 10
-301.3143920898438
 20
69.64957427978515
 30
0.0
 11
-290.3861694335938
 21
80.57777404785156
 31
0.0
  0
LINE
  5
BC
330
22
100
AcDbEntity
  8
0
  6
Continuous
 62
     7
100
AcDbLine
 10
-319.4181213378906
 20
51.54582977294921
 30
0.0
 11
-316.3479309082031
 21
54.61603164672852
 31
0.0
  0
LINE
  5
BD
330
22
100
AcDbEntity
  8
0
  6
Continuous
 62
     7
100
AcDbLine
 10
-255.3478088378906
 20
112.7877044677734
 30
0.0
 11
-241.4623107910156
 21
126.673210144043
 31
0.0
  0
LINE
  5
BE
330
22
100
AcDbEntity
  8
0
  6
Continuous
 62
     7
100
AcDbLine
 10
-294.6222534179688
 20
73.51327514648438
 30
0.0
 11
-283.6940307617188
 21
84.44148254394532
 31
0.0
  0
LINE
  5
BF
330
22
100
AcDbEntity
  8
0
  6
Continuous
 62
     7
100
AcDbLine
 10
-319.3323974609375
 20
48.80311584472656
 30
0.0
 11
-316.3479309082031
 21
51.78760528564453
 31
0.0
  0
LINE
  5
C0
330
22
100
AcDbEntity
  8
0
  6
Continuous
 62
     7
100
AcDbLine
 10
-242.6338958740234
 20
122.673210144043
 30
0.0
 11
-238.6338958740234
 21
126.673210144043
 31
0.0
  0
LINE
  5
C1
330
22
100
AcDbEntity
  8
0
  6
Continuous
 62
     7
100
AcDbLine
 10
-255.3478088378906
 20
109.9592819213867
 30
0.0
 11
-245.8478088378906
 21
119.4592819213867
 31
0.0
  0
LINE
  5
C2
330
22
100
AcDbEntity
  8
0
  6
Continuous
 62
     7
100
AcDbLine
 10
-287.9301147460938
 20
77.37697601318359
 30
0.0
 11
-277.0019226074219
 21
88.30518341064452
 31
0.0
  0
LINE
  5
C3
330
22
100
AcDbEntity
  8
0
  6
Continuous
 62
     7
100
AcDbLine
 10
-319.2467041015625
 20
46.0604019165039
 30
0.0
 11
-316.3479309082031
 21
48.95917892456054
 31
0.0
  0
LINE
  5
C4
330
22
100
AcDbEntity
  8
0
  6
Continuous
 62
     7
100
AcDbLine
 10
-239.8054656982422
 20
122.673210144043
 30
0.0
 11
-236.1282958984375
 21
126.3503646850586
 31
0.0
  0
LINE
  5
C5
330
22
100
AcDbEntity
  8
0
  6
Continuous
 62
     7
100
AcDbLine
 10
-255.3478088378906
 20
107.1308517456055
 30
0.0
 11
-245.8478088378906
 21
116.6308517456055
 31
0.0
  0
LINE
  5
C6
330
22
100
AcDbEntity
  8
0
  6
Continuous
 62
     7
100
AcDbLine
 10
-281.2379760742188
 20
81.24068450927735
 30
0.0
 11
-270.3097839355469
 21
92.16888427734376
 31
0.0
  0
LINE
  5
C7
330
22
100
AcDbEntity
  8
0
  6
Continuous
 62
     7
100
AcDbLine
 10
-318.8054504394531
 20
43.6732063293457
 30
0.0
 11
-316.3479309082031
 21
46.1307487487793
 31
0.0
  0
LINE
  5
C8
330
22
100
AcDbEntity
  8
0
  6
Continuous
 62
     7
100
AcDbLine
 10
-236.9770355224609
 20
122.673210144043
 30
0.0
 11
-235.8478088378906
 21
123.8024291992188
 31
0.0
  0
LINE
  5
C9
330
22
100
AcDbEntity
  8
0
  6
Continuous
 62
     7
100
AcDbLine
 10
-255.3478088378906
 20
104.3024291992188
 30
0.0
 11
-245.8478088378906
 21
113.8024291992188
 31
0.0
  0
LINE
  5
CA
330
22
100
AcDbEntity
  8
0
  6
Continuous
 62
     7
100
AcDbLine
 10
-274.5458679199219
 20
85.10438537597655
 30
0.0
 11
-263.549560546875
 21
96.10068511962893
 31
0.0
  0
LINE
  5
CB
330
22
100
AcDbEntity
  8
0
  6
Continuous
 62
     7
100
AcDbLine
 10
-267.853729248047
 20
88.96808624267578
 30
0.0
 11
-245.8478088378906
 21
110.9739990234375
 31
0.0
  0
LINE
  5
CC
330
22
100
AcDbEntity
  8
0
  6
Continuous
 62
     7
100
AcDbLine
 10
-261.1615905761719
 20
92.83179473876952
 30
0.0
 11
-245.8478088378906
 21
108.1455688476563
 31
0.0
  0
LINE
  5
CD
330
22
100
AcDbEntity
  8
0
  6
Continuous
 62
     7
100
AcDbLine
 10
-254.4694671630859
 20
96.69549560546876
 30
0.0
 11
-245.8478088378906
 21
105.3171463012695
 31
0.0
  0
LINE
  5
CE
330
22
100
AcDbEntity
  8
0
  6
Continuous
 62
     7
100
AcDbLine
 10
-264.3478088378905
 20
95.61103057861329
 30
0.0
 11
-321.8478088378906
 21
62.41338729858398
 31
0.0
  0
LINE
  5
CF
330
22
100
AcDbEntity
  8
0
  6
Continuous
 62
     7
100
AcDbLine
 10
-248.3478088378906
 20
100.2298278808594
 30
0.0
 11
-313.8479309082031
 21
62.413330078125
 31
0.0
  0
LINE
  5
D0
330
22
100
AcDbEntity
  8
0
  6
Continuous
 62
     7
100
AcDbLine
 10
-434.8478088378906
 20
126.673210144043
 30
0.0
 11
-236.8478088378906
 21
126.673210144043
 31
0.0
  0
LINE
  5
D1
330
22
100
AcDbEntity
  8
0
  6
Continuous
 62
     7
100
AcDbLine
 10
-254.9575805664063
 20
126.173210144043
 30
0.0
 11
-251.3478088378906
 21
122.5634460449219
 31
0.0
  0
LINE
  5
D2
330
22
100
AcDbEntity
  8
0
  6
Continuous
 62
     7
100
AcDbLine
 10
-259.2002258300781
 20
126.173210144043
 30
0.0
 11
-252.2002105712891
 21
119.173210144043
 31
0.0
  0
LINE
  5
D3
330
22
100
AcDbEntity
  8
0
  6
Continuous
 62
     7
100
AcDbLine
 10
-259.8478088378906
 20
122.5781631469727
 30
0.0
 11
-257.94287109375
 21
120.673210144043
 31
0.0
  0
LINE
  5
D4
330
22
100
AcDbEntity
  8
0
  6
Continuous
 62
     7
100
AcDbLine
 10
-267.6854858398438
 20
126.173210144043
 30
0.0
 11
-264.8478088378906
 21
123.3355255126953
 31
0.0
  0
LINE
  5
D5
330
22
100
AcDbEntity
  8
0
  6
Continuous
 62
     7
100
AcDbLine
 10
-271.9281311035156
 20
126.173210144043
 30
0.0
 11
-266.4281311035156
 21
120.673210144043
 31
0.0
  0
LINE
  5
D6
330
22
100
AcDbEntity
  8
0
  6
Continuous
 62
     7
100
AcDbLine
 10
-276.1707763671875
 20
126.173210144043
 30
0.0
 11
-270.6707763671875
 21
120.673210144043
 31
0.0
  0
LINE
  5
D7
330
22
100
AcDbEntity
  8
0
  6
Continuous
 62
     7
100
AcDbLine
 10
-280.4134216308595
 20
126.173210144043
 30
0.0
 11
-274.9134216308594
 21
120.673210144043
 31
0.0
  0
LINE
  5
D8
330
22
100
AcDbEntity
  8
0
  6
Continuous
 62
     7
100
AcDbLine
 10
-280.8478088378906
 20
122.3649597167969
 30
0.0
 11
-279.1560668945313
 21
120.673210144043
 31
0.0
  0
LINE
  5
D9
330
22
100
AcDbEntity
  8
0
  6
Continuous
 62
     7
100
AcDbLine
 10
-288.8987121582031
 20
126.173210144043
 30
0.0
 11
-285.8478088378906
 21
123.1223220825195
 31
0.0
  0
LINE
  5
DA
330
22
100
AcDbEntity
  8
0
  6
Continuous
 62
     7
100
AcDbLine
 10
-293.1413269042969
 20
126.173210144043
 30
0.0
 11
-287.6413269042969
 21
120.673210144043
 31
0.0
  0
LINE
  5
DB
330
22
100
AcDbEntity
  8
0
  6
Continuous
 62
     7
100
AcDbLine
 10
-297.3839721679688
 20
126.173210144043
 30
0.0
 11
-291.8839721679688
 21
120.673210144043
 31
0.0
  0
LINE
  5
DC
330
22
100
AcDbEntity
  8
0
  6
Continuous
 62
     7
100
AcDbLine
 10
-301.6266174316406
 20
126.173210144043
 30
0.0
 11
-296.1266174316406
 21
120.673210144043
 31
0.0
  0
LINE
  5
DD
330
22
100
AcDbEntity
  8
0
  6
Continuous
 62
     7
100
AcDbLine
 10
-301.8478088378906
 20
122.1517562866211
 30
0.0
 11
-300.3692626953125
 21
120.673210144043
 31
0.0
  0
LINE
  5
DE
330
22
100
AcDbEntity
  8
0
  6
Continuous
 62
     7
100
AcDbLine
 10
-310.1119079589844
 20
126.173210144043
 30
0.0
 11
-306.8478088378906
 21
122.9091186523438
 31
0.0
  0
LINE
  5
DF
330
22
100
AcDbEntity
  8
0
  6
Continuous
 62
     7
100
AcDbLine
 10
-314.3545532226563
 20
126.173210144043
 30
0.0
 11
-308.8545532226563
 21
120.673210144043
 31
0.0
  0
LINE
  5
E0
330
22
100
AcDbEntity
  8
0
  6
Continuous
 62
     7
100
AcDbLine
 10
-318.5971984863281
 20
126.173210144043
 30
0.0
 11
-313.0971984863281
 21
120.673210144043
 31
0.0
  0
LINE
  5
E1
330
22
100
AcDbEntity
  8
0
  6
Continuous
 62
     7
100
AcDbLine
 10
-322.8398132324219
 20
126.173210144043
 30
0.0
 11
-317.3398132324219
 21
120.673210144043
 31
0.0
  0
LINE
  5
E2
330
22
100
AcDbEntity
  8
0
  6
Continuous
 62
     7
100
AcDbLine
 10
-322.8478088378906
 20
121.9385528564453
 30
0.0
 11
-321.5824584960938
 21
120.673210144043
 31
0.0
  0
LINE
  5
E3
330
22
100
AcDbEntity
  8
0
  6
Continuous
 62
     7
100
AcDbLine
 10
-331.3251037597656
 20
126.173210144043
 30
0.0
 11
-327.8478088378906
 21
122.695915222168
 31
0.0
  0
LINE
  5
E4
330
22
100
AcDbEntity
  8
0
  6
Continuous
 62
     7
100
AcDbLine
 10
-335.5677490234375
 20
126.173210144043
 30
0.0
 11
-330.0677490234375
 21
120.673210144043
 31
0.0
  0
LINE
  5
E5
330
22
100
AcDbEntity
  8
0
  6
Continuous
 62
     7
100
AcDbLine
 10
-335.8478088378906
 20
122.2106323242188
 30
0.0
 11
-334.3103942871094
 21
120.673210144043
 31
0.0
  0
LINE
  5
E6
330
22
100
AcDbEntity
  8
0
  6
Continuous
 62
     7
100
AcDbLine
 10
-252.8362579345703
 20
126.173210144043
 30
0.0
 11
-251.3478088378906
 21
124.6847686767578
 31
0.0
  0
LINE
  5
E7
330
22
100
AcDbEntity
  8
0
  6
Continuous
 62
     7
100
AcDbLine
 10
-257.0788879394531
 20
126.173210144043
 30
0.0
 11
-251.3478088378906
 21
120.4421234130859
 31
0.0
  0
LINE
  5
E8
330
22
100
AcDbEntity
  8
0
  6
Continuous
 62
     7
100
AcDbLine
 10
-259.8478088378906
 20
124.6994781494141
 30
0.0
 11
-255.821533203125
 21
120.673210144043
 31
0.0
  0
LINE
  5
E9
330
22
100
AcDbEntity
  8
0
  6
Continuous
 62
     7
100
AcDbLine
 10
-265.5641784667969
 20
126.173210144043
 30
0.0
 11
-264.8478088378906
 21
125.4568481445313
 31
0.0
  0
LINE
  5
EA
330
22
100
AcDbEntity
  8
0
  6
Continuous
 62
     7
100
AcDbLine
 10
-269.8068237304688
 20
126.173210144043
 30
0.0
 11
-264.8478088378906
 21
121.2142105102539
 31
0.0
  0
LINE
  5
EB
330
22
100
AcDbEntity
  8
0
  6
Continuous
 62
     7
100
AcDbLine
 10
-274.0494689941406
 20
126.173210144043
 30
0.0
 11
-268.5494689941406
 21
120.673210144043
 31
0.0
  0
LINE
  5
EC
330
22
100
AcDbEntity
  8
0
  6
Continuous
 62
     7
100
AcDbLine
 10
-278.2920837402344
 20
126.173210144043
 30
0.0
 11
-272.7920837402344
 21
120.673210144043
 31
0.0
  0
LINE
  5
ED
330
22
100
AcDbEntity
  8
0
  6
Continuous
 62
     7
100
AcDbLine
 10
-280.8478088378906
 20
124.4862747192383
 30
0.0
 11
-277.0347290039063
 21
120.673210144043
 31
0.0
  0
LINE
  5
EE
330
22
100
AcDbEntity
  8
0
  6
Continuous
 62
     7
100
AcDbLine
 10
-286.7773742675781
 20
126.173210144043
 30
0.0
 11
-285.8478088378906
 21
125.2436370849609
 31
0.0
  0
LINE
  5
EF
330
22
100
AcDbEntity
  8
0
  6
Continuous
 62
     7
100
AcDbLine
 10
-291.02001953125
 20
126.173210144043
 30
0.0
 11
-285.8478088378906
 21
121.0009994506836
 31
0.0
  0
LINE
  5
F0
330
22
100
AcDbEntity
  8
0
  6
Continuous
 62
     7
100
AcDbLine
 10
-295.2626647949219
 20
126.173210144043
 30
0.0
 11
-289.7626647949219
 21
120.673210144043
 31
0.0
  0
LINE
  5
F1
330
22
100
AcDbEntity
  8
0
  6
Continuous
 62
     7
100
AcDbLine
 10
-299.5053100585938
 20
126.173210144043
 30
0.0
 11
-294.0053100585938
 21
120.673210144043
 31
0.0
  0
LINE
  5
F2
330
22
100
AcDbEntity
  8
0
  6
Continuous
 62
     7
100
AcDbLine
 10
-301.8478088378906
 20
124.2730712890625
 30
0.0
 11
-298.2479553222656
 21
120.673210144043
 31
0.0
  0
LINE
  5
F3
330
22
100
AcDbEntity
  8
0
  6
Continuous
 62
     7
100
AcDbLine
 10
-307.9905700683594
 20
126.173210144043
 30
0.0
 11
-306.8478088378906
 21
125.0304336547852
 31
0.0
  0
LINE
  5
F4
330
22
100
AcDbEntity
  8
0
  6
Continuous
 62
     7
100
AcDbLine
 10
-312.2332153320313
 20
126.173210144043
 30
0.0
 11
-306.8478088378906
 21
120.7877960205078
 31
0.0
  0
LINE
  5
F5
330
22
100
AcDbEntity
  8
0
  6
Continuous
 62
     7
100
AcDbLine
 10
-316.4758605957031
 20
126.173210144043
 30
0.0
 11
-310.9758605957031
 21
120.673210144043
 31
0.0
  0
LINE
  5
F6
330
22
100
AcDbEntity
  8
0
  6
Continuous
 62
     7
100
AcDbLine
 10
-320.718505859375
 20
126.173210144043
 30
0.0
 11
-315.218505859375
 21
120.673210144043
 31
0.0
  0
LINE
  5
F7
330
22
100
AcDbEntity
  8
0
  6
Continuous
 62
     7
100
AcDbLine
 10
-322.8478088378906
 20
124.0598678588867
 30
0.0
 11
-319.4611511230469
 21
120.673210144043
 31
0.0
  0
LINE
  5
F8
330
22
100
AcDbEntity
  8
0
  6
Continuous
 62
     7
100
AcDbLine
 10
-329.2037963867188
 20
126.173210144043
 30
0.0
 11
-327.8478088378906
 21
124.8172302246094
 31
0.0
  0
LINE
  5
F9
330
22
100
AcDbEntity
  8
0
  6
Continuous
 62
     7
100
AcDbLine
 10
-333.4464416503906
 20
126.173210144043
 30
0.0
 11
-327.9464416503906
 21
120.673210144043
 31
0.0
  0
LINE
  5
FA
330
22
100
AcDbEntity
  8
0
  6
Continuous
 62
     7
100
AcDbLine
 10
-335.8478088378906
 20
124.3319549560547
 30
0.0
 11
-332.1890563964844
 21
120.673210144043
 31
0.0
  0
LINE
  5
FB
330
22
100
AcDbEntity
  8
0
  6
Continuous
 62
     7
100
AcDbLine
 10
-335.8478088378906
 20
119.173210144043
 30
0.0
 11
-251.8478088378906
 21
119.173210144043
 31
0.0
  0
LINE
  5
FC
330
22
100
AcDbEntity
  8
0
  6
Continuous
 62
     7
100
AcDbLine
 10
-335.8478088378906
 20
120.673210144043
 30
0.0
 11
-254.8478088378906
 21
120.673210144043
 31
0.0
  0
LINE
  5
FD
330
22
100
AcDbEntity
  8
0
  6
Continuous
 62
     7
100
AcDbLine
 10
-251.8478088378906
 20
126.173210144043
 30
0.0
 11
-335.8478088378906
 21
126.173210144043
 31
0.0
  0
LINE
  5
FE
330
22
100
AcDbEntity
  8
0
  6
Continuous
 62
     7
100
AcDbLine
 10
-268.2531127929688
 20
96.7091064453125
 30
0.0
 11
-335.8478088378906
 21
96.7091064453125
 31
0.0
  0
LINE
  5
FF
330
22
100
AcDbEntity
  8
0
  6
Continuous
 62
     7
100
AcDbLine
 10
-291.3478088378906
 20
197.2651062011719
 30
0.0
 11
-291.3478088378906
 21
227.2651062011719
 31
0.0
  0
LINE
  5
100
330
22
100
AcDbEntity
  8
0
  6
Continuous
 62
     7
100
AcDbLine
 10
-291.3478088378906
 20
237.2651062011719
 30
0.0
 11
-291.3478088378906
 21
267.2651062011719
 31
0.0
  0
LINE
  5
101
330
22
100
AcDbEntity
  8
0
  6
Continuous
 62
     7
100
AcDbLine
 10
-291.3478088378906
 20
277.2651062011719
 30
0.0
 11
-291.3478088378906
 21
307.2651062011719
 31
0.0
  0
LINE
  5
102
330
22
100
AcDbEntity
  8
0
  6
Continuous
 62
     7
100
AcDbLine
 10
-291.3478088378906
 20
317.2651062011719
 30
0.0
 11
-291.3478088378906
 21
347.2651062011719
 31
0.0
  0
LINE
  5
103
330
22
100
AcDbEntity
  8
0
  6
Continuous
 62
     7
100
AcDbLine
 10
-296.3478088378906
 20
277.2651062011719
 30
0.0
 11
-296.3478088378906
 21
307.2651062011719
 31
0.0
  0
LINE
  5
104
330
22
100
AcDbEntity
  8
0
  6
Continuous
 62
     7
100
AcDbLine
 10
-301.8478088378906
 20
257.2651062011719
 30
0.0
 11
-301.8478088378906
 21
287.2651062011719
 31
0.0
  0
LINE
  5
105
330
22
100
AcDbEntity
  8
0
  6
Continuous
 62
     7
100
AcDbLine
 10
-306.8478088378906
 20
257.2651062011719
 30
0.0
 11
-306.8478088378906
 21
287.2651062011719
 31
0.0
  0
LINE
  5
106
330
22
100
AcDbEntity
  8
0
  6
DASHED
 62
     7
100
AcDbLine
 10
-264.8478088378906
 20
353.7651062011719
 30
0.0
 11
-406.8478088378906
 21
353.7651062011719
 31
0.0
  0
LINE
  5
107
330
22
100
AcDbEntity
  8
0
  6
Continuous
 62
     7
100
AcDbLine
 10
-253.3478088378906
 20
356.7651062011719
 30
0.0
 11
-418.3478088378906
 21
356.7651062011719
 31
0.0
  0
LINE
  5
108
330
22
100
AcDbEntity
  8
0
  6
DASHED
 62
     7
100
AcDbLine
 10
-264.8478088378906
 20
190.7651062011719
 30
0.0
 11
-406.8478088378906
 21
190.7651062011719
 31
0.0
  0
LINE
  5
109
330
22
100
AcDbEntity
  8
0
  6
Continuous
 62
     7
100
AcDbLine
 10
-253.3478088378906
 20
187.7651062011719
 30
0.0
 11
-418.3478088378906
 21
187.7651062011719
 31
0.0
  0
LINE
  5
10A
330
22
100
AcDbEntity
  8
0
  6
Continuous
 62
     7
100
AcDbLine
 10
-240.8478088378906
 20
372.2651062011719
 30
0.0
 11
-430.8478088378906
 21
372.2651062011719
 31
0.0
  0
LINE
  5
10B
330
22
100
AcDbEntity
  8
0
  6
Continuous
 62
     7
100
AcDbLine
 10
-420.3478088378906
 20
186.7651062011719
 30
0.0
 11
-251.3478088378906
 21
186.7651062011719
 31
0.0
  0
LINE
  5
10C
330
22
100
AcDbEntity
  8
0
  6
Continuous
 62
     7
100
AcDbLine
 10
-251.3478088378906
 20
357.7651062011719
 30
0.0
 11
-420.3478088378906
 21
357.7651062011719
 31
0.0
  0
LINE
  5
10D
330
22
100
AcDbEntity
  8
0
  6
CENTER
 62
     7
100
AcDbLine
 10
-441.1763000488281
 20
272.2651062011719
 30
0.0
 11
-225.8208618164063
 21
272.2651062011719
 31
0.0
  0
LINE
  5
10E
330
22
100
AcDbEntity
  8
0
  6
Continuous
 62
     7
100
AcDbLine
 10
-430.8478088378906
 20
172.2651062011719
 30
0.0
 11
-240.8478088378906
 21
172.2651062011719
 31
0.0
  0
LINE
  5
10F
330
22
100
AcDbEntity
  8
0
  6
Continuous
 62
     7
100
AcDbLine
 10
-348.8478088378906
 20
257.2651062011719
 30
0.0
 11
-348.8478088378906
 21
287.2651062011719
 31
0.0
  0
LINE
  5
110
330
22
100
AcDbEntity
  8
0
  6
Continuous
 62
     7
100
AcDbLine
 10
-343.8478088378906
 20
257.2651062011719
 30
0.0
 11
-343.8478088378906
 21
287.2651062011719
 31
0.0
  0
LINE
  5
111
330
22
100
AcDbEntity
  8
0
  6
Continuous
 62
     7
100
AcDbLine
 10
-359.3478088378906
 20
277.2651062011719
 30
0.0
 11
-359.3478088378906
 21
307.2651062011719
 31
0.0
  0
LINE
  5
112
330
22
100
AcDbEntity
  8
0
  6
Continuous
 62
     7
100
AcDbLine
 10
-354.3478088378906
 20
277.2651062011719
 30
0.0
 11
-354.3478088378906
 21
307.2651062011719
 31
0.0
  0
LINE
  5
113
330
22
100
AcDbEntity
  8
0
  6
Continuous
 62
     7
100
AcDbLine
 10
-406.8478088378906
 20
257.2651062011719
 30
0.0
 11
-406.8478088378906
 21
287.2651062011719
 31
0.0
  0
LINE
  5
114
330
22
100
AcDbEntity
  8
0
  6
Continuous
 62
     7
100
AcDbLine
 10
-390.8478088378906
 20
257.2651062011719
 30
0.0
 11
-390.8478088378906
 21
287.2651062011719
 31
0.0
  0
LINE
  5
115
330
22
100
AcDbEntity
  8
0
  6
Continuous
 62
     7
100
AcDbLine
 10
-385.8478088378906
 20
257.2651062011719
 30
0.0
 11
-385.8478088378906
 21
287.2651062011719
 31
0.0
  0
LINE
  5
116
330
22
100
AcDbEntity
  8
0
  6
Continuous
 62
     7
100
AcDbLine
 10
-411.8478088378906
 20
257.2651062011719
 30
0.0
 11
-411.8478088378906
 21
287.2651062011719
 31
0.0
  0
LINE
  5
117
330
22
100
AcDbEntity
  8
0
  6
Continuous
 62
     7
100
AcDbLine
 10
-380.3478088378906
 20
277.2651062011719
 30
0.0
 11
-380.3478088378906
 21
307.2651062011719
 31
0.0
  0
LINE
  5
118
330
22
100
AcDbEntity
  8
0
  6
Continuous
 62
     7
100
AcDbLine
 10
-396.3478088378906
 20
277.2651062011719
 30
0.0
 11
-396.3478088378906
 21
307.2651062011719
 31
0.0
  0
LINE
  5
119
330
22
100
AcDbEntity
  8
0
  6
Continuous
 62
     7
100
AcDbLine
 10
-401.3478088378906
 20
277.2651062011719
 30
0.0
 11
-401.3478088378906
 21
307.2651062011719
 31
0.0
  0
LINE
  5
11A
330
22
100
AcDbEntity
  8
0
  6
Continuous
 62
     7
100
AcDbLine
 10
-421.3478088378906
 20
356.7651062011719
 30
0.0
 11
-421.3478088378906
 21
187.7651062011719
 31
0.0
  0
LINE
  5
11B
330
22
100
AcDbEntity
  8
0
  6
Continuous
 62
     7
100
AcDbLine
 10
-420.3478088378906
 20
354.7651062011719
 30
0.0
 11
-420.3478088378906
 21
189.7651062011719
 31
0.0
  0
LINE
  5
11C
330
22
100
AcDbEntity
  8
0
  6
DASHED
 62
     7
100
AcDbLine
 10
-417.3478088378906
 20
343.2651062011719
 30
0.0
 11
-417.3478088378906
 21
201.2651062011719
 31
0.0
  0
LINE
  5
11D
330
22
100
AcDbEntity
  8
0
  6
Continuous
 62
     7
100
AcDbLine
 10
-369.8478088378906
 20
257.2651062011719
 30
0.0
 11
-369.8478088378906
 21
287.2651062011719
 31
0.0
  0
LINE
  5
11E
330
22
100
AcDbEntity
  8
0
  6
Continuous
 62
     7
100
AcDbLine
 10
-364.8478088378906
 20
257.2651062011719
 30
0.0
 11
-364.8478088378906
 21
287.2651062011719
 31
0.0
  0
LINE
  5
11F
330
22
100
AcDbEntity
  8
0
  6
Continuous
 62
     7
100
AcDbLine
 10
-375.3478088378906
 20
277.2651062011719
 30
0.0
 11
-375.3478088378906
 21
307.2651062011719
 31
0.0
  0
LINE
  5
120
330
22
100
AcDbEntity
  8
0
  6
CENTER
 62
     7
100
AcDbLine
 10
-335.8478088378906
 20
380.3209533691406
 30
0.0
 11
-335.8478088378906
 21
166.5470733642578
 31
0.0
  0
LINE
  5
121
330
22
100
AcDbEntity
  8
0
  6
Continuous
 62
     7
100
AcDbLine
 10
-435.8478088378906
 20
367.2651062011719
 30
0.0
 11
-435.8478088378906
 21
177.2651062011719
 31
0.0
  0
LINE
  5
122
330
22
100
AcDbEntity
  8
0
  6
Continuous
 62
     7
100
AcDbLine
 10
-327.8478088378906
 20
257.2651062011719
 30
0.0
 11
-327.8478088378906
 21
287.2651062011719
 31
0.0
  0
LINE
  5
123
330
22
100
AcDbEntity
  8
0
  6
Continuous
 62
     7
100
AcDbLine
 10
-322.8478088378906
 20
257.2651062011719
 30
0.0
 11
-322.8478088378906
 21
287.2651062011719
 31
0.0
  0
LINE
  5
124
330
22
100
AcDbEntity
  8
0
  6
Continuous
 62
     7
100
AcDbLine
 10
-312.3478088378906
 20
277.2651062011719
 30
0.0
 11
-312.3478088378906
 21
307.2651062011719
 31
0.0
  0
LINE
  5
125
330
22
100
AcDbEntity
  8
0
  6
Continuous
 62
     7
100
AcDbLine
 10
-317.3478088378906
 20
277.2651062011719
 30
0.0
 11
-317.3478088378906
 21
307.2651062011719
 31
0.0
  0
LINE
  5
126
330
22
100
AcDbEntity
  8
0
  6
Continuous
 62
     7
100
AcDbLine
 10
-390.8478088378906
 20
207.2651062011719
 30
0.0
 11
-390.8478088378906
 21
197.2651062011719
 31
0.0
  0
LINE
  5
127
330
22
100
AcDbEntity
  8
0
  6
Continuous
 62
     7
100
AcDbLine
 10
-390.8478088378906
 20
217.2651062011719
 30
0.0
 11
-390.8478088378906
 21
247.2651062011719
 31
0.0
  0
LINE
  5
128
330
22
100
AcDbEntity
  8
0
  6
Continuous
 62
     7
100
AcDbLine
 10
-259.8478088378906
 20
257.2651062011719
 30
0.0
 11
-259.8478088378906
 21
287.2651062011719
 31
0.0
  0
LINE
  5
129
330
22
100
AcDbEntity
  8
0
  6
Continuous
 62
     7
100
AcDbLine
 10
-264.8478088378906
 20
257.2651062011719
 30
0.0
 11
-264.8478088378906
 21
287.2651062011719
 31
0.0
  0
LINE
  5
12A
330
22
100
AcDbEntity
  8
0
  6
Continuous
 62
     7
100
AcDbLine
 10
-280.8478088378906
 20
257.2651062011719
 30
0.0
 11
-280.8478088378906
 21
287.2651062011719
 31
0.0
  0
LINE
  5
12B
330
22
100
AcDbEntity
  8
0
  6
Continuous
 62
     7
100
AcDbLine
 10
-285.8478088378906
 20
257.2651062011719
 30
0.0
 11
-285.8478088378906
 21
287.2651062011719
 31
0.0
  0
LINE
  5
12C
330
22
100
AcDbEntity
  8
0
  6
Continuous
 62
     7
100
AcDbLine
 10
-270.3478088378906
 20
277.2651062011719
 30
0.0
 11
-270.3478088378906
 21
307.2651062011719
 31
0.0
  0
LINE
  5
12D
330
22
100
AcDbEntity
  8
0
  6
Continuous
 62
     7
100
AcDbLine
 10
-275.3478088378906
 20
277.2651062011719
 30
0.0
 11
-275.3478088378906
 21
307.2651062011719
 31
0.0
  0
LINE
  5
12E
330
22
100
AcDbEntity
  8
0
  6
DASHED
 62
     7
100
AcDbLine
 10
-254.3478088378906
 20
201.2651062011719
 30
0.0
 11
-254.3478088378906
 21
343.2651062011719
 31
0.0
  0
LINE
  5
12F
330
22
100
AcDbEntity
  8
0
  6
Continuous
 62
     7
100
AcDbLine
 10
-251.3478088378906
 20
189.7651062011719
 30
0.0
 11
-251.3478088378906
 21
354.7651062011719
 31
0.0
  0
LINE
  5
130
330
22
100
AcDbEntity
  8
0
  6
Continuous
 62
     7
100
AcDbLine
 10
-250.3478088378906
 20
187.7651062011719
 30
0.0
 11
-250.3478088378906
 21
356.7651062011719
 31
0.0
  0
LINE
  5
131
330
22
100
AcDbEntity
  8
0
  6
Continuous
 62
     7
100
AcDbLine
 10
-235.8478088378906
 20
177.2651062011719
 30
0.0
 11
-235.8478088378906
 21
367.2651062011719
 31
0.0
  0
LINE
  5
132
330
22
100
AcDbEntity
  8
0
  6
Continuous
 62
     7
100
AcDbLine
 10
-333.3478088378906
 20
277.2651062011719
 30
0.0
 11
-333.3478088378906
 21
307.2651062011719
 31
0.0
  0
LINE
  5
133
330
22
100
AcDbEntity
  8
0
  6
Continuous
 62
     7
100
AcDbLine
 10
-338.3478088378906
 20
277.2651062011719
 30
0.0
 11
-338.3478088378906
 21
307.2651062011719
 31
0.0
  0
LINE
  5
134
330
22
100
AcDbEntity
  8
0
  6
Continuous
 62
     7
100
AcDbLine
 10
-390.8478088378906
 20
297.2651062011719
 30
0.0
 11
-390.8478088378906
 21
327.2651062011719
 31
0.0
  0
LINE
  5
135
330
22
100
AcDbEntity
  8
0
  6
Continuous
 62
     7
100
AcDbLine
 10
-390.8478088378906
 20
337.2651062011719
 30
0.0
 11
-390.8478088378906
 21
347.2651062011719
 31
0.0
  0
LINE
  5
136
330
22
100
AcDbEntity
  8
0
  6
Continuous
 62
     7
100
AcDbLine
 10
-401.3478088378906
 20
237.2651062011719
 30
0.0
 11
-401.3478088378906
 21
267.2651062011719
 31
0.0
  0
LINE
  5
137
330
22
100
AcDbEntity
  8
0
  6
Continuous
 62
     7
100
AcDbLine
 10
-411.8478088378906
 20
207.2651062011719
 30
0.0
 11
-411.8478088378906
 21
247.2651062011719
 31
0.0
  0
LINE
  5
138
330
22
100
AcDbEntity
  8
0
  6
Continuous
 62
     7
100
AcDbLine
 10
-406.8478088378906
 20
207.2651062011719
 30
0.0
 11
-406.8478088378906
 21
247.2651062011719
 31
0.0
  0
LINE
  5
139
330
22
100
AcDbEntity
  8
0
  6
Continuous
 62
     7
100
AcDbLine
 10
-396.3478088378906
 20
237.2651062011719
 30
0.0
 11
-396.3478088378906
 21
267.2651062011719
 31
0.0
  0
LINE
  5
13A
330
22
100
AcDbEntity
  8
0
  6
CENTER
 62
     7
100
AcDbLine
 10
-419.6681823730468
 20
194.2651062011719
 30
0.0
 11
-406.6256408691406
 21
194.2651062011719
 31
0.0
  0
LINE
  5
13B
330
22
100
AcDbEntity
  8
0
  6
Continuous
 62
     7
100
AcDbLine
 10
-416.0654907226563
 20
197.0263061523438
 30
0.0
 11
-413.8478088378906
 21
195.3463592529297
 31
0.0
  0
LINE
  5
13C
330
22
100
AcDbEntity
  8
0
  6
Continuous
 62
     7
100
AcDbLine
 10
-411.3435974121093
 20
196.7693328857422
 30
0.0
 11
-411.6155395507813
 21
197.0412902832031
 31
0.0
  0
LINE
  5
13D
330
22
100
AcDbEntity
  8
0
  6
Continuous
 62
     7
100
AcDbLine
 10
-411.0716247558594
 20
196.4973602294922
 30
0.0
 11
-412.7665710449218
 21
194.2651062011719
 31
0.0
  0
LINE
  5
13E
330
22
100
AcDbEntity
  8
0
  6
Continuous
 62
     7
100
AcDbLine
 10
-411.3435974121093
 20
196.7693328857422
 30
0.0
 11
-411.0716247558594
 21
196.4973602294922
 31
0.0
  0
LINE
  5
13F
330
22
100
AcDbEntity
  8
0
  6
Continuous
 62
     7
100
AcDbLine
 10
-411.0716247558594
 20
196.4973602294922
 30
0.0
 11
-412.7665710449218
 21
194.2651062011719
 31
0.0
  0
LINE
  5
140
330
22
100
AcDbEntity
  8
0
  6
Continuous
 62
     7
100
AcDbLine
 10
-411.6301269531249
 20
191.50390625
 30
0.0
 11
-411.3583679199218
 21
191.7756652832031
 31
0.0
  0
LINE
  5
141
330
22
100
AcDbEntity
  8
0
  6
Continuous
 62
     7
100
AcDbLine
 10
-416.0800781249999
 20
191.4889221191406
 30
0.0
 11
-413.8478088378906
 21
193.1838531494141
 31
0.0
  0
LINE
  5
142
330
22
100
AcDbEntity
  8
0
  6
Continuous
 62
     7
100
AcDbLine
 10
-411.6301269531249
 20
191.50390625
 30
0.0
 11
-413.8478088378906
 21
193.1838531494141
 31
0.0
  0
LINE
  5
143
330
22
100
AcDbEntity
  8
0
  6
Continuous
 62
     7
100
AcDbLine
 10
-416.6090087890625
 20
196.4827880859375
 30
0.0
 11
-414.9290771484374
 21
194.2651062011719
 31
0.0
  0
LINE
  5
144
330
22
100
AcDbEntity
  8
0
  6
Continuous
 62
     7
100
AcDbLine
 10
-416.6239929199218
 20
192.0328521728516
 30
0.0
 11
-414.9290771484374
 21
194.2651062011719
 31
0.0
  0
LINE
  5
145
330
22
100
AcDbEntity
  8
0
  6
Continuous
 62
     7
100
AcDbLine
 10
-416.3520507812499
 20
191.7608795166016
 30
0.0
 11
-416.0800781249999
 21
191.4889221191406
 31
0.0
  0
LINE
  5
146
330
22
100
AcDbEntity
  8
0
  6
Continuous
 62
     7
100
AcDbLine
 10
-416.3520507812499
 20
191.7608795166016
 30
0.0
 11
-416.6239929199218
 21
192.0328521728516
 31
0.0
  0
LINE
  5
147
330
22
100
AcDbEntity
  8
0
  6
Continuous
 62
     7
100
AcDbLine
 10
-416.3520507812499
 20
191.7608795166016
 30
0.0
 11
-416.6239929199218
 21
192.0328521728516
 31
0.0
  0
LINE
  5
148
330
22
100
AcDbEntity
  8
0
  6
Continuous
 62
     7
100
AcDbLine
 10
-416.3520507812499
 20
191.7608795166016
 30
0.0
 11
-416.0800781249999
 21
191.4889221191406
 31
0.0
  0
LINE
  5
149
330
22
100
AcDbEntity
  8
0
  6
Continuous
 62
     7
100
AcDbLine
 10
-411.6301269531249
 20
191.50390625
 30
0.0
 11
-411.3583679199218
 21
191.7756652832031
 31
0.0
  0
LINE
  5
14A
330
22
100
AcDbEntity
  8
0
  6
Continuous
 62
     7
100
AcDbLine
 10
-411.0866088867187
 20
192.0474243164063
 30
0.0
 11
-411.3583679199218
 21
191.7756652832031
 31
0.0
  0
LINE
  5
14B
330
22
100
AcDbEntity
  8
0
  6
Continuous
 62
     7
100
AcDbLine
 10
-411.0866088867187
 20
192.0474243164063
 30
0.0
 11
-412.7665710449218
 21
194.2651062011719
 31
0.0
  0
LINE
  5
14C
330
22
100
AcDbEntity
  8
0
  6
Continuous
 62
     7
100
AcDbLine
 10
-411.6155395507813
 20
197.0412902832031
 30
0.0
 11
-413.8478088378906
 21
195.3463592529297
 31
0.0
  0
LINE
  5
14D
330
22
100
AcDbEntity
  8
0
  6
Continuous
 62
     7
100
AcDbLine
 10
-411.3435974121093
 20
196.7693328857422
 30
0.0
 11
-411.6155395507813
 21
197.0412902832031
 31
0.0
  0
LINE
  5
14E
330
22
100
AcDbEntity
  8
0
  6
Continuous
 62
     7
100
AcDbLine
 10
-416.0654907226563
 20
197.0263061523438
 30
0.0
 11
-413.8478088378906
 21
195.3463592529297
 31
0.0
  0
LINE
  5
14F
330
22
100
AcDbEntity
  8
0
  6
Continuous
 62
     7
100
AcDbLine
 10
-411.0866088867187
 20
192.0474243164063
 30
0.0
 11
-411.3583679199218
 21
191.7756652832031
 31
0.0
  0
LINE
  5
150
330
22
100
AcDbEntity
  8
0
  6
Continuous
 62
     7
100
AcDbLine
 10
-416.6239929199218
 20
192.0328521728516
 30
0.0
 11
-414.9290771484374
 21
194.2651062011719
 31
0.0
  0
LINE
  5
151
330
22
100
AcDbEntity
  8
0
  6
Continuous
 62
     7
100
AcDbLine
 10
-416.0654907226563
 20
197.0263061523438
 30
0.0
 11
-416.3372497558594
 21
196.7545471191406
 31
0.0
  0
LINE
  5
152
330
22
100
AcDbEntity
  8
0
  6
Continuous
 62
     7
100
AcDbLine
 10
-416.0800781249999
 20
191.4889221191406
 30
0.0
 11
-413.8478088378906
 21
193.1838531494141
 31
0.0
  0
LINE
  5
153
330
22
100
AcDbEntity
  8
0
  6
Continuous
 62
     7
100
AcDbLine
 10
-411.6155395507813
 20
197.0412902832031
 30
0.0
 11
-413.8478088378906
 21
195.3463592529297
 31
0.0
  0
LINE
  5
154
330
22
100
AcDbEntity
  8
0
  6
CENTER
 62
     7
100
AcDbLine
 10
-413.8478088378906
 20
188.4858093261719
 30
0.0
 11
-413.8478088378906
 21
200.5282745361328
 31
0.0
  0
LINE
  5
155
330
22
100
AcDbEntity
  8
0
  6
DASHED
 62
     7
100
AcDbLine
 10
-413.8478088378906
 20
199.2651062011719
 30
0.0
 11
-415.3478088378906
 21
199.2651062011719
 31
0.0
  0
LINE
  5
156
330
22
100
AcDbEntity
  8
0
  6
DASHED
 62
     7
100
AcDbLine
 10
-408.8478088378906
 20
194.2651062011719
 30
0.0
 11
-408.8478088378906
 21
192.7651062011719
 31
0.0
  0
LINE
  5
157
330
22
100
AcDbEntity
  8
0
  6
Continuous
 62
     7
100
AcDbLine
 10
-401.3478088378906
 20
197.2651062011719
 30
0.0
 11
-401.3478088378906
 21
227.2651062011719
 31
0.0
  0
LINE
  5
158
330
22
100
AcDbEntity
  8
0
  6
Continuous
 62
     7
100
AcDbLine
 10
-396.3478088378906
 20
197.2651062011719
 30
0.0
 11
-396.3478088378906
 21
227.2651062011719
 31
0.0
  0
LINE
  5
159
330
22
100
AcDbEntity
  8
0
  6
Continuous
 62
     7
100
AcDbLine
 10
-411.3435974121093
 20
196.7693328857422
 30
0.0
 11
-411.0716247558594
 21
196.4973602294922
 31
0.0
  0
LINE
  5
15A
330
22
100
AcDbEntity
  8
0
  6
Continuous
 62
     7
100
AcDbLine
 10
-411.0866088867187
 20
192.0474243164063
 30
0.0
 11
-412.7665710449218
 21
194.2651062011719
 31
0.0
  0
LINE
  5
15B
330
22
100
AcDbEntity
  8
0
  6
Continuous
 62
     7
100
AcDbLine
 10
-411.6301269531249
 20
191.50390625
 30
0.0
 11
-413.8478088378906
 21
193.1838531494141
 31
0.0
  0
LINE
  5
15C
330
22
100
AcDbEntity
  8
0
  6
Continuous
 62
     7
100
AcDbLine
 10
-416.6090087890625
 20
196.4827880859375
 30
0.0
 11
-416.3372497558594
 21
196.7545471191406
 31
0.0
  0
LINE
  5
15D
330
22
100
AcDbEntity
  8
0
  6
Continuous
 62
     7
100
AcDbLine
 10
-416.0654907226563
 20
197.0263061523438
 30
0.0
 11
-416.3372497558594
 21
196.7545471191406
 31
0.0
  0
LINE
  5
15E
330
22
100
AcDbEntity
  8
0
  6
Continuous
 62
     7
100
AcDbLine
 10
-416.6090087890625
 20
196.4827880859375
 30
0.0
 11
-416.3372497558594
 21
196.7545471191406
 31
0.0
  0
LINE
  5
15F
330
22
100
AcDbEntity
  8
0
  6
Continuous
 62
     7
100
AcDbLine
 10
-416.6090087890625
 20
196.4827880859375
 30
0.0
 11
-414.9290771484374
 21
194.2651062011719
 31
0.0
  0
LINE
  5
160
330
22
100
AcDbEntity
  8
0
  6
Continuous
 62
     7
100
AcDbLine
 10
-327.8478088378906
 20
217.2651062011719
 30
0.0
 11
-327.8478088378906
 21
247.2651062011719
 31
0.0
  0
LINE
  5
161
330
22
100
AcDbEntity
  8
0
  6
Continuous
 62
     7
100
AcDbLine
 10
-296.3478088378906
 20
197.2651062011719
 30
0.0
 11
-296.3478088378906
 21
227.2651062011719
 31
0.0
  0
LINE
  5
162
330
22
100
AcDbEntity
  8
0
  6
Continuous
 62
     7
100
AcDbLine
 10
-296.3478088378906
 20
237.2651062011719
 30
0.0
 11
-296.3478088378906
 21
267.2651062011719
 31
0.0
  0
LINE
  5
163
330
22
100
AcDbEntity
  8
0
  6
Continuous
 62
     7
100
AcDbLine
 10
-322.8478088378906
 20
207.2651062011719
 30
0.0
 11
-322.8478088378906
 21
197.2651062011719
 31
0.0
  0
LINE
  5
164
330
22
100
AcDbEntity
  8
0
  6
Continuous
 62
     7
100
AcDbLine
 10
-312.3478088378906
 20
197.2651062011719
 30
0.0
 11
-312.3478088378906
 21
227.2651062011719
 31
0.0
  0
LINE
  5
165
330
22
100
AcDbEntity
  8
0
  6
Continuous
 62
     7
100
AcDbLine
 10
-317.3478088378906
 20
197.2651062011719
 30
0.0
 11
-317.3478088378906
 21
227.2651062011719
 31
0.0
  0
LINE
  5
166
330
22
100
AcDbEntity
  8
0
  6
Continuous
 62
     7
100
AcDbLine
 10
-322.8478088378906
 20
217.2651062011719
 30
0.0
 11
-322.8478088378906
 21
247.2651062011719
 31
0.0
  0
LINE
  5
167
330
22
100
AcDbEntity
  8
0
  6
Continuous
 62
     7
100
AcDbLine
 10
-317.3478088378906
 20
237.2651062011719
 30
0.0
 11
-317.3478088378906
 21
267.2651062011719
 31
0.0
  0
LINE
  5
168
330
22
100
AcDbEntity
  8
0
  6
Continuous
 62
     7
100
AcDbLine
 10
-312.3478088378906
 20
237.2651062011719
 30
0.0
 11
-312.3478088378906
 21
267.2651062011719
 31
0.0
  0
LINE
  5
169
330
22
100
AcDbEntity
  8
0
  6
Continuous
 62
     7
100
AcDbLine
 10
-306.8478088378906
 20
207.2651062011719
 30
0.0
 11
-306.8478088378906
 21
197.2651062011719
 31
0.0
  0
LINE
  5
16A
330
22
100
AcDbEntity
  8
0
  6
Continuous
 62
     7
100
AcDbLine
 10
-306.8478088378906
 20
217.2651062011719
 30
0.0
 11
-306.8478088378906
 21
247.2651062011719
 31
0.0
  0
LINE
  5
16B
330
22
100
AcDbEntity
  8
0
  6
Continuous
 62
     7
100
AcDbLine
 10
-301.8478088378906
 20
207.2651062011719
 30
0.0
 11
-301.8478088378906
 21
197.2651062011719
 31
0.0
  0
LINE
  5
16C
330
22
100
AcDbEntity
  8
0
  6
Continuous
 62
     7
100
AcDbLine
 10
-301.8478088378906
 20
217.2651062011719
 30
0.0
 11
-301.8478088378906
 21
247.2651062011719
 31
0.0
  0
LINE
  5
16D
330
22
100
AcDbEntity
  8
0
  6
Continuous
 62
     7
100
AcDbLine
 10
-385.8478088378906
 20
207.2651062011719
 30
0.0
 11
-385.8478088378906
 21
197.2651062011719
 31
0.0
  0
LINE
  5
16E
330
22
100
AcDbEntity
  8
0
  6
Continuous
 62
     7
100
AcDbLine
 10
-385.8478088378906
 20
217.2651062011719
 30
0.0
 11
-385.8478088378906
 21
247.2651062011719
 31
0.0
  0
LINE
  5
16F
330
22
100
AcDbEntity
  8
0
  6
Continuous
 62
     7
100
AcDbLine
 10
-380.3478088378906
 20
237.2651062011719
 30
0.0
 11
-380.3478088378906
 21
267.2651062011719
 31
0.0
  0
LINE
  5
170
330
22
100
AcDbEntity
  8
0
  6
Continuous
 62
     7
100
AcDbLine
 10
-375.3478088378906
 20
197.2651062011719
 30
0.0
 11
-375.3478088378906
 21
227.2651062011719
 31
0.0
  0
LINE
  5
171
330
22
100
AcDbEntity
  8
0
  6
Continuous
 62
     7
100
AcDbLine
 10
-364.8478088378906
 20
207.2651062011719
 30
0.0
 11
-364.8478088378906
 21
197.2651062011719
 31
0.0
  0
LINE
  5
172
330
22
100
AcDbEntity
  8
0
  6
Continuous
 62
     7
100
AcDbLine
 10
-369.8478088378906
 20
207.2651062011719
 30
0.0
 11
-369.8478088378906
 21
197.2651062011719
 31
0.0
  0
LINE
  5
173
330
22
100
AcDbEntity
  8
0
  6
Continuous
 62
     7
100
AcDbLine
 10
-364.8478088378906
 20
217.2651062011719
 30
0.0
 11
-364.8478088378906
 21
247.2651062011719
 31
0.0
  0
LINE
  5
174
330
22
100
AcDbEntity
  8
0
  6
Continuous
 62
     7
100
AcDbLine
 10
-369.8478088378906
 20
217.2651062011719
 30
0.0
 11
-369.8478088378906
 21
247.2651062011719
 31
0.0
  0
LINE
  5
175
330
22
100
AcDbEntity
  8
0
  6
Continuous
 62
     7
100
AcDbLine
 10
-375.3478088378906
 20
237.2651062011719
 30
0.0
 11
-375.3478088378906
 21
267.2651062011719
 31
0.0
  0
LINE
  5
176
330
22
100
AcDbEntity
  8
0
  6
Continuous
 62
     7
100
AcDbLine
 10
-327.8478088378906
 20
207.2651062011719
 30
0.0
 11
-327.8478088378906
 21
197.2651062011719
 31
0.0
  0
LINE
  5
177
330
22
100
AcDbEntity
  8
0
  6
Continuous
 62
     7
100
AcDbLine
 10
-333.3478088378906
 20
197.2651062011719
 30
0.0
 11
-333.3478088378906
 21
227.2651062011719
 31
0.0
  0
LINE
  5
178
330
22
100
AcDbEntity
  8
0
  6
Continuous
 62
     7
100
AcDbLine
 10
-333.3478088378906
 20
237.2651062011719
 30
0.0
 11
-333.3478088378906
 21
267.2651062011719
 31
0.0
  0
LINE
  5
179
330
22
100
AcDbEntity
  8
0
  6
Continuous
 62
     7
100
AcDbLine
 10
-338.3478088378906
 20
197.2651062011719
 30
0.0
 11
-338.3478088378906
 21
227.2651062011719
 31
0.0
  0
LINE
  5
17A
330
22
100
AcDbEntity
  8
0
  6
Continuous
 62
     7
100
AcDbLine
 10
-338.3478088378906
 20
237.2651062011719
 30
0.0
 11
-338.3478088378906
 21
267.2651062011719
 31
0.0
  0
LINE
  5
17B
330
22
100
AcDbEntity
  8
0
  6
Continuous
 62
     7
100
AcDbLine
 10
-359.3478088378906
 20
197.2651062011719
 30
0.0
 11
-359.3478088378906
 21
227.2651062011719
 31
0.0
  0
LINE
  5
17C
330
22
100
AcDbEntity
  8
0
  6
Continuous
 62
     7
100
AcDbLine
 10
-354.3478088378906
 20
197.2651062011719
 30
0.0
 11
-354.3478088378906
 21
227.2651062011719
 31
0.0
  0
LINE
  5
17D
330
22
100
AcDbEntity
  8
0
  6
Continuous
 62
     7
100
AcDbLine
 10
-348.8478088378906
 20
207.2651062011719
 30
0.0
 11
-348.8478088378906
 21
197.2651062011719
 31
0.0
  0
LINE
  5
17E
330
22
100
AcDbEntity
  8
0
  6
Continuous
 62
     7
100
AcDbLine
 10
-343.8478088378906
 20
207.2651062011719
 30
0.0
 11
-343.8478088378906
 21
197.2651062011719
 31
0.0
  0
LINE
  5
17F
330
22
100
AcDbEntity
  8
0
  6
Continuous
 62
     7
100
AcDbLine
 10
-343.8478088378906
 20
217.2651062011719
 30
0.0
 11
-343.8478088378906
 21
247.2651062011719
 31
0.0
  0
LINE
  5
180
330
22
100
AcDbEntity
  8
0
  6
Continuous
 62
     7
100
AcDbLine
 10
-348.8478088378906
 20
217.2651062011719
 30
0.0
 11
-348.8478088378906
 21
247.2651062011719
 31
0.0
  0
LINE
  5
181
330
22
100
AcDbEntity
  8
0
  6
Continuous
 62
     7
100
AcDbLine
 10
-359.3478088378906
 20
237.2651062011719
 30
0.0
 11
-359.3478088378906
 21
267.2651062011719
 31
0.0
  0
LINE
  5
182
330
22
100
AcDbEntity
  8
0
  6
Continuous
 62
     7
100
AcDbLine
 10
-354.3478088378906
 20
237.2651062011719
 30
0.0
 11
-354.3478088378906
 21
267.2651062011719
 31
0.0
  0
LINE
  5
183
330
22
100
AcDbEntity
  8
0
  6
Continuous
 62
     7
100
AcDbLine
 10
-380.3478088378906
 20
197.2651062011719
 30
0.0
 11
-380.3478088378906
 21
227.2651062011719
 31
0.0
  0
LINE
  5
184
330
22
100
AcDbEntity
  8
0
  6
Continuous
 62
     7
100
AcDbLine
 10
-411.3435974121093
 20
352.7693176269531
 30
0.0
 11
-411.0716247558594
 21
352.4973754882813
 31
0.0
  0
LINE
  5
185
330
22
100
AcDbEntity
  8
0
  6
Continuous
 62
     7
100
AcDbLine
 10
-411.6155395507813
 20
353.0412902832031
 30
0.0
 11
-413.8478088378906
 21
351.3463439941406
 31
0.0
  0
LINE
  5
186
330
22
100
AcDbEntity
  8
0
  6
Continuous
 62
     7
100
AcDbLine
 10
-416.0800781249999
 20
347.4889221191406
 30
0.0
 11
-413.8478088378906
 21
349.1838684082031
 31
0.0
  0
LINE
  5
187
330
22
100
AcDbEntity
  8
0
  6
Continuous
 62
     7
100
AcDbLine
 10
-416.0654907226563
 20
353.0263061523438
 30
0.0
 11
-416.3372497558594
 21
352.7545471191406
 31
0.0
  0
LINE
  5
188
330
22
100
AcDbEntity
  8
0
  6
Continuous
 62
     7
100
AcDbLine
 10
-416.6239929199218
 20
348.0328369140625
 30
0.0
 11
-414.9290771484374
 21
350.2651062011719
 31
0.0
  0
LINE
  5
189
330
22
100
AcDbEntity
  8
0
  6
Continuous
 62
     7
100
AcDbLine
 10
-411.0866088867187
 20
348.0474243164063
 30
0.0
 11
-411.3583679199218
 21
347.7756652832031
 31
0.0
  0
LINE
  5
18A
330
22
100
AcDbEntity
  8
0
  6
Continuous
 62
     7
100
AcDbLine
 10
-416.0654907226563
 20
353.0263061523438
 30
0.0
 11
-413.8478088378906
 21
351.3463439941406
 31
0.0
  0
LINE
  5
18B
330
22
100
AcDbEntity
  8
0
  6
Continuous
 62
     7
100
AcDbLine
 10
-411.3435974121093
 20
352.7693176269531
 30
0.0
 11
-411.6155395507813
 21
353.0412902832031
 31
0.0
  0
LINE
  5
18C
330
22
100
AcDbEntity
  8
0
  6
Continuous
 62
     7
100
AcDbLine
 10
-411.6155395507813
 20
353.0412902832031
 30
0.0
 11
-413.8478088378906
 21
351.3463439941406
 31
0.0
  0
LINE
  5
18D
330
22
100
AcDbEntity
  8
0
  6
Continuous
 62
     7
100
AcDbLine
 10
-411.0866088867187
 20
348.0474243164063
 30
0.0
 11
-412.7665710449218
 21
350.2651062011719
 31
0.0
  0
LINE
  5
18E
330
22
100
AcDbEntity
  8
0
  6
Continuous
 62
     7
100
AcDbLine
 10
-411.0866088867187
 20
348.0474243164063
 30
0.0
 11
-411.3583679199218
 21
347.7756652832031
 31
0.0
  0
LINE
  5
18F
330
22
100
AcDbEntity
  8
0
  6
Continuous
 62
     7
100
AcDbLine
 10
-411.6301269531249
 20
347.50390625
 30
0.0
 11
-411.3583679199218
 21
347.7756652832031
 31
0.0
  0
LINE
  5
190
330
22
100
AcDbEntity
  8
0
  6
Continuous
 62
     7
100
AcDbLine
 10
-416.3520507812499
 20
347.7608947753906
 30
0.0
 11
-416.0800781249999
 21
347.4889221191406
 31
0.0
  0
LINE
  5
191
330
22
100
AcDbEntity
  8
0
  6
Continuous
 62
     7
100
AcDbLine
 10
-416.3520507812499
 20
347.7608947753906
 30
0.0
 11
-416.6239929199218
 21
348.0328369140625
 31
0.0
  0
LINE
  5
192
330
22
100
AcDbEntity
  8
0
  6
Continuous
 62
     7
100
AcDbLine
 10
-416.3520507812499
 20
347.7608947753906
 30
0.0
 11
-416.6239929199218
 21
348.0328369140625
 31
0.0
  0
LINE
  5
193
330
22
100
AcDbEntity
  8
0
  6
Continuous
 62
     7
100
AcDbLine
 10
-416.3520507812499
 20
347.7608947753906
 30
0.0
 11
-416.0800781249999
 21
347.4889221191406
 31
0.0
  0
LINE
  5
194
330
22
100
AcDbEntity
  8
0
  6
Continuous
 62
     7
100
AcDbLine
 10
-416.6239929199218
 20
348.0328369140625
 30
0.0
 11
-414.9290771484374
 21
350.2651062011719
 31
0.0
  0
LINE
  5
195
330
22
100
AcDbEntity
  8
0
  6
Continuous
 62
     7
100
AcDbLine
 10
-416.6090087890625
 20
352.4827880859375
 30
0.0
 11
-414.9290771484374
 21
350.2651062011719
 31
0.0
  0
LINE
  5
196
330
22
100
AcDbEntity
  8
0
  6
Continuous
 62
     7
100
AcDbLine
 10
-411.6301269531249
 20
347.50390625
 30
0.0
 11
-413.8478088378906
 21
349.1838684082031
 31
0.0
  0
LINE
  5
197
330
22
100
AcDbEntity
  8
0
  6
Continuous
 62
     7
100
AcDbLine
 10
-416.0800781249999
 20
347.4889221191406
 30
0.0
 11
-413.8478088378906
 21
349.1838684082031
 31
0.0
  0
LINE
  5
198
330
22
100
AcDbEntity
  8
0
  6
Continuous
 62
     7
100
AcDbLine
 10
-411.6301269531249
 20
347.50390625
 30
0.0
 11
-411.3583679199218
 21
347.7756652832031
 31
0.0
  0
LINE
  5
199
330
22
100
AcDbEntity
  8
0
  6
Continuous
 62
     7
100
AcDbLine
 10
-406.8478088378906
 20
297.2651062011719
 30
0.0
 11
-406.8478088378906
 21
337.2651062011719
 31
0.0
  0
LINE
  5
19A
330
22
100
AcDbEntity
  8
0
  6
CENTER
 62
     7
100
AcDbLine
 10
-419.6681823730468
 20
350.2651062011719
 30
0.0
 11
-407.4973754882813
 21
350.2651062011719
 31
0.0
  0
LINE
  5
19B
330
22
100
AcDbEntity
  8
0
  6
CENTER
 62
     7
100
AcDbLine
 10
-413.8478088378906
 20
355.419189453125
 30
0.0
 11
-413.8478088378906
 21
345.2651062011719
 31
0.0
  0
LINE
  5
19C
330
22
100
AcDbEntity
  8
0
  6
DASHED
 62
     7
100
AcDbLine
 10
-413.8478088378906
 20
345.2651062011719
 30
0.0
 11
-415.3478088378906
 21
345.2651062011719
 31
0.0
  0
LINE
  5
19D
330
22
100
AcDbEntity
  8
0
  6
DASHED
 62
     7
100
AcDbLine
 10
-408.8478088378906
 20
350.2651062011719
 30
0.0
 11
-408.8478088378906
 21
351.7651062011719
 31
0.0
  0
LINE
  5
19E
330
22
100
AcDbEntity
  8
0
  6
Continuous
 62
     7
100
AcDbLine
 10
-401.3478088378906
 20
317.2651062011719
 30
0.0
 11
-401.3478088378906
 21
347.2651062011719
 31
0.0
  0
LINE
  5
19F
330
22
100
AcDbEntity
  8
0
  6
Continuous
 62
     7
100
AcDbLine
 10
-396.3478088378906
 20
317.2651062011719
 30
0.0
 11
-396.3478088378906
 21
347.2651062011719
 31
0.0
  0
LINE
  5
1A0
330
22
100
AcDbEntity
  8
0
  6
Continuous
 62
     7
100
AcDbLine
 10
-411.0716247558594
 20
352.4973754882813
 30
0.0
 11
-412.7665710449218
 21
350.2651062011719
 31
0.0
  0
LINE
  5
1A1
330
22
100
AcDbEntity
  8
0
  6
Continuous
 62
     7
100
AcDbLine
 10
-411.3435974121093
 20
352.7693176269531
 30
0.0
 11
-411.0716247558594
 21
352.4973754882813
 31
0.0
  0
LINE
  5
1A2
330
22
100
AcDbEntity
  8
0
  6
Continuous
 62
     7
100
AcDbLine
 10
-411.0716247558594
 20
352.4973754882813
 30
0.0
 11
-412.7665710449218
 21
350.2651062011719
 31
0.0
  0
LINE
  5
1A3
330
22
100
AcDbEntity
  8
0
  6
Continuous
 62
     7
100
AcDbLine
 10
-411.3435974121093
 20
352.7693176269531
 30
0.0
 11
-411.6155395507813
 21
353.0412902832031
 31
0.0
  0
LINE
  5
1A4
330
22
100
AcDbEntity
  8
0
  6
Continuous
 62
     7
100
AcDbLine
 10
-416.0654907226563
 20
353.0263061523438
 30
0.0
 11
-413.8478088378906
 21
351.3463439941406
 31
0.0
  0
LINE
  5
1A5
330
22
100
AcDbEntity
  8
0
  6
Continuous
 62
     7
100
AcDbLine
 10
-416.6090087890625
 20
352.4827880859375
 30
0.0
 11
-414.9290771484374
 21
350.2651062011719
 31
0.0
  0
LINE
  5
1A6
330
22
100
AcDbEntity
  8
0
  6
Continuous
 62
     7
100
AcDbLine
 10
-416.6090087890625
 20
352.4827880859375
 30
0.0
 11
-416.3372497558594
 21
352.7545471191406
 31
0.0
  0
LINE
  5
1A7
330
22
100
AcDbEntity
  8
0
  6
Continuous
 62
     7
100
AcDbLine
 10
-416.0654907226563
 20
353.0263061523438
 30
0.0
 11
-416.3372497558594
 21
352.7545471191406
 31
0.0
  0
LINE
  5
1A8
330
22
100
AcDbEntity
  8
0
  6
Continuous
 62
     7
100
AcDbLine
 10
-416.6090087890625
 20
352.4827880859375
 30
0.0
 11
-416.3372497558594
 21
352.7545471191406
 31
0.0
  0
LINE
  5
1A9
330
22
100
AcDbEntity
  8
0
  6
Continuous
 62
     7
100
AcDbLine
 10
-411.6301269531249
 20
347.50390625
 30
0.0
 11
-413.8478088378906
 21
349.1838684082031
 31
0.0
  0
LINE
  5
1AA
330
22
100
AcDbEntity
  8
0
  6
Continuous
 62
     7
100
AcDbLine
 10
-411.0866088867187
 20
348.0474243164063
 30
0.0
 11
-412.7665710449218
 21
350.2651062011719
 31
0.0
  0
LINE
  5
1AB
330
22
100
AcDbEntity
  8
0
  6
Continuous
 62
     7
100
AcDbLine
 10
-322.8478088378906
 20
297.2651062011719
 30
0.0
 11
-322.8478088378906
 21
327.2651062011719
 31
0.0
  0
LINE
  5
1AC
330
22
100
AcDbEntity
  8
0
  6
Continuous
 62
     7
100
AcDbLine
 10
-301.8478088378906
 20
297.2651062011719
 30
0.0
 11
-301.8478088378906
 21
327.2651062011719
 31
0.0
  0
LINE
  5
1AD
330
22
100
AcDbEntity
  8
0
  6
Continuous
 62
     7
100
AcDbLine
 10
-306.8478088378906
 20
297.2651062011719
 30
0.0
 11
-306.8478088378906
 21
327.2651062011719
 31
0.0
  0
LINE
  5
1AE
330
22
100
AcDbEntity
  8
0
  6
Continuous
 62
     7
100
AcDbLine
 10
-327.8478088378906
 20
337.2651062011719
 30
0.0
 11
-327.8478088378906
 21
347.2651062011719
 31
0.0
  0
LINE
  5
1AF
330
22
100
AcDbEntity
  8
0
  6
Continuous
 62
     7
100
AcDbLine
 10
-296.3478088378906
 20
317.2651062011719
 30
0.0
 11
-296.3478088378906
 21
347.2651062011719
 31
0.0
  0
LINE
  5
1B0
330
22
100
AcDbEntity
  8
0
  6
Continuous
 62
     7
100
AcDbLine
 10
-322.8478088378906
 20
337.2651062011719
 30
0.0
 11
-322.8478088378906
 21
347.2651062011719
 31
0.0
  0
LINE
  5
1B1
330
22
100
AcDbEntity
  8
0
  6
Continuous
 62
     7
100
AcDbLine
 10
-317.3478088378906
 20
317.2651062011719
 30
0.0
 11
-317.3478088378906
 21
347.2651062011719
 31
0.0
  0
LINE
  5
1B2
330
22
100
AcDbEntity
  8
0
  6
Continuous
 62
     7
100
AcDbLine
 10
-312.3478088378906
 20
317.2651062011719
 30
0.0
 11
-312.3478088378906
 21
347.2651062011719
 31
0.0
  0
LINE
  5
1B3
330
22
100
AcDbEntity
  8
0
  6
Continuous
 62
     7
100
AcDbLine
 10
-301.8478088378906
 20
337.2651062011719
 30
0.0
 11
-301.8478088378906
 21
347.2651062011719
 31
0.0
  0
LINE
  5
1B4
330
22
100
AcDbEntity
  8
0
  6
Continuous
 62
     7
100
AcDbLine
 10
-306.8478088378906
 20
337.2651062011719
 30
0.0
 11
-306.8478088378906
 21
347.2651062011719
 31
0.0
  0
LINE
  5
1B5
330
22
100
AcDbEntity
  8
0
  6
Continuous
 62
     7
100
AcDbLine
 10
-411.8478088378906
 20
297.2651062011719
 30
0.0
 11
-411.8478088378906
 21
337.2651062011719
 31
0.0
  0
LINE
  5
1B6
330
22
100
AcDbEntity
  8
0
  6
Continuous
 62
     7
100
AcDbLine
 10
-354.3478088378906
 20
317.2651062011719
 30
0.0
 11
-354.3478088378906
 21
347.2651062011719
 31
0.0
  0
LINE
  5
1B7
330
22
100
AcDbEntity
  8
0
  6
Continuous
 62
     7
100
AcDbLine
 10
-343.8478088378906
 20
337.2651062011719
 30
0.0
 11
-343.8478088378906
 21
347.2651062011719
 31
0.0
  0
LINE
  5
1B8
330
22
100
AcDbEntity
  8
0
  6
Continuous
 62
     7
100
AcDbLine
 10
-348.8478088378906
 20
337.2651062011719
 30
0.0
 11
-348.8478088378906
 21
347.2651062011719
 31
0.0
  0
LINE
  5
1B9
330
22
100
AcDbEntity
  8
0
  6
Continuous
 62
     7
100
AcDbLine
 10
-380.3478088378906
 20
317.2651062011719
 30
0.0
 11
-380.3478088378906
 21
347.2651062011719
 31
0.0
  0
LINE
  5
1BA
330
22
100
AcDbEntity
  8
0
  6
Continuous
 62
     7
100
AcDbLine
 10
-385.8478088378906
 20
337.2651062011719
 30
0.0
 11
-385.8478088378906
 21
347.2651062011719
 31
0.0
  0
LINE
  5
1BB
330
22
100
AcDbEntity
  8
0
  6
Continuous
 62
     7
100
AcDbLine
 10
-364.8478088378906
 20
337.2651062011719
 30
0.0
 11
-364.8478088378906
 21
347.2651062011719
 31
0.0
  0
LINE
  5
1BC
330
22
100
AcDbEntity
  8
0
  6
Continuous
 62
     7
100
AcDbLine
 10
-369.8478088378906
 20
337.2651062011719
 30
0.0
 11
-369.8478088378906
 21
347.2651062011719
 31
0.0
  0
LINE
  5
1BD
330
22
100
AcDbEntity
  8
0
  6
Continuous
 62
     7
100
AcDbLine
 10
-375.3478088378906
 20
317.2651062011719
 30
0.0
 11
-375.3478088378906
 21
347.2651062011719
 31
0.0
  0
LINE
  5
1BE
330
22
100
AcDbEntity
  8
0
  6
Continuous
 62
     7
100
AcDbLine
 10
-369.8478088378906
 20
297.2651062011719
 30
0.0
 11
-369.8478088378906
 21
327.2651062011719
 31
0.0
  0
LINE
  5
1BF
330
22
100
AcDbEntity
  8
0
  6
Continuous
 62
     7
100
AcDbLine
 10
-364.8478088378906
 20
297.2651062011719
 30
0.0
 11
-364.8478088378906
 21
327.2651062011719
 31
0.0
  0
LINE
  5
1C0
330
22
100
AcDbEntity
  8
0
  6
Continuous
 62
     7
100
AcDbLine
 10
-327.8478088378906
 20
297.2651062011719
 30
0.0
 11
-327.8478088378906
 21
327.2651062011719
 31
0.0
  0
LINE
  5
1C1
330
22
100
AcDbEntity
  8
0
  6
Continuous
 62
     7
100
AcDbLine
 10
-280.8478088378906
 20
207.2651062011719
 30
0.0
 11
-280.8478088378906
 21
197.2651062011719
 31
0.0
  0
LINE
  5
1C2
330
22
100
AcDbEntity
  8
0
  6
Continuous
 62
     7
100
AcDbLine
 10
-285.8478088378906
 20
207.2651062011719
 30
0.0
 11
-285.8478088378906
 21
197.2651062011719
 31
0.0
  0
LINE
  5
1C3
330
22
100
AcDbEntity
  8
0
  6
Continuous
 62
     7
100
AcDbLine
 10
-285.8478088378906
 20
217.2651062011719
 30
0.0
 11
-285.8478088378906
 21
247.2651062011719
 31
0.0
  0
LINE
  5
1C4
330
22
100
AcDbEntity
  8
0
  6
Continuous
 62
     7
100
AcDbLine
 10
-280.8478088378906
 20
217.2651062011719
 30
0.0
 11
-280.8478088378906
 21
247.2651062011719
 31
0.0
  0
LINE
  5
1C5
330
22
100
AcDbEntity
  8
0
  6
Continuous
 62
     7
100
AcDbLine
 10
-333.3478088378906
 20
317.2651062011719
 30
0.0
 11
-333.3478088378906
 21
347.2651062011719
 31
0.0
  0
LINE
  5
1C6
330
22
100
AcDbEntity
  8
0
  6
Continuous
 62
     7
100
AcDbLine
 10
-343.8478088378906
 20
297.2651062011719
 30
0.0
 11
-343.8478088378906
 21
327.2651062011719
 31
0.0
  0
LINE
  5
1C7
330
22
100
AcDbEntity
  8
0
  6
Continuous
 62
     7
100
AcDbLine
 10
-348.8478088378906
 20
297.2651062011719
 30
0.0
 11
-348.8478088378906
 21
327.2651062011719
 31
0.0
  0
LINE
  5
1C8
330
22
100
AcDbEntity
  8
0
  6
Continuous
 62
     7
100
AcDbLine
 10
-385.8478088378906
 20
297.2651062011719
 30
0.0
 11
-385.8478088378906
 21
327.2651062011719
 31
0.0
  0
LINE
  5
1C9
330
22
100
AcDbEntity
  8
0
  6
Continuous
 62
     7
100
AcDbLine
 10
-338.3478088378906
 20
317.2651062011719
 30
0.0
 11
-338.3478088378906
 21
347.2651062011719
 31
0.0
  0
LINE
  5
1CA
330
22
100
AcDbEntity
  8
0
  6
Continuous
 62
     7
100
AcDbLine
 10
-359.3478088378906
 20
317.2651062011719
 30
0.0
 11
-359.3478088378906
 21
347.2651062011719
 31
0.0
  0
LINE
  5
1CB
330
22
100
AcDbEntity
  8
0
  6
Continuous
 62
     7
100
AcDbLine
 10
-260.35205078125
 20
191.7029876708984
 30
0.0
 11
-260.6239929199219
 21
191.9749603271484
 31
0.0
  0
LINE
  5
1CC
330
22
100
AcDbEntity
  8
0
  6
Continuous
 62
     7
100
AcDbLine
 10
-260.35205078125
 20
191.7029876708984
 30
0.0
 11
-260.6239929199219
 21
191.9749603271484
 31
0.0
  0
LINE
  5
1CD
330
22
100
AcDbEntity
  8
0
  6
Continuous
 62
     7
100
AcDbLine
 10
-260.35205078125
 20
191.7029876708984
 30
0.0
 11
-260.080078125
 21
191.4310302734375
 31
0.0
  0
LINE
  5
1CE
330
22
100
AcDbEntity
  8
0
  6
Continuous
 62
     7
100
AcDbLine
 10
-260.6239929199219
 20
191.9749603271484
 30
0.0
 11
-258.9290771484375
 21
194.2072143554688
 31
0.0
  0
LINE
  5
1CF
330
22
100
AcDbEntity
  8
0
  6
Continuous
 62
     7
100
AcDbLine
 10
-260.6090087890625
 20
196.4248962402344
 30
0.0
 11
-258.9290771484375
 21
194.2072143554688
 31
0.0
  0
LINE
  5
1D0
330
22
100
AcDbEntity
  8
0
  6
Continuous
 62
     7
100
AcDbLine
 10
-255.6301422119141
 20
191.4460144042969
 30
0.0
 11
-257.8478088378906
 21
193.1259613037109
 31
0.0
  0
LINE
  5
1D1
330
22
100
AcDbEntity
  8
0
  6
Continuous
 62
     7
100
AcDbLine
 10
-260.080078125
 20
191.4310302734375
 30
0.0
 11
-257.8478088378906
 21
193.1259613037109
 31
0.0
  0
LINE
  5
1D2
330
22
100
AcDbEntity
  8
0
  6
Continuous
 62
     7
100
AcDbLine
 10
-255.6301422119141
 20
191.4460144042969
 30
0.0
 11
-255.3583831787109
 21
191.7177734375
 31
0.0
  0
LINE
  5
1D3
330
22
100
AcDbEntity
  8
0
  6
Continuous
 62
     7
100
AcDbLine
 10
-255.0716247558594
 20
196.4394836425781
 30
0.0
 11
-256.7665710449219
 21
194.2072143554688
 31
0.0
  0
LINE
  5
1D4
330
22
100
AcDbEntity
  8
0
  6
Continuous
 62
     7
100
AcDbLine
 10
-259.8478088378906
 20
207.2651062011719
 30
0.0
 11
-259.8478088378906
 21
247.2651062011719
 31
0.0
  0
LINE
  5
1D5
330
22
100
AcDbEntity
  8
0
  6
Continuous
 62
     7
100
AcDbLine
 10
-264.8478088378906
 20
207.2651062011719
 30
0.0
 11
-264.8478088378906
 21
247.2651062011719
 31
0.0
  0
LINE
  5
1D6
330
22
100
AcDbEntity
  8
0
  6
CENTER
 62
     7
100
AcDbLine
 10
-252.0274353027344
 20
194.2651062011719
 30
0.0
 11
-264.198272705078
 21
194.2651062011719
 31
0.0
  0
LINE
  5
1D7
330
22
100
AcDbEntity
  8
0
  6
Continuous
 62
     7
100
AcDbLine
 10
-270.3478088378906
 20
197.2651062011719
 30
0.0
 11
-270.3478088378906
 21
227.2651062011719
 31
0.0
  0
LINE
  5
1D8
330
22
100
AcDbEntity
  8
0
  6
Continuous
 62
     7
100
AcDbLine
 10
-270.3478088378906
 20
237.2651062011719
 30
0.0
 11
-270.3478088378906
 21
267.2651062011719
 31
0.0
  0
LINE
  5
1D9
330
22
100
AcDbEntity
  8
0
  6
Continuous
 62
     7
100
AcDbLine
 10
-275.3478088378906
 20
197.2651062011719
 30
0.0
 11
-275.3478088378906
 21
227.2651062011719
 31
0.0
  0
LINE
  5
1DA
330
22
100
AcDbEntity
  8
0
  6
Continuous
 62
     7
100
AcDbLine
 10
-275.3478088378906
 20
237.2651062011719
 30
0.0
 11
-275.3478088378906
 21
267.2651062011719
 31
0.0
  0
LINE
  5
1DB
330
22
100
AcDbEntity
  8
0
  6
Continuous
 62
     7
100
AcDbLine
 10
-255.3435821533203
 20
196.7114410400391
 30
0.0
 11
-255.0716247558594
 21
196.4394836425781
 31
0.0
  0
LINE
  5
1DC
330
22
100
AcDbEntity
  8
0
  6
Continuous
 62
     7
100
AcDbLine
 10
-255.0716247558594
 20
196.4394836425781
 30
0.0
 11
-256.7665710449219
 21
194.2072143554688
 31
0.0
  0
LINE
  5
1DD
330
22
100
AcDbEntity
  8
0
  6
Continuous
 62
     7
100
AcDbLine
 10
-255.3435821533203
 20
196.7114410400391
 30
0.0
 11
-255.6155548095703
 21
196.9834136962891
 31
0.0
  0
LINE
  5
1DE
330
22
100
AcDbEntity
  8
0
  6
Continuous
 62
     7
100
AcDbLine
 10
-260.0654907226563
 20
196.9684143066406
 30
0.0
 11
-257.8478088378906
 21
195.2884674072265
 31
0.0
  0
LINE
  5
1DF
330
22
100
AcDbEntity
  8
0
  6
Continuous
 62
     7
100
AcDbLine
 10
-260.6090087890625
 20
196.4248962402344
 30
0.0
 11
-258.9290771484375
 21
194.2072143554688
 31
0.0
  0
LINE
  5
1E0
330
22
100
AcDbEntity
  8
0
  6
Continuous
 62
     7
100
AcDbLine
 10
-260.6090087890625
 20
196.4248962402344
 30
0.0
 11
-260.3372497558595
 21
196.6966552734375
 31
0.0
  0
LINE
  5
1E1
330
22
100
AcDbEntity
  8
0
  6
Continuous
 62
     7
100
AcDbLine
 10
-260.0654907226563
 20
196.9684143066406
 30
0.0
 11
-260.3372497558595
 21
196.6966552734375
 31
0.0
  0
LINE
  5
1E2
330
22
100
AcDbEntity
  8
0
  6
Continuous
 62
     7
100
AcDbLine
 10
-260.6090087890625
 20
196.4248962402344
 30
0.0
 11
-260.3372497558595
 21
196.6966552734375
 31
0.0
  0
LINE
  5
1E3
330
22
100
AcDbEntity
  8
0
  6
Continuous
 62
     7
100
AcDbLine
 10
-255.6301422119141
 20
191.4460144042969
 30
0.0
 11
-257.8478088378906
 21
193.1259613037109
 31
0.0
  0
LINE
  5
1E4
330
22
100
AcDbEntity
  8
0
  6
Continuous
 62
     7
100
AcDbLine
 10
-255.0866241455078
 20
191.9895477294922
 30
0.0
 11
-256.7665710449219
 21
194.2072143554688
 31
0.0
  0
LINE
  5
1E5
330
22
100
AcDbEntity
  8
0
  6
Continuous
 62
     7
100
AcDbLine
 10
-255.3435821533203
 20
196.7114410400391
 30
0.0
 11
-255.0716247558594
 21
196.4394836425781
 31
0.0
  0
LINE
  5
1E6
330
22
100
AcDbEntity
  8
0
  6
Continuous
 62
     7
100
AcDbLine
 10
-255.6155548095703
 20
196.9834136962891
 30
0.0
 11
-257.8478088378906
 21
195.2884674072265
 31
0.0
  0
LINE
  5
1E7
330
22
100
AcDbEntity
  8
0
  6
Continuous
 62
     7
100
AcDbLine
 10
-260.080078125
 20
191.4310302734375
 30
0.0
 11
-257.8478088378906
 21
193.1259613037109
 31
0.0
  0
LINE
  5
1E8
330
22
100
AcDbEntity
  8
0
  6
Continuous
 62
     7
100
AcDbLine
 10
-260.0654907226563
 20
196.9684143066406
 30
0.0
 11
-260.3372497558595
 21
196.6966552734375
 31
0.0
  0
LINE
  5
1E9
330
22
100
AcDbEntity
  8
0
  6
Continuous
 62
     7
100
AcDbLine
 10
-260.6239929199219
 20
191.9749603271484
 30
0.0
 11
-258.9290771484375
 21
194.2072143554688
 31
0.0
  0
LINE
  5
1EA
330
22
100
AcDbEntity
  8
0
  6
Continuous
 62
     7
100
AcDbLine
 10
-255.0866241455078
 20
191.9895477294922
 30
0.0
 11
-255.3583831787109
 21
191.7177734375
 31
0.0
  0
LINE
  5
1EB
330
22
100
AcDbEntity
  8
0
  6
Continuous
 62
     7
100
AcDbLine
 10
-260.0654907226563
 20
196.9684143066406
 30
0.0
 11
-257.8478088378906
 21
195.2884674072265
 31
0.0
  0
LINE
  5
1EC
330
22
100
AcDbEntity
  8
0
  6
Continuous
 62
     7
100
AcDbLine
 10
-255.3435821533203
 20
196.7114410400391
 30
0.0
 11
-255.6155548095703
 21
196.9834136962891
 31
0.0
  0
LINE
  5
1ED
330
22
100
AcDbEntity
  8
0
  6
Continuous
 62
     7
100
AcDbLine
 10
-255.6155548095703
 20
196.9834136962891
 30
0.0
 11
-257.8478088378906
 21
195.2884674072265
 31
0.0
  0
LINE
  5
1EE
330
22
100
AcDbEntity
  8
0
  6
Continuous
 62
     7
100
AcDbLine
 10
-255.0866241455078
 20
191.9895477294922
 30
0.0
 11
-256.7665710449219
 21
194.2072143554688
 31
0.0
  0
LINE
  5
1EF
330
22
100
AcDbEntity
  8
0
  6
Continuous
 62
     7
100
AcDbLine
 10
-255.0866241455078
 20
191.9895477294922
 30
0.0
 11
-255.3583831787109
 21
191.7177734375
 31
0.0
  0
LINE
  5
1F0
330
22
100
AcDbEntity
  8
0
  6
Continuous
 62
     7
100
AcDbLine
 10
-255.6301422119141
 20
191.4460144042969
 30
0.0
 11
-255.3583831787109
 21
191.7177734375
 31
0.0
  0
LINE
  5
1F1
330
22
100
AcDbEntity
  8
0
  6
Continuous
 62
     7
100
AcDbLine
 10
-260.35205078125
 20
191.7029876708984
 30
0.0
 11
-260.080078125
 21
191.4310302734375
 31
0.0
  0
LINE
  5
1F2
330
22
100
AcDbEntity
  8
0
  6
Continuous
 62
     7
100
AcDbLine
 10
-255.0866241455078
 20
347.9895324707031
 30
0.0
 11
-256.7665710449219
 21
350.2072143554688
 31
0.0
  0
LINE
  5
1F3
330
22
100
AcDbEntity
  8
0
  6
Continuous
 62
     7
100
AcDbLine
 10
-255.6155548095703
 20
352.9833984375
 30
0.0
 11
-257.8478088378906
 21
351.2884521484375
 31
0.0
  0
LINE
  5
1F4
330
22
100
AcDbEntity
  8
0
  6
Continuous
 62
     7
100
AcDbLine
 10
-255.3435821533203
 20
352.7114562988281
 30
0.0
 11
-255.6155548095703
 21
352.9833984375
 31
0.0
  0
LINE
  5
1F5
330
22
100
AcDbEntity
  8
0
  6
Continuous
 62
     7
100
AcDbLine
 10
-260.0654907226563
 20
352.9684143066406
 30
0.0
 11
-257.8478088378906
 21
351.2884521484375
 31
0.0
  0
LINE
  5
1F6
330
22
100
AcDbEntity
  8
0
  6
Continuous
 62
     7
100
AcDbLine
 10
-255.0866241455078
 20
347.9895324707031
 30
0.0
 11
-255.3583831787109
 21
347.7177734375
 31
0.0
  0
LINE
  5
1F7
330
22
100
AcDbEntity
  8
0
  6
Continuous
 62
     7
100
AcDbLine
 10
-260.6239929199219
 20
347.9749450683594
 30
0.0
 11
-258.9290771484375
 21
350.2072143554688
 31
0.0
  0
LINE
  5
1F8
330
22
100
AcDbEntity
  8
0
  6
Continuous
 62
     7
100
AcDbLine
 10
-260.0654907226563
 20
352.9684143066406
 30
0.0
 11
-260.3372497558595
 21
352.6966552734375
 31
0.0
  0
LINE
  5
1F9
330
22
100
AcDbEntity
  8
0
  6
CENTER
 62
     7
100
AcDbLine
 10
-252.0274353027344
 20
350.2651062011719
 30
0.0
 11
-264.198272705078
 21
350.2651062011719
 31
0.0
  0
LINE
  5
1FA
330
22
100
AcDbEntity
  8
0
  6
Continuous
 62
     7
100
AcDbLine
 10
-270.3478088378906
 20
317.2651062011719
 30
0.0
 11
-270.3478088378906
 21
347.2651062011719
 31
0.0
  0
LINE
  5
1FB
330
22
100
AcDbEntity
  8
0
  6
Continuous
 62
     7
100
AcDbLine
 10
-275.3478088378906
 20
317.2651062011719
 30
0.0
 11
-275.3478088378906
 21
347.2651062011719
 31
0.0
  0
LINE
  5
1FC
330
22
100
AcDbEntity
  8
0
  6
Continuous
 62
     7
100
AcDbLine
 10
-280.8478088378906
 20
337.2651062011719
 30
0.0
 11
-280.8478088378906
 21
347.2651062011719
 31
0.0
  0
LINE
  5
1FD
330
22
100
AcDbEntity
  8
0
  6
Continuous
 62
     7
100
AcDbLine
 10
-285.8478088378906
 20
337.2651062011719
 30
0.0
 11
-285.8478088378906
 21
347.2651062011719
 31
0.0
  0
LINE
  5
1FE
330
22
100
AcDbEntity
  8
0
  6
DASHED
 62
     7
100
AcDbLine
 10
-262.8478088378906
 20
194.2651062011719
 30
0.0
 11
-262.8478088378906
 21
192.7651062011719
 31
0.0
  0
LINE
  5
1FF
330
22
100
AcDbEntity
  8
0
  6
CENTER
 62
     7
100
AcDbLine
 10
-257.8478088378906
 20
188.7651062011719
 30
0.0
 11
-257.8478088378906
 21
199.8808898925781
 31
0.0
  0
LINE
  5
200
330
22
100
AcDbEntity
  8
0
  6
DASHED
 62
     7
100
AcDbLine
 10
-257.8478088378906
 20
199.2651062011719
 30
0.0
 11
-256.3478088378906
 21
199.2651062011719
 31
0.0
  0
LINE
  5
201
330
22
100
AcDbEntity
  8
0
  6
Continuous
 62
     7
100
AcDbLine
 10
-255.6155548095703
 20
352.9833984375
 30
0.0
 11
-257.8478088378906
 21
351.2884521484375
 31
0.0
  0
LINE
  5
202
330
22
100
AcDbEntity
  8
0
  6
Continuous
 62
     7
100
AcDbLine
 10
-255.3435821533203
 20
352.7114562988281
 30
0.0
 11
-255.0716247558594
 21
352.4394836425781
 31
0.0
  0
LINE
  5
203
330
22
100
AcDbEntity
  8
0
  6
Continuous
 62
     7
100
AcDbLine
 10
-255.0866241455078
 20
347.9895324707031
 30
0.0
 11
-256.7665710449219
 21
350.2072143554688
 31
0.0
  0
LINE
  5
204
330
22
100
AcDbEntity
  8
0
  6
Continuous
 62
     7
100
AcDbLine
 10
-255.6301422119141
 20
347.4460144042969
 30
0.0
 11
-257.8478088378906
 21
349.1259765625
 31
0.0
  0
LINE
  5
205
330
22
100
AcDbEntity
  8
0
  6
Continuous
 62
     7
100
AcDbLine
 10
-260.6090087890625
 20
352.4248962402344
 30
0.0
 11
-260.3372497558595
 21
352.6966552734375
 31
0.0
  0
LINE
  5
206
330
22
100
AcDbEntity
  8
0
  6
Continuous
 62
     7
100
AcDbLine
 10
-260.0654907226563
 20
352.9684143066406
 30
0.0
 11
-260.3372497558595
 21
352.6966552734375
 31
0.0
  0
LINE
  5
207
330
22
100
AcDbEntity
  8
0
  6
Continuous
 62
     7
100
AcDbLine
 10
-260.6090087890625
 20
352.4248962402344
 30
0.0
 11
-260.3372497558595
 21
352.6966552734375
 31
0.0
  0
LINE
  5
208
330
22
100
AcDbEntity
  8
0
  6
Continuous
 62
     7
100
AcDbLine
 10
-260.6090087890625
 20
352.4248962402344
 30
0.0
 11
-258.9290771484375
 21
350.2072143554688
 31
0.0
  0
LINE
  5
209
330
22
100
AcDbEntity
  8
0
  6
Continuous
 62
     7
100
AcDbLine
 10
-260.0654907226563
 20
352.9684143066406
 30
0.0
 11
-257.8478088378906
 21
351.2884521484375
 31
0.0
  0
LINE
  5
20A
330
22
100
AcDbEntity
  8
0
  6
Continuous
 62
     7
100
AcDbLine
 10
-255.3435821533203
 20
352.7114562988281
 30
0.0
 11
-255.6155548095703
 21
352.9833984375
 31
0.0
  0
LINE
  5
20B
330
22
100
AcDbEntity
  8
0
  6
Continuous
 62
     7
100
AcDbLine
 10
-255.0716247558594
 20
352.4394836425781
 30
0.0
 11
-256.7665710449219
 21
350.2072143554688
 31
0.0
  0
LINE
  5
20C
330
22
100
AcDbEntity
  8
0
  6
Continuous
 62
     7
100
AcDbLine
 10
-255.3435821533203
 20
352.7114562988281
 30
0.0
 11
-255.0716247558594
 21
352.4394836425781
 31
0.0
  0
LINE
  5
20D
330
22
100
AcDbEntity
  8
0
  6
Continuous
 62
     7
100
AcDbLine
 10
-255.0716247558594
 20
352.4394836425781
 30
0.0
 11
-256.7665710449219
 21
350.2072143554688
 31
0.0
  0
LINE
  5
20E
330
22
100
AcDbEntity
  8
0
  6
Continuous
 62
     7
100
AcDbLine
 10
-255.6301422119141
 20
347.4460144042969
 30
0.0
 11
-255.3583831787109
 21
347.7177734375
 31
0.0
  0
LINE
  5
20F
330
22
100
AcDbEntity
  8
0
  6
Continuous
 62
     7
100
AcDbLine
 10
-260.080078125
 20
347.4310302734375
 30
0.0
 11
-257.8478088378906
 21
349.1259765625
 31
0.0
  0
LINE
  5
210
330
22
100
AcDbEntity
  8
0
  6
Continuous
 62
     7
100
AcDbLine
 10
-255.6301422119141
 20
347.4460144042969
 30
0.0
 11
-257.8478088378906
 21
349.1259765625
 31
0.0
  0
LINE
  5
211
330
22
100
AcDbEntity
  8
0
  6
Continuous
 62
     7
100
AcDbLine
 10
-260.6090087890625
 20
352.4248962402344
 30
0.0
 11
-258.9290771484375
 21
350.2072143554688
 31
0.0
  0
LINE
  5
212
330
22
100
AcDbEntity
  8
0
  6
Continuous
 62
     7
100
AcDbLine
 10
-260.6239929199219
 20
347.9749450683594
 30
0.0
 11
-258.9290771484375
 21
350.2072143554688
 31
0.0
  0
LINE
  5
213
330
22
100
AcDbEntity
  8
0
  6
Continuous
 62
     7
100
AcDbLine
 10
-260.35205078125
 20
347.7030029296875
 30
0.0
 11
-260.080078125
 21
347.4310302734375
 31
0.0
  0
LINE
  5
214
330
22
100
AcDbEntity
  8
0
  6
Continuous
 62
     7
100
AcDbLine
 10
-260.35205078125
 20
347.7030029296875
 30
0.0
 11
-260.6239929199219
 21
347.9749450683594
 31
0.0
  0
LINE
  5
215
330
22
100
AcDbEntity
  8
0
  6
Continuous
 62
     7
100
AcDbLine
 10
-260.35205078125
 20
347.7030029296875
 30
0.0
 11
-260.6239929199219
 21
347.9749450683594
 31
0.0
  0
LINE
  5
216
330
22
100
AcDbEntity
  8
0
  6
Continuous
 62
     7
100
AcDbLine
 10
-260.35205078125
 20
347.7030029296875
 30
0.0
 11
-260.080078125
 21
347.4310302734375
 31
0.0
  0
LINE
  5
217
330
22
100
AcDbEntity
  8
0
  6
Continuous
 62
     7
100
AcDbLine
 10
-255.6301422119141
 20
347.4460144042969
 30
0.0
 11
-255.3583831787109
 21
347.7177734375
 31
0.0
  0
LINE
  5
218
330
22
100
AcDbEntity
  8
0
  6
Continuous
 62
     7
100
AcDbLine
 10
-255.0866241455078
 20
347.9895324707031
 30
0.0
 11
-255.3583831787109
 21
347.7177734375
 31
0.0
  0
LINE
  5
219
330
22
100
AcDbEntity
  8
0
  6
Continuous
 62
     7
100
AcDbLine
 10
-259.8478088378906
 20
297.2651062011719
 30
0.0
 11
-259.8478088378906
 21
337.2651062011719
 31
0.0
  0
LINE
  5
21A
330
22
100
AcDbEntity
  8
0
  6
Continuous
 62
     7
100
AcDbLine
 10
-264.8478088378906
 20
297.2651062011719
 30
0.0
 11
-264.8478088378906
 21
337.2651062011719
 31
0.0
  0
LINE
  5
21B
330
22
100
AcDbEntity
  8
0
  6
Continuous
 62
     7
100
AcDbLine
 10
-280.8478088378906
 20
297.2651062011719
 30
0.0
 11
-280.8478088378906
 21
327.2651062011719
 31
0.0
  0
LINE
  5
21C
330
22
100
AcDbEntity
  8
0
  6
Continuous
 62
     7
100
AcDbLine
 10
-285.8478088378906
 20
297.2651062011719
 30
0.0
 11
-285.8478088378906
 21
327.2651062011719
 31
0.0
  0
LINE
  5
21D
330
22
100
AcDbEntity
  8
0
  6
DASHED
 62
     7
100
AcDbLine
 10
-257.8478088378906
 20
345.2651062011719
 30
0.0
 11
-256.3478088378906
 21
345.2651062011719
 31
0.0
  0
LINE
  5
21E
330
22
100
AcDbEntity
  8
0
  6
DASHED
 62
     7
100
AcDbLine
 10
-262.8478088378906
 20
350.2651062011719
 30
0.0
 11
-262.8478088378906
 21
351.7651062011719
 31
0.0
  0
LINE
  5
21F
330
22
100
AcDbEntity
  8
0
  6
CENTER
 62
     7
100
AcDbLine
 10
-257.8478088378906
 20
355.7651062011719
 30
0.0
 11
-257.8478088378906
 21
344.6493225097656
 31
0.0
  0
LINE
  5
220
330
22
100
AcDbEntity
  8
0
  6
Continuous
 62
     7
100
AcDbLine
 10
-260.080078125
 20
347.4310302734375
 30
0.0
 11
-257.8478088378906
 21
349.1259765625
 31
0.0
  0
ARC
  5
221
330
22
100
AcDbEntity
  8
0
  6
Continuous
 62
     7
100
AcDbCircle
 10
-236.8478088378906
 20
125.673210144043
 30
0.0
 40
1.0
100
AcDbArc
 50
0.0
 51
90.00000000000019
  0
ARC
  5
222
330
22
100
AcDbEntity
  8
0
  6
Continuous
 62
     7
100
AcDbCircle
 10
-236.8478088378906
 20
123.673210144043
 30
0.0
 40
1.0
100
AcDbArc
 50
270.0000000000005
 51
0.0
  0
ARC
  5
223
330
22
100
AcDbEntity
  8
0
  6
Continuous
 62
     7
100
AcDbCircle
 10
-244.8478088378906
 20
121.673210144043
 30
0.0
 40
1.0
100
AcDbArc
 50
90.00000000000019
 51
180.0000000000004
  0
ARC
  5
224
330
22
100
AcDbEntity
  8
0
  6
Continuous
 62
     7
100
AcDbCircle
 10
-251.8478088378906
 20
120.173210144043
 30
0.0
 40
1.0
100
AcDbArc
 50
270.0000000000005
 51
0.0
  0
ARC
  5
225
330
22
100
AcDbEntity
  8
0
  6
Continuous
 62
     7
100
AcDbCircle
 10
-250.8478088378906
 20
104.5599594116211
 30
0.0
 40
5.0
100
AcDbArc
 50
299.9999741490847
 51
0.0
  0
ARC
  5
226
330
22
100
AcDbEntity
  8
0
  6
Continuous
 62
     7
100
AcDbCircle
 10
-265.8478088378906
 20
98.20910644531251
 30
0.0
 40
3.0
100
AcDbArc
 50
300.0000032912053
 51
0.0
  0
ARC
  5
227
330
22
100
AcDbEntity
  8
0
  6
Continuous
 62
     7
100
AcDbCircle
 10
-258.3478088378906
 20
102.8108901977539
 30
0.0
 40
3.0
100
AcDbArc
 50
301.5248734213153
 51
0.0
  0
ARC
  5
228
330
22
100
AcDbEntity
  8
0
  6
Continuous
 62
     7
100
AcDbCircle
 10
-351.1836853027344
 20
57.54433059692383
 30
0.0
 40
3.998277664184569
100
AcDbArc
 50
45.68144519595005
 51
91.90838208350703
  0
ARC
  5
229
330
22
100
AcDbEntity
  8
0
  6
Continuous
 62
     7
100
AcDbCircle
 10
-351.2628784179688
 20
60.34945297241211
 30
0.0
 40
1.19215989112854
100
AcDbArc
 50
87.40600409537716
 51
177.3306235823077
  0
ARC
  5
22A
330
22
100
AcDbEntity
  8
0
  6
Continuous
 62
     7
100
AcDbCircle
 10
-321.3478088378906
 20
61.54736328125
 30
0.0
 40
1.0
100
AcDbArc
 50
120.0000397189275
 51
180.0000000000004
  0
ARC
  5
22B
330
22
100
AcDbEntity
  8
0
  6
Continuous
 62
     7
100
AcDbCircle
 10
-311.3479309082031
 20
58.08320236206054
 30
0.0
 40
5.0
100
AcDbArc
 50
119.9999960056695
 51
180.0000000000004
  0
ARC
  5
22C
330
22
100
AcDbEntity
  8
0
  6
Continuous
 62
     7
100
AcDbCircle
 10
-351.1396179199219
 20
43.38624191284179
 30
0.0
 40
1.345117211341857
100
AcDbArc
 50
102.3177373536817
 51
167.6819451498557
  0
ARC
  5
22D
330
22
100
AcDbEntity
  8
0
  6
Continuous
 62
     7
100
AcDbCircle
 10
-350.9912414550781
 20
40.98615264892578
 30
0.0
 40
3.739664077758788
100
AcDbArc
 50
45.932831516767
 51
96.6849457087865
  0
ARC
  5
22E
330
22
100
AcDbEntity
  8
0
  6
Continuous
 62
     7
100
AcDbCircle
 10
-360.3477172851563
 20
58.08320236206054
 30
0.0
 40
5.0
100
AcDbArc
 50
0.0
 51
60.00000399433043
  0
ARC
  5
22F
330
22
100
AcDbEntity
  8
0
  6
Continuous
 62
     7
100
AcDbCircle
 10
-434.8478088378906
 20
125.673210144043
 30
0.0
 40
1.0
100
AcDbArc
 50
90.00000000000019
 51
180.0000000000004
  0
ARC
  5
230
330
22
100
AcDbEntity
  8
0
  6
Continuous
 62
     7
100
AcDbCircle
 10
-434.8478088378906
 20
123.673210144043
 30
0.0
 40
1.0
100
AcDbArc
 50
180.0000000000004
 51
270.0000000000005
  0
ARC
  5
231
330
22
100
AcDbEntity
  8
0
  6
Continuous
 62
     7
100
AcDbCircle
 10
-420.8478088378906
 20
104.5599594116211
 30
0.0
 40
5.0
100
AcDbArc
 50
180.0000000000004
 51
240.0000258509168
  0
ARC
  5
232
330
22
100
AcDbEntity
  8
0
  6
Continuous
 62
     7
100
AcDbCircle
 10
-321.8478088378906
 20
60.1732063293457
 30
0.0
 40
0.5
100
AcDbArc
 50
180.0000000000004
 51
270.0000000000005
  0
ARC
  5
233
330
22
100
AcDbEntity
  8
0
  6
Continuous
 62
     7
100
AcDbCircle
 10
-293.8478088378906
 20
197.2651062011719
 30
0.0
 40
2.5
100
AcDbArc
 50
180.0000000000004
 51
0.0
  0
ARC
  5
234
330
22
100
AcDbEntity
  8
0
  6
Continuous
 62
     7
100
AcDbCircle
 10
-293.8478088378906
 20
227.2651062011719
 30
0.0
 40
2.5
100
AcDbArc
 50
0.0
 51
180.0000000000004
  0
ARC
  5
235
330
22
100
AcDbEntity
  8
0
  6
Continuous
 62
     7
100
AcDbCircle
 10
-293.8478088378906
 20
237.2651062011719
 30
0.0
 40
2.5
100
AcDbArc
 50
180.0000000000004
 51
0.0
  0
ARC
  5
236
330
22
100
AcDbEntity
  8
0
  6
Continuous
 62
     7
100
AcDbCircle
 10
-293.8478088378906
 20
347.2651062011719
 30
0.0
 40
2.5
100
AcDbArc
 50
0.0
 51
180.0000000000004
  0
ARC
  5
237
330
22
100
AcDbEntity
  8
0
  6
Continuous
 62
     7
100
AcDbCircle
 10
-293.8478088378906
 20
317.2651062011719
 30
0.0
 40
2.5
100
AcDbArc
 50
180.0000000000004
 51
0.0
  0
ARC
  5
238
330
22
100
AcDbEntity
  8
0
  6
Continuous
 62
     7
100
AcDbCircle
 10
-293.8478088378906
 20
307.2651062011719
 30
0.0
 40
2.5
100
AcDbArc
 50
0.0
 51
180.0000000000004
  0
ARC
  5
239
330
22
100
AcDbEntity
  8
0
  6
Continuous
 62
     7
100
AcDbCircle
 10
-293.8478088378906
 20
277.2651062011719
 30
0.0
 40
2.5
100
AcDbArc
 50
180.0000000000004
 51
0.0
  0
ARC
  5
23A
330
22
100
AcDbEntity
  8
0
  6
Continuous
 62
     7
100
AcDbCircle
 10
-388.3478088378906
 20
257.2651062011719
 30
0.0
 40
2.5
100
AcDbArc
 50
180.0000000000004
 51
0.0
  0
ARC
  5
23B
330
22
100
AcDbEntity
  8
0
  6
Continuous
 62
     7
100
AcDbCircle
 10
-388.3478088378906
 20
207.2651062011719
 30
0.0
 40
2.5
100
AcDbArc
 50
0.0
 51
180.0000000000004
  0
ARC
  5
23C
330
22
100
AcDbEntity
  8
0
  6
Continuous
 62
     7
100
AcDbCircle
 10
-388.3478088378906
 20
217.2651062011719
 30
0.0
 40
2.5
100
AcDbArc
 50
180.0000000000004
 51
0.0
  0
ARC
  5
23D
330
22
100
AcDbEntity
  8
0
  6
Continuous
 62
     7
100
AcDbCircle
 10
-388.3478088378906
 20
197.2651062011719
 30
0.0
 40
2.5
100
AcDbArc
 50
180.0000000000004
 51
0.0
  0
ARC
  5
23E
330
22
100
AcDbEntity
  8
0
  6
Continuous
 62
     7
100
AcDbCircle
 10
-388.3478088378906
 20
337.2651062011719
 30
0.0
 40
2.5
100
AcDbArc
 50
180.0000000000004
 51
0.0
  0
ARC
  5
23F
330
22
100
AcDbEntity
  8
0
  6
Continuous
 62
     7
100
AcDbCircle
 10
-388.3478088378906
 20
327.2651062011719
 30
0.0
 40
2.5
100
AcDbArc
 50
0.0
 51
180.0000000000004
  0
ARC
  5
240
330
22
100
AcDbEntity
  8
0
  6
Continuous
 62
     7
100
AcDbCircle
 10
-388.3478088378906
 20
287.2651062011719
 30
0.0
 40
2.5
100
AcDbArc
 50
0.0
 51
180.0000000000004
  0
ARC
  5
241
330
22
100
AcDbEntity
  8
0
  6
Continuous
 62
     7
100
AcDbCircle
 10
-388.3478088378906
 20
297.2651062011719
 30
0.0
 40
2.5
100
AcDbArc
 50
180.0000000000004
 51
0.0
  0
ARC
  5
242
330
22
100
AcDbEntity
  8
0
  6
Continuous
 62
     7
100
AcDbCircle
 10
-388.3478088378906
 20
347.2651062011719
 30
0.0
 40
2.5
100
AcDbArc
 50
0.0
 51
180.0000000000004
  0
ARC
  5
243
330
22
100
AcDbEntity
  8
0
  6
Continuous
 62
     7
100
AcDbCircle
 10
-388.3478088378906
 20
247.2651062011719
 30
0.0
 40
2.5
100
AcDbArc
 50
0.0
 51
180.0000000000004
  0
ARC
  5
244
330
22
100
AcDbEntity
  8
0
  6
Continuous
 62
     7
100
AcDbCircle
 10
-430.8478088378906
 20
177.2651062011719
 30
0.0
 40
5.0
100
AcDbArc
 50
180.0000000000004
 51
270.0000000000005
  0
ARC
  5
245
330
22
100
AcDbEntity
  8
0
  6
Continuous
 62
     7
100
AcDbCircle
 10
-409.3478088378906
 20
257.2651062011719
 30
0.0
 40
2.5
100
AcDbArc
 50
180.0000000000004
 51
0.0
  0
ARC
  5
246
330
22
100
AcDbEntity
  8
0
  6
Continuous
 62
     7
100
AcDbCircle
 10
-409.3478088378906
 20
247.2651062011719
 30
0.0
 40
2.5
100
AcDbArc
 50
0.0
 51
180.0000000000004
  0
ARC
  5
247
330
22
100
AcDbEntity
  8
0
  6
Continuous
 62
     7
100
AcDbCircle
 10
-420.3478088378906
 20
187.7651062011719
 30
0.0
 40
1.0
100
AcDbArc
 50
180.0000000000004
 51
270.0000000000005
  0
ARC
  5
248
330
22
100
AcDbEntity
  8
0
  6
DASHED
 62
     7
100
AcDbCircle
 10
-413.8478088378906
 20
194.2651062011719
 30
0.0
 40
5.0
100
AcDbArc
 50
0.0
 51
90.00000000000019
  0
ARC
  5
249
330
22
100
AcDbEntity
  8
0
  6
DASHED
 62
     7
100
AcDbCircle
 10
-415.3478088378906
 20
201.2651062011719
 30
0.0
 40
2.0
100
AcDbArc
 50
180.0000000000004
 51
270.0000000000005
  0
ARC
  5
24A
330
22
100
AcDbEntity
  8
0
  6
DASHED
 62
     7
100
AcDbCircle
 10
-406.8478088378906
 20
192.7651062011719
 30
0.0
 40
2.0
100
AcDbArc
 50
180.0000000000004
 51
270.0000000000005
  0
ARC
  5
24B
330
22
100
AcDbEntity
  8
0
  6
Continuous
 62
     7
100
AcDbCircle
 10
-398.8478088378906
 20
227.2651062011719
 30
0.0
 40
2.5
100
AcDbArc
 50
0.0
 51
180.0000000000004
  0
ARC
  5
24C
330
22
100
AcDbEntity
  8
0
  6
Continuous
 62
     7
100
AcDbCircle
 10
-398.8478088378906
 20
237.2651062011719
 30
0.0
 40
2.5
100
AcDbArc
 50
180.0000000000004
 51
0.0
  0
ARC
  5
24D
330
22
100
AcDbEntity
  8
0
  6
Continuous
 62
     7
100
AcDbCircle
 10
-409.3478088378906
 20
207.2651062011719
 30
0.0
 40
2.5
100
AcDbArc
 50
180.0000000000004
 51
0.0
  0
ARC
  5
24E
330
22
100
AcDbEntity
  8
0
  6
Continuous
 62
     7
100
AcDbCircle
 10
-418.3478088378906
 20
189.7651062011719
 30
0.0
 40
2.0
100
AcDbArc
 50
180.0000000000004
 51
270.0000000000005
  0
ARC
  5
24F
330
22
100
AcDbEntity
  8
0
  6
Continuous
 62
     7
100
AcDbCircle
 10
-398.8478088378906
 20
197.2651062011719
 30
0.0
 40
2.5
100
AcDbArc
 50
180.0000000000004
 51
0.0
  0
CIRCLE
  5
250
330
22
100
AcDbEntity
  8
0
  6
Continuous
 62
     7
100
AcDbCircle
 10
-413.8478088378906
 20
194.2651062011719
 30
0.0
 40
4.5
  0
CIRCLE
  5
251
330
22
100
AcDbEntity
  8
0
  6
Continuous
 62
     7
100
AcDbCircle
 10
-413.8478088378906
 20
194.2651062011719
 30
0.0
 40
4.75
  0
ARC
  5
252
330
22
100
AcDbEntity
  8
0
  6
Continuous
 62
     7
100
AcDbCircle
 10
-314.8478088378906
 20
277.2651062011719
 30
0.0
 40
2.5
100
AcDbArc
 50
180.0000000000004
 51
0.0
  0
ARC
  5
253
330
22
100
AcDbEntity
  8
0
  6
Continuous
 62
     7
100
AcDbCircle
 10
-314.8478088378906
 20
267.2651062011719
 30
0.0
 40
2.5
100
AcDbArc
 50
0.0
 51
180.0000000000004
  0
ARC
  5
254
330
22
100
AcDbEntity
  8
0
  6
Continuous
 62
     7
100
AcDbCircle
 10
-314.8478088378906
 20
227.2651062011719
 30
0.0
 40
2.5
100
AcDbArc
 50
0.0
 51
180.0000000000004
  0
ARC
  5
255
330
22
100
AcDbEntity
  8
0
  6
Continuous
 62
     7
100
AcDbCircle
 10
-314.8478088378906
 20
197.2651062011719
 30
0.0
 40
2.5
100
AcDbArc
 50
180.0000000000004
 51
0.0
  0
ARC
  5
256
330
22
100
AcDbEntity
  8
0
  6
Continuous
 62
     7
100
AcDbCircle
 10
-314.8478088378906
 20
237.2651062011719
 30
0.0
 40
2.5
100
AcDbArc
 50
180.0000000000004
 51
0.0
  0
ARC
  5
257
330
22
100
AcDbEntity
  8
0
  6
Continuous
 62
     7
100
AcDbCircle
 10
-304.3478088378906
 20
197.2651062011719
 30
0.0
 40
2.5
100
AcDbArc
 50
180.0000000000004
 51
0.0
  0
ARC
  5
258
330
22
100
AcDbEntity
  8
0
  6
Continuous
 62
     7
100
AcDbCircle
 10
-304.3478088378906
 20
247.2651062011719
 30
0.0
 40
2.5
100
AcDbArc
 50
0.0
 51
180.0000000000004
  0
ARC
  5
259
330
22
100
AcDbEntity
  8
0
  6
Continuous
 62
     7
100
AcDbCircle
 10
-304.3478088378906
 20
257.2651062011719
 30
0.0
 40
2.5
100
AcDbArc
 50
180.0000000000004
 51
0.0
  0
ARC
  5
25A
330
22
100
AcDbEntity
  8
0
  6
Continuous
 62
     7
100
AcDbCircle
 10
-304.3478088378906
 20
207.2651062011719
 30
0.0
 40
2.5
100
AcDbArc
 50
0.0
 51
180.0000000000004
  0
ARC
  5
25B
330
22
100
AcDbEntity
  8
0
  6
Continuous
 62
     7
100
AcDbCircle
 10
-304.3478088378906
 20
217.2651062011719
 30
0.0
 40
2.5
100
AcDbArc
 50
180.0000000000004
 51
0.0
  0
ARC
  5
25C
330
22
100
AcDbEntity
  8
0
  6
Continuous
 62
     7
100
AcDbCircle
 10
-398.8478088378906
 20
277.2651062011719
 30
0.0
 40
2.5
100
AcDbArc
 50
180.0000000000004
 51
0.0
  0
ARC
  5
25D
330
22
100
AcDbEntity
  8
0
  6
Continuous
 62
     7
100
AcDbCircle
 10
-398.8478088378906
 20
267.2651062011719
 30
0.0
 40
2.5
100
AcDbArc
 50
0.0
 51
180.0000000000004
  0
ARC
  5
25E
330
22
100
AcDbEntity
  8
0
  6
Continuous
 62
     7
100
AcDbCircle
 10
-377.8478088378906
 20
277.2651062011719
 30
0.0
 40
2.5
100
AcDbArc
 50
180.0000000000004
 51
0.0
  0
ARC
  5
25F
330
22
100
AcDbEntity
  8
0
  6
Continuous
 62
     7
100
AcDbCircle
 10
-367.3478088378906
 20
257.2651062011719
 30
0.0
 40
2.5
100
AcDbArc
 50
180.0000000000004
 51
0.0
  0
ARC
  5
260
330
22
100
AcDbEntity
  8
0
  6
Continuous
 62
     7
100
AcDbCircle
 10
-377.8478088378906
 20
267.2651062011719
 30
0.0
 40
2.5
100
AcDbArc
 50
0.0
 51
180.0000000000004
  0
ARC
  5
261
330
22
100
AcDbEntity
  8
0
  6
Continuous
 62
     7
100
AcDbCircle
 10
-367.3478088378906
 20
247.2651062011719
 30
0.0
 40
2.5
100
AcDbArc
 50
0.0
 51
180.0000000000004
  0
ARC
  5
262
330
22
100
AcDbEntity
  8
0
  6
Continuous
 62
     7
100
AcDbCircle
 10
-367.3478088378906
 20
217.2651062011719
 30
0.0
 40
2.5
100
AcDbArc
 50
180.0000000000004
 51
0.0
  0
ARC
  5
263
330
22
100
AcDbEntity
  8
0
  6
Continuous
 62
     7
100
AcDbCircle
 10
-377.8478088378906
 20
237.2651062011719
 30
0.0
 40
2.5
100
AcDbArc
 50
180.0000000000004
 51
0.0
  0
ARC
  5
264
330
22
100
AcDbEntity
  8
0
  6
Continuous
 62
     7
100
AcDbCircle
 10
-377.8478088378906
 20
227.2651062011719
 30
0.0
 40
2.5
100
AcDbArc
 50
0.0
 51
180.0000000000004
  0
ARC
  5
265
330
22
100
AcDbEntity
  8
0
  6
Continuous
 62
     7
100
AcDbCircle
 10
-367.3478088378906
 20
207.2651062011719
 30
0.0
 40
2.5
100
AcDbArc
 50
0.0
 51
180.0000000000004
  0
ARC
  5
266
330
22
100
AcDbEntity
  8
0
  6
Continuous
 62
     7
100
AcDbCircle
 10
-367.3478088378906
 20
197.2651062011719
 30
0.0
 40
2.5
100
AcDbArc
 50
180.0000000000004
 51
0.0
  0
ARC
  5
267
330
22
100
AcDbEntity
  8
0
  6
Continuous
 62
     7
100
AcDbCircle
 10
-377.8478088378906
 20
197.2651062011719
 30
0.0
 40
2.5
100
AcDbArc
 50
180.0000000000004
 51
0.0
  0
ARC
  5
268
330
22
100
AcDbEntity
  8
0
  6
Continuous
 62
     7
100
AcDbCircle
 10
-325.3478088378906
 20
247.2651062011719
 30
0.0
 40
2.5
100
AcDbArc
 50
0.0
 51
180.0000000000004
  0
ARC
  5
269
330
22
100
AcDbEntity
  8
0
  6
Continuous
 62
     7
100
AcDbCircle
 10
-325.3478088378906
 20
257.2651062011719
 30
0.0
 40
2.5
100
AcDbArc
 50
180.0000000000004
 51
0.0
  0
ARC
  5
26A
330
22
100
AcDbEntity
  8
0
  6
Continuous
 62
     7
100
AcDbCircle
 10
-325.3478088378906
 20
207.2651062011719
 30
0.0
 40
2.5
100
AcDbArc
 50
0.0
 51
180.0000000000004
  0
ARC
  5
26B
330
22
100
AcDbEntity
  8
0
  6
Continuous
 62
     7
100
AcDbCircle
 10
-325.3478088378906
 20
217.2651062011719
 30
0.0
 40
2.5
100
AcDbArc
 50
180.0000000000004
 51
0.0
  0
ARC
  5
26C
330
22
100
AcDbEntity
  8
0
  6
Continuous
 62
     7
100
AcDbCircle
 10
-325.3478088378906
 20
197.2651062011719
 30
0.0
 40
2.5
100
AcDbArc
 50
180.0000000000004
 51
0.0
  0
ARC
  5
26D
330
22
100
AcDbEntity
  8
0
  6
Continuous
 62
     7
100
AcDbCircle
 10
-335.8478088378906
 20
197.2651062011719
 30
0.0
 40
2.5
100
AcDbArc
 50
180.0000000000004
 51
0.0
  0
ARC
  5
26E
330
22
100
AcDbEntity
  8
0
  6
Continuous
 62
     7
100
AcDbCircle
 10
-335.8478088378906
 20
237.2651062011719
 30
0.0
 40
2.5
100
AcDbArc
 50
180.0000000000004
 51
0.0
  0
ARC
  5
26F
330
22
100
AcDbEntity
  8
0
  6
Continuous
 62
     7
100
AcDbCircle
 10
-356.8478088378906
 20
277.2651062011719
 30
0.0
 40
2.5
100
AcDbArc
 50
180.0000000000004
 51
0.0
  0
ARC
  5
270
330
22
100
AcDbEntity
  8
0
  6
Continuous
 62
     7
100
AcDbCircle
 10
-356.8478088378906
 20
267.2651062011719
 30
0.0
 40
2.5
100
AcDbArc
 50
0.0
 51
180.0000000000004
  0
ARC
  5
271
330
22
100
AcDbEntity
  8
0
  6
Continuous
 62
     7
100
AcDbCircle
 10
-346.3478088378906
 20
247.2651062011719
 30
0.0
 40
2.5
100
AcDbArc
 50
0.0
 51
180.0000000000004
  0
ARC
  5
272
330
22
100
AcDbEntity
  8
0
  6
Continuous
 62
     7
100
AcDbCircle
 10
-346.3478088378906
 20
257.2651062011719
 30
0.0
 40
2.5
100
AcDbArc
 50
180.0000000000004
 51
0.0
  0
ARC
  5
273
330
22
100
AcDbEntity
  8
0
  6
Continuous
 62
     7
100
AcDbCircle
 10
-356.8478088378906
 20
227.2651062011719
 30
0.0
 40
2.5
100
AcDbArc
 50
0.0
 51
180.0000000000004
  0
ARC
  5
274
330
22
100
AcDbEntity
  8
0
  6
Continuous
 62
     7
100
AcDbCircle
 10
-356.8478088378906
 20
237.2651062011719
 30
0.0
 40
2.5
100
AcDbArc
 50
180.0000000000004
 51
0.0
  0
ARC
  5
275
330
22
100
AcDbEntity
  8
0
  6
Continuous
 62
     7
100
AcDbCircle
 10
-346.3478088378906
 20
217.2651062011719
 30
0.0
 40
2.5
100
AcDbArc
 50
180.0000000000004
 51
0.0
  0
ARC
  5
276
330
22
100
AcDbEntity
  8
0
  6
Continuous
 62
     7
100
AcDbCircle
 10
-346.3478088378906
 20
207.2651062011719
 30
0.0
 40
2.5
100
AcDbArc
 50
0.0
 51
180.0000000000004
  0
ARC
  5
277
330
22
100
AcDbEntity
  8
0
  6
Continuous
 62
     7
100
AcDbCircle
 10
-346.3478088378906
 20
197.2651062011719
 30
0.0
 40
2.5
100
AcDbArc
 50
180.0000000000004
 51
0.0
  0
ARC
  5
278
330
22
100
AcDbEntity
  8
0
  6
Continuous
 62
     7
100
AcDbCircle
 10
-356.8478088378906
 20
197.2651062011719
 30
0.0
 40
2.5
100
AcDbArc
 50
180.0000000000004
 51
0.0
  0
CIRCLE
  5
279
330
22
100
AcDbEntity
  8
0
  6
Continuous
 62
     7
100
AcDbCircle
 10
-413.8478088378906
 20
350.2651062011719
 30
0.0
 40
4.5
  0
ARC
  5
27A
330
22
100
AcDbEntity
  8
0
  6
Continuous
 62
     7
100
AcDbCircle
 10
-335.8478088378906
 20
267.2651062011719
 30
0.0
 40
2.5
100
AcDbArc
 50
0.0
 51
180.0000000000004
  0
ARC
  5
27B
330
22
100
AcDbEntity
  8
0
  6
Continuous
 62
     7
100
AcDbCircle
 10
-335.8478088378906
 20
277.2651062011719
 30
0.0
 40
2.5
100
AcDbArc
 50
180.0000000000004
 51
0.0
  0
ARC
  5
27C
330
22
100
AcDbEntity
  8
0
  6
Continuous
 62
     7
100
AcDbCircle
 10
-335.8478088378906
 20
227.2651062011719
 30
0.0
 40
2.5
100
AcDbArc
 50
0.0
 51
180.0000000000004
  0
ARC
  5
27D
330
22
100
AcDbEntity
  8
0
  6
Continuous
 62
     7
100
AcDbCircle
 10
-420.3478088378906
 20
356.7651062011719
 30
0.0
 40
1.0
100
AcDbArc
 50
90.00000000000019
 51
180.0000000000004
  0
ARC
  5
27E
330
22
100
AcDbEntity
  8
0
  6
DASHED
 62
     7
100
AcDbCircle
 10
-413.8478088378906
 20
350.2651062011719
 30
0.0
 40
5.0
100
AcDbArc
 50
270.0000000000005
 51
0.0
  0
ARC
  5
27F
330
22
100
AcDbEntity
  8
0
  6
DASHED
 62
     7
100
AcDbCircle
 10
-406.8478088378906
 20
351.7651062011719
 30
0.0
 40
2.0
100
AcDbArc
 50
90.00000000000019
 51
180.0000000000004
  0
ARC
  5
280
330
22
100
AcDbEntity
  8
0
  6
DASHED
 62
     7
100
AcDbCircle
 10
-415.3478088378906
 20
343.2651062011719
 30
0.0
 40
2.0
100
AcDbArc
 50
90.00000000000019
 51
180.0000000000004
  0
ARC
  5
281
330
22
100
AcDbEntity
  8
0
  6
Continuous
 62
     7
100
AcDbCircle
 10
-398.8478088378906
 20
347.2651062011719
 30
0.0
 40
2.5
100
AcDbArc
 50
0.0
 51
180.0000000000004
  0
ARC
  5
282
330
22
100
AcDbEntity
  8
0
  6
Continuous
 62
     7
100
AcDbCircle
 10
-418.3478088378906
 20
354.7651062011719
 30
0.0
 40
2.0
100
AcDbArc
 50
90.00000000000019
 51
180.0000000000004
  0
CIRCLE
  5
283
330
22
100
AcDbEntity
  8
0
  6
Continuous
 62
     7
100
AcDbCircle
 10
-413.8478088378906
 20
350.2651062011719
 30
0.0
 40
4.75
  0
ARC
  5
284
330
22
100
AcDbEntity
  8
0
  6
Continuous
 62
     7
100
AcDbCircle
 10
-314.8478088378906
 20
307.2651062011719
 30
0.0
 40
2.5
100
AcDbArc
 50
0.0
 51
180.0000000000004
  0
ARC
  5
285
330
22
100
AcDbEntity
  8
0
  6
Continuous
 62
     7
100
AcDbCircle
 10
-304.3478088378906
 20
287.2651062011719
 30
0.0
 40
2.5
100
AcDbArc
 50
0.0
 51
180.0000000000004
  0
ARC
  5
286
330
22
100
AcDbEntity
  8
0
  6
Continuous
 62
     7
100
AcDbCircle
 10
-304.3478088378906
 20
297.2651062011719
 30
0.0
 40
2.5
100
AcDbArc
 50
180.0000000000004
 51
0.0
  0
ARC
  5
287
330
22
100
AcDbEntity
  8
0
  6
Continuous
 62
     7
100
AcDbCircle
 10
-304.3478088378906
 20
337.2651062011719
 30
0.0
 40
2.5
100
AcDbArc
 50
180.0000000000004
 51
0.0
  0
ARC
  5
288
330
22
100
AcDbEntity
  8
0
  6
Continuous
 62
     7
100
AcDbCircle
 10
-304.3478088378906
 20
327.2651062011719
 30
0.0
 40
2.5
100
AcDbArc
 50
0.0
 51
180.0000000000004
  0
ARC
  5
289
330
22
100
AcDbEntity
  8
0
  6
Continuous
 62
     7
100
AcDbCircle
 10
-325.3478088378906
 20
347.2651062011719
 30
0.0
 40
2.5
100
AcDbArc
 50
0.0
 51
180.0000000000004
  0
ARC
  5
28A
330
22
100
AcDbEntity
  8
0
  6
Continuous
 62
     7
100
AcDbCircle
 10
-314.8478088378906
 20
347.2651062011719
 30
0.0
 40
2.5
100
AcDbArc
 50
0.0
 51
180.0000000000004
  0
ARC
  5
28B
330
22
100
AcDbEntity
  8
0
  6
Continuous
 62
     7
100
AcDbCircle
 10
-304.3478088378906
 20
347.2651062011719
 30
0.0
 40
2.5
100
AcDbArc
 50
0.0
 51
180.0000000000004
  0
ARC
  5
28C
330
22
100
AcDbEntity
  8
0
  6
Continuous
 62
     7
100
AcDbCircle
 10
-430.8478088378906
 20
367.2651062011719
 30
0.0
 40
5.0
100
AcDbArc
 50
90.00000000000019
 51
180.0000000000004
  0
ARC
  5
28D
330
22
100
AcDbEntity
  8
0
  6
Continuous
 62
     7
100
AcDbCircle
 10
-398.8478088378906
 20
317.2651062011719
 30
0.0
 40
2.5
100
AcDbArc
 50
180.0000000000004
 51
0.0
  0
ARC
  5
28E
330
22
100
AcDbEntity
  8
0
  6
Continuous
 62
     7
100
AcDbCircle
 10
-409.3478088378906
 20
337.2651062011719
 30
0.0
 40
2.5
100
AcDbArc
 50
0.0
 51
180.0000000000004
  0
ARC
  5
28F
330
22
100
AcDbEntity
  8
0
  6
Continuous
 62
     7
100
AcDbCircle
 10
-398.8478088378906
 20
307.2651062011719
 30
0.0
 40
2.5
100
AcDbArc
 50
0.0
 51
180.0000000000004
  0
ARC
  5
290
330
22
100
AcDbEntity
  8
0
  6
Continuous
 62
     7
100
AcDbCircle
 10
-409.3478088378906
 20
287.2651062011719
 30
0.0
 40
2.5
100
AcDbArc
 50
0.0
 51
180.0000000000004
  0
ARC
  5
291
330
22
100
AcDbEntity
  8
0
  6
Continuous
 62
     7
100
AcDbCircle
 10
-409.3478088378906
 20
297.2651062011719
 30
0.0
 40
2.5
100
AcDbArc
 50
180.0000000000004
 51
0.0
  0
ARC
  5
292
330
22
100
AcDbEntity
  8
0
  6
Continuous
 62
     7
100
AcDbCircle
 10
-356.8478088378906
 20
347.2651062011719
 30
0.0
 40
2.5
100
AcDbArc
 50
0.0
 51
180.0000000000004
  0
ARC
  5
293
330
22
100
AcDbEntity
  8
0
  6
Continuous
 62
     7
100
AcDbCircle
 10
-367.3478088378906
 20
337.2651062011719
 30
0.0
 40
2.5
100
AcDbArc
 50
180.0000000000004
 51
0.0
  0
ARC
  5
294
330
22
100
AcDbEntity
  8
0
  6
Continuous
 62
     7
100
AcDbCircle
 10
-377.8478088378906
 20
317.2651062011719
 30
0.0
 40
2.5
100
AcDbArc
 50
180.0000000000004
 51
0.0
  0
ARC
  5
295
330
22
100
AcDbEntity
  8
0
  6
Continuous
 62
     7
100
AcDbCircle
 10
-377.8478088378906
 20
347.2651062011719
 30
0.0
 40
2.5
100
AcDbArc
 50
0.0
 51
180.0000000000004
  0
ARC
  5
296
330
22
100
AcDbEntity
  8
0
  6
Continuous
 62
     7
100
AcDbCircle
 10
-367.3478088378906
 20
347.2651062011719
 30
0.0
 40
2.5
100
AcDbArc
 50
0.0
 51
180.0000000000004
  0
ARC
  5
297
330
22
100
AcDbEntity
  8
0
  6
Continuous
 62
     7
100
AcDbCircle
 10
-367.3478088378906
 20
327.2651062011719
 30
0.0
 40
2.5
100
AcDbArc
 50
0.0
 51
180.0000000000004
  0
ARC
  5
298
330
22
100
AcDbEntity
  8
0
  6
Continuous
 62
     7
100
AcDbCircle
 10
-377.8478088378906
 20
307.2651062011719
 30
0.0
 40
2.5
100
AcDbArc
 50
0.0
 51
180.0000000000004
  0
ARC
  5
299
330
22
100
AcDbEntity
  8
0
  6
Continuous
 62
     7
100
AcDbCircle
 10
-367.3478088378906
 20
287.2651062011719
 30
0.0
 40
2.5
100
AcDbArc
 50
0.0
 51
180.0000000000004
  0
ARC
  5
29A
330
22
100
AcDbEntity
  8
0
  6
Continuous
 62
     7
100
AcDbCircle
 10
-367.3478088378906
 20
297.2651062011719
 30
0.0
 40
2.5
100
AcDbArc
 50
180.0000000000004
 51
0.0
  0
ARC
  5
29B
330
22
100
AcDbEntity
  8
0
  6
Continuous
 62
     7
100
AcDbCircle
 10
-325.3478088378906
 20
327.2651062011719
 30
0.0
 40
2.5
100
AcDbArc
 50
0.0
 51
180.0000000000004
  0
ARC
  5
29C
330
22
100
AcDbEntity
  8
0
  6
Continuous
 62
     7
100
AcDbCircle
 10
-325.3478088378906
 20
337.2651062011719
 30
0.0
 40
2.5
100
AcDbArc
 50
180.0000000000004
 51
0.0
  0
ARC
  5
29D
330
22
100
AcDbEntity
  8
0
  6
Continuous
 62
     7
100
AcDbCircle
 10
-325.3478088378906
 20
287.2651062011719
 30
0.0
 40
2.5
100
AcDbArc
 50
0.0
 51
180.0000000000004
  0
ARC
  5
29E
330
22
100
AcDbEntity
  8
0
  6
Continuous
 62
     7
100
AcDbCircle
 10
-325.3478088378906
 20
297.2651062011719
 30
0.0
 40
2.5
100
AcDbArc
 50
180.0000000000004
 51
0.0
  0
ARC
  5
29F
330
22
100
AcDbEntity
  8
0
  6
Continuous
 62
     7
100
AcDbCircle
 10
-314.8478088378906
 20
317.2651062011719
 30
0.0
 40
2.5
100
AcDbArc
 50
180.0000000000004
 51
0.0
  0
ARC
  5
2A0
330
22
100
AcDbEntity
  8
0
  6
Continuous
 62
     7
100
AcDbCircle
 10
-283.3478088378906
 20
247.2651062011719
 30
0.0
 40
2.5
100
AcDbArc
 50
0.0
 51
180.0000000000004
  0
ARC
  5
2A1
330
22
100
AcDbEntity
  8
0
  6
Continuous
 62
     7
100
AcDbCircle
 10
-283.3478088378906
 20
207.2651062011719
 30
0.0
 40
2.5
100
AcDbArc
 50
0.0
 51
180.0000000000004
  0
ARC
  5
2A2
330
22
100
AcDbEntity
  8
0
  6
Continuous
 62
     7
100
AcDbCircle
 10
-283.3478088378906
 20
217.2651062011719
 30
0.0
 40
2.5
100
AcDbArc
 50
180.0000000000004
 51
0.0
  0
ARC
  5
2A3
330
22
100
AcDbEntity
  8
0
  6
Continuous
 62
     7
100
AcDbCircle
 10
-283.3478088378906
 20
197.2651062011719
 30
0.0
 40
2.5
100
AcDbArc
 50
180.0000000000004
 51
0.0
  0
ARC
  5
2A4
330
22
100
AcDbEntity
  8
0
  6
Continuous
 62
     7
100
AcDbCircle
 10
-240.8478088378906
 20
177.2651062011719
 30
0.0
 40
5.0
100
AcDbArc
 50
270.0000000000005
 51
0.0
  0
ARC
  5
2A5
330
22
100
AcDbEntity
  8
0
  6
Continuous
 62
     7
100
AcDbCircle
 10
-335.8478088378906
 20
317.2651062011719
 30
0.0
 40
2.5
100
AcDbArc
 50
180.0000000000004
 51
0.0
  0
ARC
  5
2A6
330
22
100
AcDbEntity
  8
0
  6
Continuous
 62
     7
100
AcDbCircle
 10
-335.8478088378906
 20
307.2651062011719
 30
0.0
 40
2.5
100
AcDbArc
 50
0.0
 51
180.0000000000004
  0
ARC
  5
2A7
330
22
100
AcDbEntity
  8
0
  6
Continuous
 62
     7
100
AcDbCircle
 10
-335.8478088378906
 20
347.2651062011719
 30
0.0
 40
2.5
100
AcDbArc
 50
0.0
 51
180.0000000000004
  0
ARC
  5
2A8
330
22
100
AcDbEntity
  8
0
  6
Continuous
 62
     7
100
AcDbCircle
 10
-356.8478088378906
 20
317.2651062011719
 30
0.0
 40
2.5
100
AcDbArc
 50
180.0000000000004
 51
0.0
  0
ARC
  5
2A9
330
22
100
AcDbEntity
  8
0
  6
Continuous
 62
     7
100
AcDbCircle
 10
-346.3478088378906
 20
337.2651062011719
 30
0.0
 40
2.5
100
AcDbArc
 50
180.0000000000004
 51
0.0
  0
ARC
  5
2AA
330
22
100
AcDbEntity
  8
0
  6
Continuous
 62
     7
100
AcDbCircle
 10
-346.3478088378906
 20
327.2651062011719
 30
0.0
 40
2.5
100
AcDbArc
 50
0.0
 51
180.0000000000004
  0
ARC
  5
2AB
330
22
100
AcDbEntity
  8
0
  6
Continuous
 62
     7
100
AcDbCircle
 10
-356.8478088378906
 20
307.2651062011719
 30
0.0
 40
2.5
100
AcDbArc
 50
0.0
 51
180.0000000000004
  0
ARC
  5
2AC
330
22
100
AcDbEntity
  8
0
  6
Continuous
 62
     7
100
AcDbCircle
 10
-346.3478088378906
 20
287.2651062011719
 30
0.0
 40
2.5
100
AcDbArc
 50
0.0
 51
180.0000000000004
  0
ARC
  5
2AD
330
22
100
AcDbEntity
  8
0
  6
Continuous
 62
     7
100
AcDbCircle
 10
-346.3478088378906
 20
297.2651062011719
 30
0.0
 40
2.5
100
AcDbArc
 50
180.0000000000004
 51
0.0
  0
ARC
  5
2AE
330
22
100
AcDbEntity
  8
0
  6
Continuous
 62
     7
100
AcDbCircle
 10
-346.3478088378906
 20
347.2651062011719
 30
0.0
 40
2.5
100
AcDbArc
 50
0.0
 51
180.0000000000004
  0
CIRCLE
  5
2AF
330
22
100
AcDbEntity
  8
0
  6
Continuous
 62
     7
100
AcDbCircle
 10
-257.8478088378906
 20
194.2072143554688
 30
0.0
 40
4.75
  0
ARC
  5
2B0
330
22
100
AcDbEntity
  8
0
  6
Continuous
 62
     7
100
AcDbCircle
 10
-253.3478088378906
 20
189.7651062011719
 30
0.0
 40
2.0
100
AcDbArc
 50
270.0000000000005
 51
0.0
  0
ARC
  5
2B1
330
22
100
AcDbEntity
  8
0
  6
Continuous
 62
     7
100
AcDbCircle
 10
-251.3478088378906
 20
187.7651062011719
 30
0.0
 40
1.0
100
AcDbArc
 50
270.0000000000005
 51
0.0
  0
ARC
  5
2B2
330
22
100
AcDbEntity
  8
0
  6
Continuous
 62
     7
100
AcDbCircle
 10
-272.8478088378906
 20
277.2651062011719
 30
0.0
 40
2.5
100
AcDbArc
 50
180.0000000000004
 51
0.0
  0
ARC
  5
2B3
330
22
100
AcDbEntity
  8
0
  6
Continuous
 62
     7
100
AcDbCircle
 10
-272.8478088378906
 20
267.2651062011719
 30
0.0
 40
2.5
100
AcDbArc
 50
0.0
 51
180.0000000000004
  0
ARC
  5
2B4
330
22
100
AcDbEntity
  8
0
  6
Continuous
 62
     7
100
AcDbCircle
 10
-272.8478088378906
 20
237.2651062011719
 30
0.0
 40
2.5
100
AcDbArc
 50
180.0000000000004
 51
0.0
  0
ARC
  5
2B5
330
22
100
AcDbEntity
  8
0
  6
Continuous
 62
     7
100
AcDbCircle
 10
-272.8478088378906
 20
197.2651062011719
 30
0.0
 40
2.5
100
AcDbArc
 50
180.0000000000004
 51
0.0
  0
ARC
  5
2B6
330
22
100
AcDbEntity
  8
0
  6
Continuous
 62
     7
100
AcDbCircle
 10
-272.8478088378906
 20
227.2651062011719
 30
0.0
 40
2.5
100
AcDbArc
 50
0.0
 51
180.0000000000004
  0
ARC
  5
2B7
330
22
100
AcDbEntity
  8
0
  6
Continuous
 62
     7
100
AcDbCircle
 10
-283.3478088378906
 20
257.2651062011719
 30
0.0
 40
2.5
100
AcDbArc
 50
180.0000000000004
 51
0.0
  0
ARC
  5
2B8
330
22
100
AcDbEntity
  8
0
  6
Continuous
 62
     7
100
AcDbCircle
 10
-262.3478088378906
 20
207.2651062011719
 30
0.0
 40
2.5
100
AcDbArc
 50
180.0000000000004
 51
0.0
  0
CIRCLE
  5
2B9
330
22
100
AcDbEntity
  8
0
  6
Continuous
 62
     7
100
AcDbCircle
 10
-257.8478088378906
 20
194.2072143554688
 30
0.0
 40
4.5
  0
CIRCLE
  5
2BA
330
22
100
AcDbEntity
  8
0
  6
Continuous
 62
     7
100
AcDbCircle
 10
-257.8478088378906
 20
350.2072143554688
 30
0.0
 40
4.75
  0
ARC
  5
2BB
330
22
100
AcDbEntity
  8
0
  6
Continuous
 62
     7
100
AcDbCircle
 10
-253.3478088378906
 20
354.7651062011719
 30
0.0
 40
2.0
100
AcDbArc
 50
0.0
 51
90.00000000000019
  0
ARC
  5
2BC
330
22
100
AcDbEntity
  8
0
  6
Continuous
 62
     7
100
AcDbCircle
 10
-251.3478088378906
 20
356.7651062011719
 30
0.0
 40
1.0
100
AcDbArc
 50
0.0
 51
90.00000000000019
  0
ARC
  5
2BD
330
22
100
AcDbEntity
  8
0
  6
Continuous
 62
     7
100
AcDbCircle
 10
-272.8478088378906
 20
347.2651062011719
 30
0.0
 40
2.5
100
AcDbArc
 50
0.0
 51
180.0000000000004
  0
ARC
  5
2BE
330
22
100
AcDbEntity
  8
0
  6
Continuous
 62
     7
100
AcDbCircle
 10
-283.3478088378906
 20
347.2651062011719
 30
0.0
 40
2.5
100
AcDbArc
 50
0.0
 51
180.0000000000004
  0
ARC
  5
2BF
330
22
100
AcDbEntity
  8
0
  6
Continuous
 62
     7
100
AcDbCircle
 10
-262.3478088378906
 20
257.2651062011719
 30
0.0
 40
2.5
100
AcDbArc
 50
180.0000000000004
 51
0.0
  0
ARC
  5
2C0
330
22
100
AcDbEntity
  8
0
  6
Continuous
 62
     7
100
AcDbCircle
 10
-262.3478088378906
 20
247.2651062011719
 30
0.0
 40
2.5
100
AcDbArc
 50
0.0
 51
180.0000000000004
  0
ARC
  5
2C1
330
22
100
AcDbEntity
  8
0
  6
DASHED
 62
     7
100
AcDbCircle
 10
-264.8478088378906
 20
192.7651062011719
 30
0.0
 40
2.0
100
AcDbArc
 50
270.0000000000005
 51
0.0
  0
ARC
  5
2C2
330
22
100
AcDbEntity
  8
0
  6
DASHED
 62
     7
100
AcDbCircle
 10
-257.8478088378906
 20
194.2651062011719
 30
0.0
 40
5.0
100
AcDbArc
 50
90.00000000000019
 51
180.0000000000004
  0
ARC
  5
2C3
330
22
100
AcDbEntity
  8
0
  6
DASHED
 62
     7
100
AcDbCircle
 10
-256.3478088378906
 20
201.2651062011719
 30
0.0
 40
2.0
100
AcDbArc
 50
270.0000000000005
 51
0.0
  0
CIRCLE
  5
2C4
330
22
100
AcDbEntity
  8
0
  6
Continuous
 62
     7
100
AcDbCircle
 10
-257.8478088378906
 20
350.2072143554688
 30
0.0
 40
4.5
  0
ARC
  5
2C5
330
22
100
AcDbEntity
  8
0
  6
Continuous
 62
     7
100
AcDbCircle
 10
-240.8478088378906
 20
367.2651062011719
 30
0.0
 40
5.0
100
AcDbArc
 50
0.0
 51
90.00000000000019
  0
ARC
  5
2C6
330
22
100
AcDbEntity
  8
0
  6
Continuous
 62
     7
100
AcDbCircle
 10
-262.3478088378906
 20
337.2651062011719
 30
0.0
 40
2.5
100
AcDbArc
 50
0.0
 51
180.0000000000004
  0
ARC
  5
2C7
330
22
100
AcDbEntity
  8
0
  6
Continuous
 62
     7
100
AcDbCircle
 10
-272.8478088378906
 20
307.2651062011719
 30
0.0
 40
2.5
100
AcDbArc
 50
0.0
 51
180.0000000000004
  0
ARC
  5
2C8
330
22
100
AcDbEntity
  8
0
  6
Continuous
 62
     7
100
AcDbCircle
 10
-272.8478088378906
 20
317.2651062011719
 30
0.0
 40
2.5
100
AcDbArc
 50
180.0000000000004
 51
0.0
  0
ARC
  5
2C9
330
22
100
AcDbEntity
  8
0
  6
Continuous
 62
     7
100
AcDbCircle
 10
-283.3478088378906
 20
337.2651062011719
 30
0.0
 40
2.5
100
AcDbArc
 50
180.0000000000004
 51
0.0
  0
ARC
  5
2CA
330
22
100
AcDbEntity
  8
0
  6
Continuous
 62
     7
100
AcDbCircle
 10
-283.3478088378906
 20
327.2651062011719
 30
0.0
 40
2.5
100
AcDbArc
 50
0.0
 51
180.0000000000004
  0
ARC
  5
2CB
330
22
100
AcDbEntity
  8
0
  6
Continuous
 62
     7
100
AcDbCircle
 10
-262.3478088378906
 20
287.2651062011719
 30
0.0
 40
2.5
100
AcDbArc
 50
0.0
 51
180.0000000000004
  0
ARC
  5
2CC
330
22
100
AcDbEntity
  8
0
  6
Continuous
 62
     7
100
AcDbCircle
 10
-262.3478088378906
 20
297.2651062011719
 30
0.0
 40
2.5
100
AcDbArc
 50
180.0000000000004
 51
0.0
  0
ARC
  5
2CD
330
22
100
AcDbEntity
  8
0
  6
Continuous
 62
     7
100
AcDbCircle
 10
-283.3478088378906
 20
287.2651062011719
 30
0.0
 40
2.5
100
AcDbArc
 50
0.0
 51
180.0000000000004
  0
ARC
  5
2CE
330
22
100
AcDbEntity
  8
0
  6
Continuous
 62
     7
100
AcDbCircle
 10
-283.3478088378906
 20
297.2651062011719
 30
0.0
 40
2.5
100
AcDbArc
 50
180.0000000000004
 51
0.0
  0
ARC
  5
2CF
330
22
100
AcDbEntity
  8
0
  6
DASHED
 62
     7
100
AcDbCircle
 10
-264.8478088378906
 20
351.7651062011719
 30
0.0
 40
2.0
100
AcDbArc
 50
0.0
 51
90.00000000000019
  0
ARC
  5
2D0
330
22
100
AcDbEntity
  8
0
  6
DASHED
 62
     7
100
AcDbCircle
 10
-257.8478088378906
 20
350.2651062011719
 30
0.0
 40
5.0
100
AcDbArc
 50
180.0000000000004
 51
270.0000000000005
  0
ARC
  5
2D1
330
22
100
AcDbEntity
  8
0
  6
DASHED
 62
     7
100
AcDbCircle
 10
-256.3478088378906
 20
343.2651062011719
 30
0.0
 40
2.0
100
AcDbArc
 50
0.0
 51
90.00000000000019
  0
ARC
  5
2D2
330
22
100
AcDbEntity
  8
0
  6
Continuous
 62
     7
100
AcDbCircle
 10
-293.8478088378906
 20
267.2651062011719
 30
0.0
 40
2.5
100
AcDbArc
 50
0.0
 51
180.0000000000004
  0
TEXT
  5
2D3
330
22
100
AcDbEntity
  8
0
  6
Continuous
 62
     7
100
AcDbText
 10
-168.0075311660767
 20
155.2318420410156
 30
0.0
 40
7.0
  1
ＤＬ－ＳＫ４－２５ＧＢ
 41
0.8440126641457824
100
AcDbText
  0
DIMENSION
  5
2D4
330
22
100
AcDbEntity
  8
0
  6
Continuous
 62
     7
100
AcDbDimension
  2
*D1
 10
-197.4208068847656
 20
372.2651062011719
 30
0.0
 11
-197.4208068847656
 21
272.2651062011719
 31
0.0
 71
     5
 42
-1.0
  3
DIMSTYLE1
100
AcDbAlignedDimension
 13
-240.8478088378906
 23
172.2651062011719
 33
0.0
 14
-240.8478088378906
 24
372.2651062011719
 34
0.0
 50
90.0
100
AcDbRotatedDimension
  0
DIMENSION
  5
2D5
330
22
100
AcDbEntity
  8
0
  6
Continuous
 62
     7
100
AcDbDimension
  2
*D2
 10
-208.1103515625
 20
357.7651062011719
 30
0.0
 11
-208.1103515625
 21
272.2651062011719
 31
0.0
 71
     5
 42
-1.0
  3
DIMSTYLE2
100
AcDbAlignedDimension
 13
-251.3478088378906
 23
186.7651062011719
 33
0.0
 14
-251.3478088378906
 24
357.7651062011719
 34
0.0
 50
90.0
100
AcDbRotatedDimension
  0
DIMENSION
  5
2D6
330
22
100
AcDbEntity
  8
0
  6
Continuous
 62
     7
100
AcDbDimension
  2
*D3
 10
-235.8478088378906
 20
398.1734313964844
 30
0.0
 11
-335.8478088378906
 21
398.1734313964844
 31
0.0
 71
     5
 42
-1.0
  3
DIMSTYLE3
100
AcDbAlignedDimension
 13
-435.8478088378906
 23
367.2651062011719
 33
0.0
 14
-235.8478088378906
 24
367.2651062011719
 34
0.0
100
AcDbRotatedDimension
  0
DIMENSION
  5
2D7
330
22
100
AcDbEntity
  8
0
  6
Continuous
 62
     7
100
AcDbDimension
  2
*D4
 10
-250.3478088378906
 20
388.7821350097656
 30
0.0
 11
-335.8478088378906
 21
388.7821350097656
 31
0.0
 71
     5
 42
-1.0
  3
DIMSTYLE4
100
AcDbAlignedDimension
 13
-421.3478088378906
 23
356.7651062011719
 33
0.0
 14
-250.3478088378906
 24
356.7651062011719
 34
0.0
100
AcDbRotatedDimension
  0
DIMENSION
  5
2D8
330
22
100
AcDbEntity
  8
0
  6
Continuous
 62
     7
100
AcDbDimension
  2
*D5
 10
-213.2046051025391
 20
126.673210144043
 30
0.0
 11
-213.2046051025391
 21
85.17321014404297
 31
0.0
 71
     5
 42
-1.0
  3
DIMSTYLE5
100
AcDbAlignedDimension
 13
-317.3479309082031
 23
43.6732063293457
 33
0.0
 14
-236.8478088378906
 24
126.673210144043
 34
0.0
 50
90.0
100
AcDbRotatedDimension
  0
INSERT
  5
2D9
330
22
100
AcDbEntity
  8
0
  6
Continuous
 62
     7
100
AcDbBlockReference
  2
KOZU0001
 10
-320.8963928222656
 20
50.00487899780273
 30
0.0
  0
ENDSEC
  0
SECTION
  2
OBJECTS
  0
DICTIONARY
  5
C
330
0
100
AcDbDictionary
281
     1
  3
ACAD_COLOR
350
1B
  3
ACAD_GROUP
350
D
  3
ACAD_LAYOUT
350
19
  3
ACAD_MATERIAL
350
1A
  3
ACAD_MLINESTYLE
350
16
  3
ACAD_PLOTSETTINGS
350
18
  3
ACAD_PLOTSTYLENAME
350
E
  3
ACAD_TABLESTYLE
350
1C
  3
AcDbVariableDictionary
350
2E5
  0
DICTIONARY
  5
1B
102
{ACAD_REACTORS
330
C
102
}
330
C
100
AcDbDictionary
281
     1
  0
DICTIONARY
  5
D
102
{ACAD_REACTORS
330
C
102
}
330
C
100
AcDbDictionary
281
     1
  0
DICTIONARY
  5
19
102
{ACAD_REACTORS
330
C
102
}
330
C
100
AcDbDictionary
281
     1
  3
Model
350
25
  3
レイアウト1
350
21
  0
DICTIONARY
  5
1A
102
{ACAD_REACTORS
330
C
102
}
330
C
100
AcDbDictionary
281
     1
  0
DICTIONARY
  5
16
102
{ACAD_REACTORS
330
C
102
}
330
C
100
AcDbDictionary
281
     1
  3
Standard
350
17
  0
DICTIONARY
  5
18
102
{ACAD_REACTORS
330
C
102
}
330
C
100
AcDbDictionary
281
     1
  0
ACDBDICTIONARYWDFLT
  5
E
102
{ACAD_REACTORS
330
C
102
}
330
C
100
AcDbDictionary
281
     1
  3
Normal
350
F
100
AcDbDictionaryWithDefault
340
F
  0
DICTIONARY
  5
1C
102
{ACAD_REACTORS
330
C
102
}
330
C
100
AcDbDictionary
281
     1
  3
Standard
350
1D
  0
DICTIONARY
  5
2E5
102
{ACAD_REACTORS
330
C
102
}
330
C
100
AcDbDictionary
281
     1
  3
CTABLESTYLE
350
2E6
  0
LAYOUT
  5
25
102
{ACAD_REACTORS
330
19
102
}
330
19
100
AcDbPlotSettings
  1

  2
PDF reDirect v2
  4
User66
  6

 40
3.174999952316284
 41
3.174999952316284
 42
3.17498779296875
 43
3.17498779296875
 44
420.0
 45
594.0
 46
0.0
 47
0.0
 48
0.0
 49
0.0
140
0.0
141
0.0
142
1.0
143
1.0
 70
 11952
 72
     1
 73
     1
 74
     2
  7
C:\Users\ck\AppData\Roaming\Autodesk\AutoCAD 2005\R16.1\jpn\Plot Styles\black.ctb
 75
    16
147
1.0
 76
     0
 77
     2
 78
   300
148
592.0
149
0.0
100
AcDbLayout
  1
Model
 70
     1
 71
     0
 10
0.0
 20
0.0
 11
12.0
 21
9.0
 12
0.0
 22
0.0
 32
0.0
 14
0.0
 24
0.0
 34
0.0
 15
0.0
 25
0.0
 35
0.0
146
0.0
 13
0.0
 23
0.0
 33
0.0
 16
1.0
 26
0.0
 36
0.0
 17
0.0
 27
1.0
 37
0.0
 76
     0
330
22
1001
ACAD_PSEXT
1000
PDF reDirect v2
1000
PDF reDirect Pro
1000
PDF_REDIRECT_PORT:
1000
PDF reDirect provided by EXP Systems
1070
     0
  0
LAYOUT
  5
21
102
{ACAD_REACTORS
330
19
102
}
330
19
100
AcDbPlotSettings
  1

  2
PDF reDirect v2
  4

  6

 40
0.0
 41
0.0
 42
0.0
 43
0.0
 44
0.0
 45
0.0
 46
0.0
 47
0.0
 48
0.0
 49
0.0
140
0.0
141
0.0
142
1.0
143
1.0
 70
   688
 72
     0
 73
     0
 74
     5
  7
C:\Users\ck\AppData\Roaming\Autodesk\AutoCAD 2005\R16.1\jpn\Plot Styles\black.ctb
 75
    16
147
1.0
 76
     0
 77
     2
 78
   300
148
0.0
149
0.0
100
AcDbLayout
  1
レイアウト1
 70
     1
 71
     1
 10
-592.0
 20
0.0
 11
0.0
 21
418.0
 12
0.0
 22
0.0
 32
0.0
 14
1.000000000000000E+20
 24
1.000000000000000E+20
 34
1.000000000000000E+20
 15
-1.000000000000000E+20
 25
-1.000000000000000E+20
 35
-1.000000000000000E+20
146
0.0
 13
0.0
 23
0.0
 33
0.0
 16
1.0
 26
0.0
 36
0.0
 17
0.0
 27
1.0
 37
0.0
 76
     0
330
1E
  0
MLINESTYLE
  5
17
102
{ACAD_REACTORS
330
16
102
}
330
16
100
AcDbMlineStyle
  2
STANDARD
 70
     0
  3

 62
   256
 51
90.0
 52
90.0
 71
     2
 49
0.5
 62
   256
  6
BYLAYER
 49
-0.5
 62
   256
  6
BYLAYER
  0
ACDBPLACEHOLDER
  5
F
102
{ACAD_REACTORS
330
E
102
}
330
E
  0
TABLESTYLE
  5
1D
102
{ACAD_REACTORS
330
1C
102
}
330
1C
100
AcDbTableStyle
  3
Standard
 70
     0
 71
     0
 40
0.06
 41
0.06
280
     0
281
     0
  7
STANDARD
140
0.18
170
     2
 62
     0
 63
     7
283
     0
274
    -2
284
     1
 64
     0
275
    -2
285
     1
 65
     0
276
    -2
286
     1
 66
     0
277
    -2
287
     1
 67
     0
278
    -2
288
     1
 68
     0
279
    -2
289
     1
 69
     0
  7
STANDARD
140
0.25
170
     5
 62
     0
 63
     7
283
     0
274
    -2
284
     1
 64
     0
275
    -2
285
     1
 65
     0
276
    -2
286
     1
 66
     0
277
    -2
287
     1
 67
     0
278
    -2
288
     1
 68
     0
279
    -2
289
     1
 69
     0
  7
STANDARD
140
0.18
170
     5
 62
     0
 63
     7
283
     0
274
    -2
284
     1
 64
     0
275
    -2
285
     1
 65
     0
276
    -2
286
     1
 66
     0
277
    -2
287
     1
 67
     0
278
    -2
288
     1
 68
     0
279
    -2
289
     1
 69
     0
  0
DICTIONARYVAR
  5
2E6
102
{ACAD_REACTORS
330
2E5
102
}
330
2E5
100
DictionaryVariables
280
     0
  1
STANDARD
  0
ENDSEC
  0
EOF
