  0
SECTION
  2
HEADER
  9
$ACADVER
  1
AC1018
  9
$ACADMAINTVER
 70
    39
  9
$DWGCODEPAGE
  3
ANSI_932
  9
$INSBASE
 10
0.0
 20
0.0
 30
0.0
  9
$EXTMIN
 10
-602.3143288257001
 20
22.84245440555082
 30
-0.0015258207003583
  9
$EXTMAX
 10
-121.5945721627149
 20
561.3940900866805
 30
0.0000000349246037
  9
$LIMMIN
 10
-839.0
 20
0.0
  9
$LIMMAX
 10
0.0
 20
591.0
  9
$ORTHOMODE
 70
     0
  9
$REGENMODE
 70
     1
  9
$FILLMODE
 70
     1
  9
$QTEXTMODE
 70
     0
  9
$MIRRTEXT
 70
     0
  9
$LTSCALE
 40
1.0
  9
$ATTMODE
 70
     1
  9
$TEXTSIZE
 40
0.2
  9
$TRACEWID
 40
0.05
  9
$TEXTSTYLE
  7
STANDARD
  9
$CLAYER
  8
0
  9
$CELTYPE
  6
CONTINUOUS
  9
$CECOLOR
 62
   256
  9
$CELTSCALE
 40
1.0
  9
$DISPSILH
 70
     0
  9
$DIMSCALE
 40
1.0
  9
$DIMASZ
 40
1.0
  9
$DIMEXO
 40
2.54
  9
$DIMDLI
 40
0.38
  9
$DIMRND
 40
0.0
  9
$DIMDLE
 40
0.0
  9
$DIMEXE
 40
2.54
  9
$DIMTP
 40
0.0
  9
$DIMTM
 40
0.0
  9
$DIMTXT
 40
3.0
  9
$DIMCEN
 40
0.09
  9
$DIMTSZ
 40
0.0
  9
$DIMTOL
 70
     0
  9
$DIMLIM
 70
     0
  9
$DIMTIH
 70
     0
  9
$DIMTOH
 70
     0
  9
$DIMSE1
 70
     0
  9
$DIMSE2
 70
     0
  9
$DIMTAD
 70
     1
  9
$DIMZIN
 70
     0
  9
$DIMBLK
  1

  9
$DIMASO
 70
     1
  9
$DIMSHO
 70
     0
  9
$DIMPOST
  1

  9
$DIMAPOST
  1

  9
$DIMALT
 70
     0
  9
$DIMALTD
 70
     2
  9
$DIMALTF
 40
25.4
  9
$DIMLFAC
 40
1.0
  9
$DIMTOFL
 70
     0
  9
$DIMTVP
 40
1.0
  9
$DIMTIX
 70
     0
  9
$DIMSOXD
 70
     0
  9
$DIMSAH
 70
     1
  9
$DIMBLK1
  1

  9
$DIMBLK2
  1

  9
$DIMSTYLE
  2
DIMSTYLE1
  9
$DIMCLRD
 70
     0
  9
$DIMCLRE
 70
     0
  9
$DIMCLRT
 70
     0
  9
$DIMTFAC
 40
1.0
  9
$DIMGAP
 40
1.5
  9
$DIMJUST
 70
     0
  9
$DIMSD1
 70
     0
  9
$DIMSD2
 70
     0
  9
$DIMTOLJ
 70
     1
  9
$DIMTZIN
 70
     0
  9
$DIMALTZ
 70
     0
  9
$DIMALTTZ
 70
     0
  9
$DIMUPT
 70
     0
  9
$DIMDEC
 70
     4
  9
$DIMTDEC
 70
     4
  9
$DIMALTU
 70
     2
  9
$DIMALTTD
 70
     2
  9
$DIMTXSTY
  7
STANDARD
  9
$DIMAUNIT
 70
     0
  9
$DIMADEC
 70
     0
  9
$DIMALTRND
 40
0.0
  9
$DIMAZIN
 70
     0
  9
$DIMDSEP
 70
    46
  9
$DIMATFIT
 70
     3
  9
$DIMFRAC
 70
     0
  9
$DIMLDRBLK
  1

  9
$DIMLUNIT
 70
     2
  9
$DIMLWD
 70
    -2
  9
$DIMLWE
 70
    -2
  9
$DIMTMOVE
 70
     0
  9
$LUNITS
 70
     2
  9
$LUPREC
 70
     4
  9
$SKETCHINC
 40
0.1
  9
$FILLETRAD
 40
0.0
  9
$AUNITS
 70
     0
  9
$AUPREC
 70
     0
  9
$MENU
  1
.
  9
$ELEVATION
 40
0.0
  9
$PELEVATION
 40
0.0
  9
$THICKNESS
 40
0.0
  9
$LIMCHECK
 70
     0
  9
$CHAMFERA
 40
0.0
  9
$CHAMFERB
 40
0.0
  9
$CHAMFERC
 40
0.0
  9
$CHAMFERD
 40
0.0
  9
$SKPOLY
 70
     0
  9
$TDCREATE
 40
2457842.559717639
  9
$TDUCREATE
 40
2457842.184717639
  9
$TDUPDATE
 40
2457842.560230139
  9
$TDUUPDATE
 40
2457842.185230139
  9
$TDINDWG
 40
0.0005137731
  9
$TDUSRTIMER
 40
0.0005137731
  9
$USRTIMER
 70
     1
  9
$ANGBASE
 50
0.0
  9
$ANGDIR
 70
     0
  9
$PDMODE
 70
     0
  9
$PDSIZE
 40
0.0
  9
$PLINEWID
 40
0.0
  9
$SPLFRAME
 70
     0
  9
$SPLINETYPE
 70
     6
  9
$SPLINESEGS
 70
     8
  9
$HANDSEED
  5
57A
  9
$SURFTAB1
 70
     6
  9
$SURFTAB2
 70
     6
  9
$SURFTYPE
 70
     6
  9
$SURFU
 70
     6
  9
$SURFV
 70
     6
  9
$UCSBASE
  2

  9
$UCSNAME
  2

  9
$UCSORG
 10
0.0
 20
0.0
 30
0.0
  9
$UCSXDIR
 10
1.0
 20
0.0
 30
0.0
  9
$UCSYDIR
 10
0.0
 20
1.0
 30
0.0
  9
$UCSORTHOREF
  2

  9
$UCSORTHOVIEW
 70
     0
  9
$UCSORGTOP
 10
0.0
 20
0.0
 30
0.0
  9
$UCSORGBOTTOM
 10
0.0
 20
0.0
 30
0.0
  9
$UCSORGLEFT
 10
0.0
 20
0.0
 30
0.0
  9
$UCSORGRIGHT
 10
0.0
 20
0.0
 30
0.0
  9
$UCSORGFRONT
 10
0.0
 20
0.0
 30
0.0
  9
$UCSORGBACK
 10
0.0
 20
0.0
 30
0.0
  9
$PUCSBASE
  2

  9
$PUCSNAME
  2

  9
$PUCSORG
 10
0.0
 20
0.0
 30
0.0
  9
$PUCSXDIR
 10
1.0
 20
0.0
 30
0.0
  9
$PUCSYDIR
 10
0.0
 20
1.0
 30
0.0
  9
$PUCSORTHOREF
  2

  9
$PUCSORTHOVIEW
 70
     0
  9
$PUCSORGTOP
 10
0.0
 20
0.0
 30
0.0
  9
$PUCSORGBOTTOM
 10
0.0
 20
0.0
 30
0.0
  9
$PUCSORGLEFT
 10
0.0
 20
0.0
 30
0.0
  9
$PUCSORGRIGHT
 10
0.0
 20
0.0
 30
0.0
  9
$PUCSORGFRONT
 10
0.0
 20
0.0
 30
0.0
  9
$PUCSORGBACK
 10
0.0
 20
0.0
 30
0.0
  9
$USERI1
 70
     0
  9
$USERI2
 70
     0
  9
$USERI3
 70
     0
  9
$USERI4
 70
     0
  9
$USERI5
 70
     0
  9
$USERR1
 40
0.0
  9
$USERR2
 40
0.0
  9
$USERR3
 40
0.0
  9
$USERR4
 40
0.0
  9
$USERR5
 40
0.0
  9
$WORLDVIEW
 70
     1
  9
$SHADEDGE
 70
     3
  9
$SHADEDIF
 70
    70
  9
$TILEMODE
 70
     1
  9
$MAXACTVP
 70
    64
  9
$PINSBASE
 10
0.0
 20
0.0
 30
0.0
  9
$PLIMCHECK
 70
     0
  9
$PEXTMIN
 10
1.000000000000000E+20
 20
1.000000000000000E+20
 30
1.000000000000000E+20
  9
$PEXTMAX
 10
-1.000000000000000E+20
 20
-1.000000000000000E+20
 30
-1.000000000000000E+20
  9
$PLIMMIN
 10
-839.0
 20
0.0
  9
$PLIMMAX
 10
0.0
 20
591.0
  9
$UNITMODE
 70
     0
  9
$VISRETAIN
 70
     1
  9
$PLINEGEN
 70
     0
  9
$PSLTSCALE
 70
     1
  9
$TREEDEPTH
 70
  3020
  9
$CMLSTYLE
  2
Standard
  9
$CMLJUST
 70
     0
  9
$CMLSCALE
 40
1.0
  9
$PROXYGRAPHICS
 70
     1
  9
$MEASUREMENT
 70
     0
  9
$CELWEIGHT
370
    -1
  9
$ENDCAPS
280
     0
  9
$JOINSTYLE
280
     0
  9
$LWDISPLAY
290
     0
  9
$INSUNITS
 70
     0
  9
$HYPERLINKBASE
  1

  9
$STYLESHEET
  1

  9
$XEDIT
290
     1
  9
$CEPSNTYPE
380
     0
  9
$PSTYLEMODE
290
     1
  9
$FINGERPRINTGUID
  2
{3D0BB4A7-2678-4753-BD01-9145F52E7758}
  9
$VERSIONGUID
  2
{079773E8-CD38-44B2-83DF-7AFEA609A9EC}
  9
$EXTNAMES
290
     1
  9
$PSVPSCALE
 40
0.0
  9
$OLESTARTUP
290
     0
  9
$SORTENTS
280
   127
  9
$INDEXCTL
280
     0
  9
$HIDETEXT
280
     0
  9
$XCLIPFRAME
290
     0
  9
$HALOGAP
280
     0
  9
$OBSCOLOR
 70
   257
  9
$OBSLTYPE
280
     0
  9
$INTERSECTIONDISPLAY
280
     0
  9
$INTERSECTIONCOLOR
 70
   257
  9
$DIMASSOC
280
     1
  9
$PROJECTNAME
  1

  0
ENDSEC
  0
SECTION
  2
CLASSES
  0
CLASS
  1
ACDBDICTIONARYWDFLT
  2
AcDbDictionaryWithDefault
  3
ObjectDBX Classes
 90
        0
 91
        1
280
     0
281
     0
  0
CLASS
  1
TABLESTYLE
  2
AcDbTableStyle
  3
ObjectDBX Classes
 90
     2047
 91
        1
280
     0
281
     0
  0
CLASS
  1
DICTIONARYVAR
  2
AcDbDictionaryVar
  3
ObjectDBX Classes
 90
        0
 91
        1
280
     0
281
     0
  0
ENDSEC
  0
SECTION
  2
TABLES
  0
TABLE
  2
VPORT
  5
8
330
0
100
AcDbSymbolTable
 70
     2
  0
VPORT
  5
579
330
8
100
AcDbSymbolTableRecord
100
AcDbViewportTableRecord
  2
*Active
 70
     0
 10
0.0
 20
0.0
 11
1.0
 21
1.0
 12
-419.5
 22
295.5
 13
0.0
 23
0.0
 14
1.0
 24
1.0
 15
0.0
 25
0.0
 16
0.0
 26
0.0
 36
1.0
 17
0.0
 27
0.0
 37
0.0
 40
595.6719367588932
 41
1.707124010554089
 42
50.0
 43
0.0
 44
0.0
 50
0.0
 51
0.0
 71
     0
 72
   100
 73
     1
 74
     1
 75
     0
 76
     0
 77
     0
 78
     0
281
     0
 65
     1
110
0.0
120
0.0
130
0.0
111
1.0
121
0.0
131
0.0
112
0.0
122
1.0
132
0.0
 79
     0
146
0.0
  0
ENDTAB
  0
TABLE
  2
LTYPE
  5
5
330
0
100
AcDbSymbolTable
 70
     6
  0
LTYPE
  5
13
330
5
100
AcDbSymbolTableRecord
100
AcDbLinetypeTableRecord
  2
ByBlock
 70
     0
  3

 72
    65
 73
     0
 40
0.0
  0
LTYPE
  5
14
330
5
100
AcDbSymbolTableRecord
100
AcDbLinetypeTableRecord
  2
ByLayer
 70
     0
  3

 72
    65
 73
     0
 40
0.0
  0
LTYPE
  5
15
330
5
100
AcDbSymbolTableRecord
100
AcDbLinetypeTableRecord
  2
CONTINUOUS
 70
     0
  3
Solid line
 72
    65
 73
     0
 40
0.0
  0
LTYPE
  5
26
330
5
100
AcDbSymbolTableRecord
100
AcDbLinetypeTableRecord
  2
DASHED
 70
     0
  3
__ __ __ __ __ __ __ __ __ __ __ __ __ __ __
 72
    65
 73
     2
 40
3.5
 49
2.0
 74
     0
 49
-1.5
 74
     0
  0
LTYPE
  5
27
330
5
100
AcDbSymbolTableRecord
100
AcDbLinetypeTableRecord
  2
CENTER
 70
     0
  3
____ _ ____ _ ____ _ ____ _ ____ _ ____ _ ____
 72
    65
 73
     4
 40
17.5
 49
13.0
 74
     0
 49
-1.5
 74
     0
 49
1.5
 74
     0
 49
-1.5
 74
     0
  0
LTYPE
  5
28
330
5
100
AcDbSymbolTableRecord
100
AcDbLinetypeTableRecord
  2
PHANTOM
 70
     0
  3
_____ _ _ _____ _ _ _____ _ _ _____ _ _ ____  
 72
    65
 73
     6
 40
15.5
 49
8.0
 74
     0
 49
-1.5
 74
     0
 49
1.5
 74
     0
 49
-1.5
 74
     0
 49
1.5
 74
     0
 49
-1.5
 74
     0
  0
LTYPE
  5
29
330
5
100
AcDbSymbolTableRecord
100
AcDbLinetypeTableRecord
  2
DOT
 70
     0
  3
. . . . . . . . . . . . . . . . . . . . . . . .
 72
    65
 73
     2
 40
0.25
 49
0.0
 74
     0
 49
-0.25
 74
     0
  0
LTYPE
  5
2A
330
5
100
AcDbSymbolTableRecord
100
AcDbLinetypeTableRecord
  2
HIDDEN
 70
     0
  3
__ __ __ __ __ __ __ __ __ __ __ __ __ __ __
 72
    65
 73
     2
 40
3.5
 49
2.0
 74
     0
 49
-1.5
 74
     0
  0
ENDTAB
  0
TABLE
  2
LAYER
  5
2
330
0
100
AcDbSymbolTable
 70
     2
  0
LAYER
  5
10
330
2
100
AcDbSymbolTableRecord
100
AcDbLayerTableRecord
  2
0
 70
     0
 62
     7
  6
CONTINUOUS
370
    -3
390
F
  0
LAYER
  5
2B
330
2
100
AcDbSymbolTableRecord
100
AcDbLayerTableRecord
  2
DEFPOINTS
 70
     0
 62
     7
  6
CONTINUOUS
290
     0
370
    -3
390
F
  0
ENDTAB
  0
TABLE
  2
STYLE
  5
3
330
0
100
AcDbSymbolTable
 70
     2
  0
STYLE
  5
11
330
3
100
AcDbSymbolTableRecord
100
AcDbTextStyleTableRecord
  2
STANDARD
 70
     0
 40
0.0
 41
1.0
 50
0.0
 71
     0
 42
0.2
  3

  4

1001
ACAD
1000
MS Gothic
1071
    32817
  0
ENDTAB
  0
TABLE
  2
VIEW
  5
6
330
0
100
AcDbSymbolTable
 70
     0
  0
ENDTAB
  0
TABLE
  2
UCS
  5
7
330
0
100
AcDbSymbolTable
 70
     0
  0
ENDTAB
  0
TABLE
  2
APPID
  5
9
330
0
100
AcDbSymbolTable
 70
     2
  0
APPID
  5
12
330
9
100
AcDbSymbolTableRecord
100
AcDbRegAppTableRecord
  2
ACAD
 70
     0
  0
APPID
  5
56E
330
9
100
AcDbSymbolTableRecord
100
AcDbRegAppTableRecord
  2
ACAD_PSEXT
 70
     0
  0
ENDTAB
  0
TABLE
  2
DIMSTYLE
  5
A
330
0
100
AcDbSymbolTable
 70
     6
100
AcDbDimStyleTable
 71
     1
340
2C
  0
DIMSTYLE
105
2C
102
{ACAD_REACTORS
330
566
102
}
330
A
100
AcDbSymbolTableRecord
100
AcDbDimStyleTableRecord
  2
DIMSTYLE1
 70
     0
 41
1.0
 42
2.54
 44
2.54
 73
     0
 74
     0
 77
     1
140
3.0
145
1.0
147
1.5
172
     1
173
     1
279
     2
340
11
  0
DIMSTYLE
105
2D
102
{ACAD_REACTORS
330
567
102
}
330
A
100
AcDbSymbolTableRecord
100
AcDbDimStyleTableRecord
  2
DIMSTYLE2
 70
     0
 41
1.0
 42
2.54
 44
2.54
 73
     0
 74
     0
 77
     1
140
3.0
145
1.0
147
1.5
172
     1
173
     1
279
     2
340
11
  0
DIMSTYLE
105
2E
102
{ACAD_REACTORS
330
568
102
}
330
A
100
AcDbSymbolTableRecord
100
AcDbDimStyleTableRecord
  2
DIMSTYLE3
 70
     0
 41
1.0
 42
2.54
 44
2.54
 73
     0
 74
     0
 77
     1
140
3.0
145
1.0
147
1.5
172
     1
173
     1
279
     2
340
11
  0
DIMSTYLE
105
2F
102
{ACAD_REACTORS
330
569
102
}
330
A
100
AcDbSymbolTableRecord
100
AcDbDimStyleTableRecord
  2
DIMSTYLE4
 70
     0
 41
1.0
 42
2.54
 44
2.54
 73
     0
 74
     0
 77
     1
140
3.0
145
1.0
147
1.5
172
     1
173
     1
279
     2
340
11
  0
DIMSTYLE
105
30
102
{ACAD_REACTORS
330
56A
102
}
330
A
100
AcDbSymbolTableRecord
100
AcDbDimStyleTableRecord
  2
DIMSTYLE5
 70
     0
 41
1.0
 42
2.54
 44
2.54
 73
     0
 74
     0
 77
     1
140
3.0
145
1.0
147
1.5
172
     1
173
     1
279
     2
340
11
  0
ENDTAB
  0
TABLE
  2
BLOCK_RECORD
  5
1
330
0
100
AcDbSymbolTable
 70
     8
  0
BLOCK_RECORD
  5
22
330
1
100
AcDbSymbolTableRecord
100
AcDbBlockTableRecord
  2
*Model_Space
340
25
  0
BLOCK_RECORD
  5
1E
330
1
100
AcDbSymbolTableRecord
100
AcDbBlockTableRecord
  2
*Paper_Space
340
21
  0
BLOCK_RECORD
  5
34
330
1
100
AcDbSymbolTableRecord
100
AcDbBlockTableRecord
  2
_OPEN30
340
0
102
{BLKREFS
331
3D
331
3E
331
49
331
4A
331
55
331
56
331
61
331
62
331
6D
331
6E
102
}
  0
BLOCK_RECORD
  5
3A
330
1
100
AcDbSymbolTableRecord
100
AcDbBlockTableRecord
  2
*D1
340
0
  0
BLOCK_RECORD
  5
46
330
1
100
AcDbSymbolTableRecord
100
AcDbBlockTableRecord
  2
*D2
340
0
  0
BLOCK_RECORD
  5
52
330
1
100
AcDbSymbolTableRecord
100
AcDbBlockTableRecord
  2
*D3
340
0
  0
BLOCK_RECORD
  5
5E
330
1
100
AcDbSymbolTableRecord
100
AcDbBlockTableRecord
  2
*D4
340
0
  0
BLOCK_RECORD
  5
6A
330
1
100
AcDbSymbolTableRecord
100
AcDbBlockTableRecord
  2
*D5
340
0
  0
BLOCK_RECORD
  5
76
330
1
100
AcDbSymbolTableRecord
100
AcDbBlockTableRecord
  2
KOZU0001
340
0
102
{BLKREFS
331
56B
102
}
  0
ENDTAB
  0
ENDSEC
  0
SECTION
  2
BLOCKS
  0
BLOCK
  5
23
330
22
100
AcDbEntity
  8
0
100
AcDbBlockBegin
  2
*Model_Space
 70
     0
 10
0.0
 20
0.0
 30
0.0
  3
*Model_Space
  1

  0
ENDBLK
  5
24
330
22
100
AcDbEntity
  8
0
100
AcDbBlockEnd
  0
BLOCK
  5
1F
330
1E
100
AcDbEntity
 67
     1
  8
0
100
AcDbBlockBegin
  2
*Paper_Space
 70
     0
 10
0.0
 20
0.0
 30
0.0
  3
*Paper_Space
  1

  0
ENDBLK
  5
20
330
1E
100
AcDbEntity
 67
     1
  8
0
100
AcDbBlockEnd
  0
BLOCK
  5
35
330
34
100
AcDbEntity
  8
0
100
AcDbBlockBegin
  2
_OPEN30
 70
     0
 10
0.0
 20
0.0
 30
0.0
  3
_OPEN30
  1

  0
LINE
  5
36
330
34
100
AcDbEntity
  8
0
  6
ByBlock
 62
     0
100
AcDbLine
 10
0.0
 20
0.0
 30
0.0
 11
-2.999999999999993
 21
-1.000000000000017
 31
0.0
  0
LINE
  5
37
330
34
100
AcDbEntity
  8
0
  6
ByBlock
 62
     0
100
AcDbLine
 10
0.0
 20
0.0
 30
0.0
 11
-3.000000000000006
 21
0.9999999999999815
 31
0.0
  0
LINE
  5
38
330
34
100
AcDbEntity
  8
0
  6
ByBlock
 62
     0
100
AcDbLine
 10
0.0
 20
0.0
 30
0.0
 11
-3.0
 21
0.0
 31
0.0
  0
ENDBLK
  5
39
330
34
100
AcDbEntity
  8
0
100
AcDbBlockEnd
  0
BLOCK
  5
3B
330
3A
100
AcDbEntity
  8
0
100
AcDbBlockBegin
  2
*D1
 70
     1
 10
0.0
 20
0.0
 30
0.0
  3
*D1
  1

  0
LINE
  5
3C
330
3A
100
AcDbEntity
  8
0
  6
Continuous
 62
     7
100
AcDbLine
 10
-250.7546997070313
 20
226.1767425537109
 30
0.0
 11
-250.7546997070312
 21
520.1767578124999
 31
0.0
  0
INSERT
  5
3D
330
3A
100
AcDbEntity
  8
0
  6
Continuous
 62
     7
100
AcDbBlockReference
  2
_OPEN30
 10
-250.7546997070313
 20
223.1767425537109
 30
0.0
 50
270.0000000000005
  0
INSERT
  5
3E
330
3A
100
AcDbEntity
  8
0
  6
Continuous
 62
     7
100
AcDbBlockReference
  2
_OPEN30
 10
-250.7546997070313
 20
523.1767578124999
 30
0.0
 50
90.00000000000019
  0
LINE
  5
3F
330
3A
100
AcDbEntity
  8
0
  6
Continuous
 62
     7
100
AcDbLine
 10
-293.3481225585937
 20
223.1767425537109
 30
0.0
 11
-248.4686889648438
 21
223.1767425537109
 31
0.0
  0
LINE
  5
40
330
3A
100
AcDbEntity
  8
0
  6
Continuous
 62
     7
100
AcDbLine
 10
-293.3481225585937
 20
523.1767578124999
 30
0.0
 11
-248.4686889648438
 21
523.1767578124999
 31
0.0
  0
TEXT
  5
41
330
3A
100
AcDbEntity
  8
0
  6
Continuous
 62
     7
100
AcDbText
 10
-251.5046995291259
 20
369.106727090477
 30
0.0
 40
3.0
  1
300
 50
90.00000250447815
 41
1.135813968126164
100
AcDbText
  0
POINT
  5
42
330
3A
100
AcDbEntity
  8
DEFPOINTS
  6
Continuous
 62
     7
100
AcDbPoint
 10
-295.8881225585938
 20
223.1767425537109
 30
0.0
  0
POINT
  5
43
330
3A
100
AcDbEntity
  8
DEFPOINTS
  6
Continuous
 62
     7
100
AcDbPoint
 10
-295.8881225585938
 20
523.1767578124999
 30
0.0
  0
POINT
  5
44
330
3A
100
AcDbEntity
  8
DEFPOINTS
  6
Continuous
 62
     7
100
AcDbPoint
 10
-250.7546997070313
 20
523.1767578124999
 30
0.0
  0
ENDBLK
  5
45
330
3A
100
AcDbEntity
  8
0
100
AcDbBlockEnd
  0
BLOCK
  5
47
330
46
100
AcDbEntity
  8
0
100
AcDbBlockBegin
  2
*D2
 70
     1
 10
0.0
 20
0.0
 30
0.0
  3
*D2
  1

  0
LINE
  5
48
330
46
100
AcDbEntity
  8
0
  6
Continuous
 62
     7
100
AcDbLine
 10
-587.8881225585937
 20
557.2726440429688
 30
0.0
 11
-293.8881225585938
 21
557.2726440429688
 31
0.0
  0
INSERT
  5
49
330
46
100
AcDbEntity
  8
0
  6
Continuous
 62
     7
100
AcDbBlockReference
  2
_OPEN30
 10
-590.8881225585937
 20
557.2726440429688
 30
0.0
 50
180.0000000000004
  0
INSERT
  5
4A
330
46
100
AcDbEntity
  8
0
  6
Continuous
 62
     7
100
AcDbBlockReference
  2
_OPEN30
 10
-290.8881225585938
 20
557.2726440429688
 30
0.0
  0
LINE
  5
4B
330
46
100
AcDbEntity
  8
0
  6
Continuous
 62
     7
100
AcDbLine
 10
-590.8881225585937
 20
520.7167578124999
 30
0.0
 11
-590.8881225585937
 21
559.5586547851564
 31
0.0
  0
LINE
  5
4C
330
46
100
AcDbEntity
  8
0
  6
Continuous
 62
     7
100
AcDbLine
 10
-290.8881225585938
 20
520.7167578124999
 30
0.0
 11
-290.8881225585938
 21
559.5586547851564
 31
0.0
  0
TEXT
  5
4D
330
46
100
AcDbEntity
  8
0
  6
Continuous
 62
     7
100
AcDbText
 10
-444.9581227302551
 20
558.0226440429688
 30
0.0
 40
3.0
  1
300
 41
1.135813968126164
100
AcDbText
  0
POINT
  5
4E
330
46
100
AcDbEntity
  8
DEFPOINTS
  6
Continuous
 62
     7
100
AcDbPoint
 10
-590.8881225585937
 20
518.1767578125
 30
0.0
  0
POINT
  5
4F
330
46
100
AcDbEntity
  8
DEFPOINTS
  6
Continuous
 62
     7
100
AcDbPoint
 10
-290.8881225585938
 20
518.1767578125
 30
0.0
  0
POINT
  5
50
330
46
100
AcDbEntity
  8
DEFPOINTS
  6
Continuous
 62
     7
100
AcDbPoint
 10
-290.8881225585938
 20
557.2726440429688
 30
0.0
  0
ENDBLK
  5
51
330
46
100
AcDbEntity
  8
0
100
AcDbBlockEnd
  0
BLOCK
  5
53
330
52
100
AcDbEntity
  8
0
100
AcDbBlockBegin
  2
*D3
 70
     1
 10
0.0
 20
0.0
 30
0.0
  3
*D3
  1

  0
LINE
  5
54
330
52
100
AcDbEntity
  8
0
  6
Continuous
 62
     7
100
AcDbLine
 10
-573.3881225585937
 20
544.1240234374999
 30
0.0
 11
-308.3881225585938
 21
544.1240234374999
 31
0.0
  0
INSERT
  5
55
330
52
100
AcDbEntity
  8
0
  6
Continuous
 62
     7
100
AcDbBlockReference
  2
_OPEN30
 10
-576.3881225585937
 20
544.1240234374999
 30
0.0
 50
180.0000000000004
  0
INSERT
  5
56
330
52
100
AcDbEntity
  8
0
  6
Continuous
 62
     7
100
AcDbBlockReference
  2
_OPEN30
 10
-305.3881225585938
 20
544.1240234374999
 30
0.0
  0
LINE
  5
57
330
52
100
AcDbEntity
  8
0
  6
Continuous
 62
     7
100
AcDbLine
 10
-576.3881225585937
 20
510.2167272949219
 30
0.0
 11
-576.3881225585937
 21
546.4100341796875
 31
0.0
  0
LINE
  5
58
330
52
100
AcDbEntity
  8
0
  6
Continuous
 62
     7
100
AcDbLine
 10
-305.3881225585938
 20
510.2167272949219
 30
0.0
 11
-305.3881225585938
 21
546.4100341796875
 31
0.0
  0
TEXT
  5
59
330
52
100
AcDbEntity
  8
0
  6
Continuous
 62
     7
100
AcDbText
 10
-444.9581227302551
 20
544.8740234375
 30
0.0
 40
3.0
  1
271
 41
1.110000014305114
100
AcDbText
  0
POINT
  5
5A
330
52
100
AcDbEntity
  8
DEFPOINTS
  6
Continuous
 62
     7
100
AcDbPoint
 10
-576.3881225585937
 20
507.6767272949219
 30
0.0
  0
POINT
  5
5B
330
52
100
AcDbEntity
  8
DEFPOINTS
  6
Continuous
 62
     7
100
AcDbPoint
 10
-305.3881225585938
 20
507.6767272949219
 30
0.0
  0
POINT
  5
5C
330
52
100
AcDbEntity
  8
DEFPOINTS
  6
Continuous
 62
     7
100
AcDbPoint
 10
-305.3881225585938
 20
544.1240234374999
 30
0.0
  0
ENDBLK
  5
5D
330
52
100
AcDbEntity
  8
0
100
AcDbBlockEnd
  0
BLOCK
  5
5F
330
5E
100
AcDbEntity
  8
0
100
AcDbBlockBegin
  2
*D4
 70
     1
 10
0.0
 20
0.0
 30
0.0
  3
*D4
  1

  0
LINE
  5
60
330
5E
100
AcDbEntity
  8
0
  6
Continuous
 62
     7
100
AcDbLine
 10
-264.8357543945313
 20
240.6767425537109
 30
0.0
 11
-264.8357543945313
 21
505.6767272949218
 31
0.0
  0
INSERT
  5
61
330
5E
100
AcDbEntity
  8
0
  6
Continuous
 62
     7
100
AcDbBlockReference
  2
_OPEN30
 10
-264.8357543945313
 20
237.6767425537109
 30
0.0
 50
270.0000000000005
  0
INSERT
  5
62
330
5E
100
AcDbEntity
  8
0
  6
Continuous
 62
     7
100
AcDbBlockReference
  2
_OPEN30
 10
-264.8357543945313
 20
508.6767272949218
 30
0.0
 50
90.00000000000019
  0
LINE
  5
63
330
5E
100
AcDbEntity
  8
0
  6
Continuous
 62
     7
100
AcDbLine
 10
-303.8481225585937
 20
237.6767425537109
 30
0.0
 11
-262.5497436523438
 21
237.6767425537109
 31
0.0
  0
LINE
  5
64
330
5E
100
AcDbEntity
  8
0
  6
Continuous
 62
     7
100
AcDbLine
 10
-303.8481225585937
 20
508.6767272949218
 30
0.0
 11
-262.5497436523438
 21
508.6767272949218
 31
0.0
  0
TEXT
  5
65
330
5E
100
AcDbEntity
  8
0
  6
Continuous
 62
     7
100
AcDbText
 10
-265.5857542166259
 20
369.106727090477
 30
0.0
 40
3.0
  1
271
 50
90.00000250447815
 41
1.110000014305114
100
AcDbText
  0
POINT
  5
66
330
5E
100
AcDbEntity
  8
DEFPOINTS
  6
Continuous
 62
     7
100
AcDbPoint
 10
-306.3881225585938
 20
237.6767425537109
 30
0.0
  0
POINT
  5
67
330
5E
100
AcDbEntity
  8
DEFPOINTS
  6
Continuous
 62
     7
100
AcDbPoint
 10
-306.3881225585938
 20
508.6767272949218
 30
0.0
  0
POINT
  5
68
330
5E
100
AcDbEntity
  8
DEFPOINTS
  6
Continuous
 62
     7
100
AcDbPoint
 10
-264.8357543945313
 20
508.6767272949218
 30
0.0
  0
ENDBLK
  5
69
330
5E
100
AcDbEntity
  8
0
100
AcDbBlockEnd
  0
BLOCK
  5
6B
330
6A
100
AcDbEntity
  8
0
100
AcDbBlockBegin
  2
*D5
 70
     1
 10
0.0
 20
0.0
 30
0.0
  3
*D5
  1

  0
LINE
  5
6C
330
6A
100
AcDbEntity
  8
0
  6
Continuous
 62
     7
100
AcDbLine
 10
-264.8357543945313
 20
151.5848388671875
 30
0.0
 11
-264.8357543945313
 21
52.5848388671875
 31
0.0
  0
INSERT
  5
6D
330
6A
100
AcDbEntity
  8
0
  6
Continuous
 62
     7
100
AcDbBlockReference
  2
_OPEN30
 10
-264.8357543945313
 20
154.5848388671875
 30
0.0
 50
90.00000000000019
  0
INSERT
  5
6E
330
6A
100
AcDbEntity
  8
0
  6
Continuous
 62
     7
100
AcDbBlockReference
  2
_OPEN30
 10
-264.8357543945313
 20
49.5848388671875
 30
0.0
 50
270.0000000000005
  0
LINE
  5
6F
330
6A
100
AcDbEntity
  8
0
  6
Continuous
 62
     7
100
AcDbLine
 10
-289.3481225585937
 20
154.5848388671875
 30
0.0
 11
-262.5497436523438
 21
154.5848388671875
 31
0.0
  0
LINE
  5
70
330
6A
100
AcDbEntity
  8
0
  6
Continuous
 62
     7
100
AcDbLine
 10
-377.8481225585937
 20
49.5848388671875
 30
0.0
 11
-262.5497436523438
 21
49.5848388671875
 31
0.0
  0
TEXT
  5
71
330
6A
100
AcDbEntity
  8
0
  6
Continuous
 62
     7
100
AcDbText
 10
-265.5857542166259
 20
98.01483866274258
 30
0.0
 40
3.0
  1
105
 50
90.00000250447815
 41
1.252307708446795
100
AcDbText
  0
POINT
  5
72
330
6A
100
AcDbEntity
  8
DEFPOINTS
  6
Continuous
 62
     7
100
AcDbPoint
 10
-291.8881225585938
 20
154.5848388671875
 30
0.0
  0
POINT
  5
73
330
6A
100
AcDbEntity
  8
DEFPOINTS
  6
Continuous
 62
     7
100
AcDbPoint
 10
-380.3881225585938
 20
49.5848388671875
 30
0.0
  0
POINT
  5
74
330
6A
100
AcDbEntity
  8
DEFPOINTS
  6
Continuous
 62
     7
100
AcDbPoint
 10
-264.8357543945313
 20
49.5848388671875
 30
0.0
  0
ENDBLK
  5
75
330
6A
100
AcDbEntity
  8
0
100
AcDbBlockEnd
  0
BLOCK
  5
77
330
76
100
AcDbEntity
  8
0
100
AcDbBlockBegin
  2
KOZU0001
 70
     0
 10
0.0
 20
0.0
 30
0.0
  3
KOZU0001
  1

  0
LINE
  5
78
330
76
100
AcDbEntity
  8
0
  6
Continuous
 62
     7
100
AcDbLine
 10
0.0
 20
0.0
 30
0.0
 11
-20.72476196289063
 21
-38.24129295349121
 31
0.0
  0
LINE
  5
79
330
76
100
AcDbEntity
  8
0
  6
Continuous
 62
     7
100
AcDbLine
 10
-20.72476196289063
 20
-38.24129295349121
 30
0.0
 11
-49.44586181640625
 21
-38.24129295349121
 31
0.0
  0
LINE
  5
7A
330
76
100
AcDbEntity
  8
0
  6
Continuous
 62
     7
100
AcDbLine
 10
0.0
 20
0.0
 30
0.0
 11
-0.5502328543946974
 21
-3.114039788754258
 31
0.0
  0
LINE
  5
7B
330
76
100
AcDbEntity
  8
0
  6
Continuous
 62
     7
100
AcDbLine
 10
0.0
 20
0.0
 30
0.0
 11
-2.308610156768311
 21
-2.161092118366589
 31
0.0
  0
TEXT
  5
7C
330
76
100
AcDbEntity
  8
0
  6
Continuous
 62
     7
100
AcDbText
 10
-48.13830661773682
 20
-37.49129295349121
 30
0.0
 40
3.0
  1
配管接続口
 41
0.8487395020950888
100
AcDbText
  0
TEXT
  5
7D
330
76
100
AcDbEntity
  8
0
  6
Continuous
 62
     7
100
AcDbText
 10
-48.13830661773682
 20
-42.75629295349121
 30
0.0
 40
3.0
  1
Ｒｃ４（１００Ａ）
 41
0.8448610247221777
100
AcDbText
  0
ENDBLK
  5
7E
330
76
100
AcDbEntity
  8
0
100
AcDbBlockEnd
  0
ENDSEC
  0
SECTION
  2
ENTITIES
  0
LINE
  5
7F
330
22
100
AcDbEntity
  8
0
  6
Continuous
 62
     7
100
AcDbLine
 10
-290.8881225585938
 20
228.1767425537109
 30
0.0
 11
-290.8881225585938
 21
518.1767578125
 31
0.0
  0
LINE
  5
80
330
22
100
AcDbEntity
  8
0
  6
Continuous
 62
     7
100
AcDbLine
 10
-590.8881225585937
 20
518.1767578125
 30
0.0
 11
-590.8881225585937
 21
228.1767425537109
 31
0.0
  0
LINE
  5
81
330
22
100
AcDbEntity
  8
0
  6
CENTER
 62
     7
100
AcDbLine
 10
-440.8881225585938
 20
531.2326049804688
 30
0.0
 11
-440.8881225585938
 21
213.4418792724609
 31
0.0
  0
LINE
  5
82
330
22
100
AcDbEntity
  8
0
  6
Continuous
 62
     7
100
AcDbLine
 10
-401.8881225585937
 20
269.676727294922
 30
0.0
 11
-401.8881225585937
 21
300.6767272949219
 31
0.0
  0
LINE
  5
83
330
22
100
AcDbEntity
  8
0
  6
Continuous
 62
     7
100
AcDbLine
 10
-401.8881225585937
 20
248.6767425537109
 30
0.0
 11
-401.8881225585937
 21
258.6767272949219
 31
0.0
  0
LINE
  5
84
330
22
100
AcDbEntity
  8
0
  6
Continuous
 62
     7
100
AcDbLine
 10
-401.8881225585937
 20
311.6767272949219
 30
0.0
 11
-401.8881225585937
 21
342.6767272949219
 31
0.0
  0
LINE
  5
85
330
22
100
AcDbEntity
  8
0
  6
Continuous
 62
     7
100
AcDbLine
 10
-401.8881225585937
 20
353.6767272949219
 30
0.0
 11
-401.8881225585937
 21
363.6767272949219
 31
0.0
  0
LINE
  5
86
330
22
100
AcDbEntity
  8
0
  6
DASHED
 62
     7
100
AcDbLine
 10
-436.3881225585938
 20
370.6767272949219
 30
0.0
 11
-317.2182312011719
 21
370.6767272949219
 31
0.0
  0
LINE
  5
87
330
22
100
AcDbEntity
  8
0
  6
DASHED
 62
     7
100
AcDbLine
 10
-319.8881225585938
 20
241.6767425537109
 30
0.0
 11
-433.8881225585938
 21
241.6767425537109
 31
0.0
  0
LINE
  5
88
330
22
100
AcDbEntity
  8
0
  6
DASHED
 62
     7
100
AcDbLine
 10
-436.3881225585938
 20
375.6767272949219
 30
0.0
 11
-317.118408203125
 21
375.6767272949219
 31
0.0
  0
LINE
  5
89
330
22
100
AcDbEntity
  8
0
  6
Continuous
 62
     7
100
AcDbLine
 10
-401.8881225585937
 20
392.3518676757813
 30
0.0
 11
-401.8881225585937
 21
382.6767272949219
 31
0.0
  0
LINE
  5
8A
330
22
100
AcDbEntity
  8
0
  6
Continuous
 62
     7
100
AcDbLine
 10
-396.8881225585938
 20
392.3518676757813
 30
0.0
 11
-396.8881225585938
 21
382.6767272949219
 31
0.0
  0
LINE
  5
8B
330
22
100
AcDbEntity
  8
0
  6
Continuous
 62
     7
100
AcDbLine
 10
-308.3881225585938
 20
238.6767425537109
 30
0.0
 11
-573.3881225585937
 21
238.6767425537109
 31
0.0
  0
LINE
  5
8C
330
22
100
AcDbEntity
  8
0
  6
Continuous
 62
     7
100
AcDbLine
 10
-306.3881225585938
 20
508.6767272949218
 30
0.0
 11
-575.3881225585937
 21
508.6767272949218
 31
0.0
  0
LINE
  5
8D
330
22
100
AcDbEntity
  8
0
  6
Continuous
 62
     7
100
AcDbLine
 10
-575.3881225585937
 20
237.6767425537109
 30
0.0
 11
-306.3881225585938
 21
237.6767425537109
 31
0.0
  0
LINE
  5
8E
330
22
100
AcDbEntity
  8
0
  6
Continuous
 62
     7
100
AcDbLine
 10
-295.8881225585938
 20
523.1767578124999
 30
0.0
 11
-585.8881225585937
 21
523.1767578124999
 31
0.0
  0
LINE
  5
8F
330
22
100
AcDbEntity
  8
0
  6
CENTER
 62
     7
100
AcDbLine
 10
-602.2779541015625
 20
373.1767272949219
 30
0.0
 11
-280.7572021484375
 21
373.1767272949219
 31
0.0
  0
LINE
  5
90
330
22
100
AcDbEntity
  8
0
  6
Continuous
 62
     7
100
AcDbLine
 10
-308.3881225585938
 20
507.6767272949219
 30
0.0
 11
-573.3881225585937
 21
507.6767272949219
 31
0.0
  0
LINE
  5
91
330
22
100
AcDbEntity
  8
0
  6
Continuous
 62
     7
100
AcDbLine
 10
-585.8881225585937
 20
223.1767425537109
 30
0.0
 11
-295.8881225585938
 21
223.1767425537109
 31
0.0
  0
LINE
  5
92
330
22
100
AcDbEntity
  8
0
  6
Continuous
 62
     7
100
AcDbLine
 10
-396.8881225585938
 20
434.6767272949218
 30
0.0
 11
-396.8881225585938
 21
403.3518676757813
 31
0.0
  0
LINE
  5
93
330
22
100
AcDbEntity
  8
0
  6
Continuous
 62
     7
100
AcDbLine
 10
-396.8881225585938
 20
497.6767272949218
 30
0.0
 11
-396.8881225585938
 21
487.6767272949218
 31
0.0
  0
LINE
  5
94
330
22
100
AcDbEntity
  8
0
  6
Continuous
 62
     7
100
AcDbLine
 10
-396.8881225585938
 20
476.6767272949218
 30
0.0
 11
-396.8881225585938
 21
445.6767272949218
 31
0.0
  0
LINE
  5
95
330
22
100
AcDbEntity
  8
0
  6
Continuous
 62
     7
100
AcDbLine
 10
-401.8881225585937
 20
497.6767272949218
 30
0.0
 11
-401.8881225585937
 21
487.6767272949218
 31
0.0
  0
LINE
  5
96
330
22
100
AcDbEntity
  8
0
  6
Continuous
 62
     7
100
AcDbLine
 10
-401.8881225585937
 20
434.6767272949218
 30
0.0
 11
-401.8881225585937
 21
403.3518676757813
 31
0.0
  0
LINE
  5
97
330
22
100
AcDbEntity
  8
0
  6
Continuous
 62
     7
100
AcDbLine
 10
-401.8881225585937
 20
476.6767272949218
 30
0.0
 11
-401.8881225585937
 21
445.6767272949218
 31
0.0
  0
LINE
  5
98
330
22
100
AcDbEntity
  8
0
  6
DASHED
 62
     7
100
AcDbLine
 10
-319.8881225585938
 20
504.6767272949218
 30
0.0
 11
-433.8881225585938
 21
504.6767272949218
 31
0.0
  0
LINE
  5
99
330
22
100
AcDbEntity
  8
0
  6
Continuous
 62
     7
100
AcDbLine
 10
-396.8881225585938
 20
353.6767272949219
 30
0.0
 11
-396.8881225585938
 21
363.6767272949219
 31
0.0
  0
LINE
  5
9A
330
22
100
AcDbEntity
  8
0
  6
Continuous
 62
     7
100
AcDbLine
 10
-396.8881225585938
 20
311.6767272949219
 30
0.0
 11
-396.8881225585938
 21
342.6767272949219
 31
0.0
  0
LINE
  5
9B
330
22
100
AcDbEntity
  8
0
  6
Continuous
 62
     7
100
AcDbLine
 10
-396.8881225585938
 20
248.6767425537109
 30
0.0
 11
-396.8881225585938
 21
258.6767272949219
 31
0.0
  0
LINE
  5
9C
330
22
100
AcDbEntity
  8
0
  6
Continuous
 62
     7
100
AcDbLine
 10
-396.8881225585938
 20
269.676727294922
 30
0.0
 11
-396.8881225585938
 21
300.6767272949219
 31
0.0
  0
LINE
  5
9D
330
22
100
AcDbEntity
  8
0
  6
Continuous
 62
     7
100
AcDbLine
 10
-449.8881225585938
 20
413.6767272949218
 30
0.0
 11
-449.8881225585938
 21
382.6767272949219
 31
0.0
  0
LINE
  5
9E
330
22
100
AcDbEntity
  8
0
  6
Continuous
 62
     7
100
AcDbLine
 10
-454.8881225585938
 20
413.6767272949218
 30
0.0
 11
-454.8881225585938
 21
382.6767272949219
 31
0.0
  0
LINE
  5
9F
330
22
100
AcDbEntity
  8
0
  6
Continuous
 62
     7
100
AcDbLine
 10
-426.8881225585937
 20
413.6767272949218
 30
0.0
 11
-426.8881225585937
 21
382.6767272949219
 31
0.0
  0
LINE
  5
A0
330
22
100
AcDbEntity
  8
0
  6
Continuous
 62
     7
100
AcDbLine
 10
-411.8881225585938
 20
413.6767272949218
 30
0.0
 11
-411.8881225585938
 21
382.6767272949219
 31
0.0
  0
LINE
  5
A1
330
22
100
AcDbEntity
  8
0
  6
Continuous
 62
     7
100
AcDbLine
 10
-406.8881225585938
 20
413.6767272949218
 30
0.0
 11
-406.8881225585938
 21
382.6767272949219
 31
0.0
  0
LINE
  5
A2
330
22
100
AcDbEntity
  8
0
  6
Continuous
 62
     7
100
AcDbLine
 10
-431.8881225585938
 20
413.6767272949218
 30
0.0
 11
-431.8881225585938
 21
382.6767272949219
 31
0.0
  0
LINE
  5
A3
330
22
100
AcDbEntity
  8
0
  6
Continuous
 62
     7
100
AcDbLine
 10
-534.8881225585938
 20
413.6767272949218
 30
0.0
 11
-534.8881225585938
 21
382.6767272949219
 31
0.0
  0
LINE
  5
A4
330
22
100
AcDbEntity
  8
0
  6
Continuous
 62
     7
100
AcDbLine
 10
-529.8881225585938
 20
413.6767272949218
 30
0.0
 11
-529.8881225585938
 21
382.6767272949219
 31
0.0
  0
LINE
  5
A5
330
22
100
AcDbEntity
  8
0
  6
Continuous
 62
     7
100
AcDbLine
 10
-469.8881225585938
 20
413.6767272949218
 30
0.0
 11
-469.8881225585938
 21
382.6767272949219
 31
0.0
  0
LINE
  5
A6
330
22
100
AcDbEntity
  8
0
  6
Continuous
 62
     7
100
AcDbLine
 10
-474.8881225585938
 20
413.6767272949218
 30
0.0
 11
-474.8881225585938
 21
382.6767272949219
 31
0.0
  0
LINE
  5
A7
330
22
100
AcDbEntity
  8
0
  6
Continuous
 62
     7
100
AcDbLine
 10
-494.8881225585938
 20
413.6767272949218
 30
0.0
 11
-494.8881225585938
 21
382.6767272949219
 31
0.0
  0
LINE
  5
A8
330
22
100
AcDbEntity
  8
0
  6
Continuous
 62
     7
100
AcDbLine
 10
-489.8881225585937
 20
413.6767272949218
 30
0.0
 11
-489.8881225585937
 21
382.6767272949219
 31
0.0
  0
LINE
  5
A9
330
22
100
AcDbEntity
  8
0
  6
Continuous
 62
     7
100
AcDbLine
 10
-514.8881225585938
 20
413.6767272949218
 30
0.0
 11
-514.8881225585938
 21
382.6767272949219
 31
0.0
  0
LINE
  5
AA
330
22
100
AcDbEntity
  8
0
  6
Continuous
 62
     7
100
AcDbLine
 10
-509.8881225585937
 20
413.6767272949218
 30
0.0
 11
-509.8881225585937
 21
382.6767272949219
 31
0.0
  0
LINE
  5
AB
330
22
100
AcDbEntity
  8
0
  6
Continuous
 62
     7
100
AcDbLine
 10
-464.8881225585937
 20
434.6767272949218
 30
0.0
 11
-464.8881225585937
 21
403.3518676757813
 31
0.0
  0
LINE
  5
AC
330
22
100
AcDbEntity
  8
0
  6
Continuous
 62
     7
100
AcDbLine
 10
-554.8881225585938
 20
413.6767272949218
 30
0.0
 11
-554.8881225585938
 21
382.6767272949219
 31
0.0
  0
LINE
  5
AD
330
22
100
AcDbEntity
  8
0
  6
Continuous
 62
     7
100
AcDbLine
 10
-549.8881225585939
 20
413.6767272949218
 30
0.0
 11
-549.8881225585939
 21
382.6767272949219
 31
0.0
  0
LINE
  5
AE
330
22
100
AcDbEntity
  8
0
  6
Continuous
 62
     7
100
AcDbLine
 10
-391.8881225585938
 20
413.6767272949218
 30
0.0
 11
-391.8881225585938
 21
382.6767272949219
 31
0.0
  0
LINE
  5
AF
330
22
100
AcDbEntity
  8
0
  6
DASHED
 62
     7
100
AcDbLine
 10
-443.3881225585937
 20
377.6767272949219
 30
0.0
 11
-443.3881225585937
 21
496.8466186523437
 31
0.0
  0
LINE
  5
B0
330
22
100
AcDbEntity
  8
0
  6
DASHED
 62
     7
100
AcDbLine
 10
-438.3881225585938
 20
496.8466186523437
 30
0.0
 11
-438.3881225585938
 21
377.6767272949219
 31
0.0
  0
LINE
  5
B1
330
22
100
AcDbEntity
  8
0
  6
Continuous
 62
     7
100
AcDbLine
 10
-575.3881225585937
 20
505.6767272949218
 30
0.0
 11
-575.3881225585937
 21
240.6767425537109
 31
0.0
  0
LINE
  5
B2
330
22
100
AcDbEntity
  8
0
  6
Continuous
 62
     7
100
AcDbLine
 10
-576.3881225585937
 20
507.6767272949219
 30
0.0
 11
-576.3881225585937
 21
238.6767425537109
 31
0.0
  0
LINE
  5
B3
330
22
100
AcDbEntity
  8
0
  6
DASHED
 62
     7
100
AcDbLine
 10
-572.3881225585937
 20
494.1767272949219
 30
0.0
 11
-572.3881225585937
 21
380.1767272949219
 31
0.0
  0
LINE
  5
B4
330
22
100
AcDbEntity
  8
0
  6
Continuous
 62
     7
100
AcDbLine
 10
-421.8881225585938
 20
434.6767272949218
 30
0.0
 11
-421.8881225585938
 21
403.3518676757813
 31
0.0
  0
LINE
  5
B5
330
22
100
AcDbEntity
  8
0
  6
Continuous
 62
     7
100
AcDbLine
 10
-416.8881225585938
 20
434.6767272949218
 30
0.0
 11
-416.8881225585938
 21
403.3518676757813
 31
0.0
  0
LINE
  5
B6
330
22
100
AcDbEntity
  8
0
  6
Continuous
 62
     7
100
AcDbLine
 10
-459.8881225585937
 20
434.6767272949218
 30
0.0
 11
-459.8881225585937
 21
403.3518676757813
 31
0.0
  0
LINE
  5
B7
330
22
100
AcDbEntity
  8
0
  6
Continuous
 62
     7
100
AcDbLine
 10
-484.8881225585937
 20
434.6767272949218
 30
0.0
 11
-484.8881225585937
 21
403.3518676757813
 31
0.0
  0
LINE
  5
B8
330
22
100
AcDbEntity
  8
0
  6
Continuous
 62
     7
100
AcDbLine
 10
-504.8881225585938
 20
434.6767272949218
 30
0.0
 11
-504.8881225585938
 21
403.3518676757813
 31
0.0
  0
LINE
  5
B9
330
22
100
AcDbEntity
  8
0
  6
Continuous
 62
     7
100
AcDbLine
 10
-519.8881225585938
 20
434.6767272949218
 30
0.0
 11
-519.8881225585938
 21
403.3518676757813
 31
0.0
  0
LINE
  5
BA
330
22
100
AcDbEntity
  8
0
  6
Continuous
 62
     7
100
AcDbLine
 10
-499.8881225585938
 20
434.6767272949218
 30
0.0
 11
-499.8881225585938
 21
403.3518676757813
 31
0.0
  0
LINE
  5
BB
330
22
100
AcDbEntity
  8
0
  6
Continuous
 62
     7
100
AcDbLine
 10
-479.8881225585938
 20
434.6767272949218
 30
0.0
 11
-479.8881225585938
 21
403.3518676757813
 31
0.0
  0
LINE
  5
BC
330
22
100
AcDbEntity
  8
0
  6
Continuous
 62
     7
100
AcDbLine
 10
-524.8881225585939
 20
434.6767272949218
 30
0.0
 11
-524.8881225585939
 21
403.3518676757813
 31
0.0
  0
LINE
  5
BD
330
22
100
AcDbEntity
  8
0
  6
Continuous
 62
     7
100
AcDbLine
 10
-559.8881225585938
 20
434.6767272949218
 30
0.0
 11
-559.8881225585938
 21
403.3518676757813
 31
0.0
  0
LINE
  5
BE
330
22
100
AcDbEntity
  8
0
  6
Continuous
 62
     7
100
AcDbLine
 10
-564.8881225585937
 20
434.6767272949218
 30
0.0
 11
-564.8881225585937
 21
403.3518676757813
 31
0.0
  0
LINE
  5
BF
330
22
100
AcDbEntity
  8
0
  6
Continuous
 62
     7
100
AcDbLine
 10
-544.8881225585938
 20
434.6767272949218
 30
0.0
 11
-544.8881225585938
 21
403.3518676757813
 31
0.0
  0
LINE
  5
C0
330
22
100
AcDbEntity
  8
0
  6
Continuous
 62
     7
100
AcDbLine
 10
-539.8881225585938
 20
434.6767272949218
 30
0.0
 11
-539.8881225585938
 21
403.3518676757813
 31
0.0
  0
LINE
  5
C1
330
22
100
AcDbEntity
  8
0
  6
Continuous
 62
     7
100
AcDbLine
 10
-306.3881225585938
 20
240.6767425537109
 30
0.0
 11
-306.3881225585938
 21
505.6767272949218
 31
0.0
  0
LINE
  5
C2
330
22
100
AcDbEntity
  8
0
  6
DASHED
 62
     7
100
AcDbLine
 10
-309.3881225585938
 20
380.1767272949219
 30
0.0
 11
-309.3881225585938
 21
494.1767272949219
 31
0.0
  0
LINE
  5
C3
330
22
100
AcDbEntity
  8
0
  6
Continuous
 62
     7
100
AcDbLine
 10
-305.3881225585938
 20
238.6767425537109
 30
0.0
 11
-305.3881225585938
 21
507.6767272949219
 31
0.0
  0
LINE
  5
C4
330
22
100
AcDbEntity
  8
0
  6
Continuous
 62
     7
100
AcDbLine
 10
-316.8881225585938
 20
434.6767272949218
 30
0.0
 11
-316.8881225585938
 21
403.3518676757813
 31
0.0
  0
LINE
  5
C5
330
22
100
AcDbEntity
  8
0
  6
Continuous
 62
     7
100
AcDbLine
 10
-361.8881225585938
 20
434.6767272949218
 30
0.0
 11
-361.8881225585938
 21
403.3518676757813
 31
0.0
  0
LINE
  5
C6
330
22
100
AcDbEntity
  8
0
  6
Continuous
 62
     7
100
AcDbLine
 10
-381.8881225585938
 20
434.6767272949218
 30
0.0
 11
-381.8881225585938
 21
403.3518676757813
 31
0.0
  0
LINE
  5
C7
330
22
100
AcDbEntity
  8
0
  6
Continuous
 62
     7
100
AcDbLine
 10
-321.8881225585938
 20
434.6767272949218
 30
0.0
 11
-321.8881225585938
 21
403.3518676757813
 31
0.0
  0
LINE
  5
C8
330
22
100
AcDbEntity
  8
0
  6
Continuous
 62
     7
100
AcDbLine
 10
-376.8881225585938
 20
434.6767272949218
 30
0.0
 11
-376.8881225585938
 21
403.3518676757813
 31
0.0
  0
LINE
  5
C9
330
22
100
AcDbEntity
  8
0
  6
Continuous
 62
     7
100
AcDbLine
 10
-356.8881225585938
 20
434.6767272949218
 30
0.0
 11
-356.8881225585938
 21
403.3518676757813
 31
0.0
  0
LINE
  5
CA
330
22
100
AcDbEntity
  8
0
  6
Continuous
 62
     7
100
AcDbLine
 10
-341.8881225585938
 20
434.6767272949218
 30
0.0
 11
-341.8881225585938
 21
403.3518676757813
 31
0.0
  0
LINE
  5
CB
330
22
100
AcDbEntity
  8
0
  6
Continuous
 62
     7
100
AcDbLine
 10
-336.8881225585938
 20
434.6767272949218
 30
0.0
 11
-336.8881225585938
 21
403.3518676757813
 31
0.0
  0
LINE
  5
CC
330
22
100
AcDbEntity
  8
0
  6
Continuous
 62
     7
100
AcDbLine
 10
-326.8881225585938
 20
413.6767272949218
 30
0.0
 11
-326.8881225585938
 21
382.6767272949219
 31
0.0
  0
LINE
  5
CD
330
22
100
AcDbEntity
  8
0
  6
Continuous
 62
     7
100
AcDbLine
 10
-331.8881225585938
 20
413.6767272949218
 30
0.0
 11
-331.8881225585938
 21
382.6767272949219
 31
0.0
  0
LINE
  5
CE
330
22
100
AcDbEntity
  8
0
  6
Continuous
 62
     7
100
AcDbLine
 10
-386.8881225585938
 20
413.6767272949218
 30
0.0
 11
-386.8881225585938
 21
382.6767272949219
 31
0.0
  0
LINE
  5
CF
330
22
100
AcDbEntity
  8
0
  6
Continuous
 62
     7
100
AcDbLine
 10
-371.8881225585938
 20
413.6767272949218
 30
0.0
 11
-371.8881225585938
 21
382.6767272949219
 31
0.0
  0
LINE
  5
D0
330
22
100
AcDbEntity
  8
0
  6
Continuous
 62
     7
100
AcDbLine
 10
-366.8881225585938
 20
413.6767272949218
 30
0.0
 11
-366.8881225585938
 21
382.6767272949219
 31
0.0
  0
LINE
  5
D1
330
22
100
AcDbEntity
  8
0
  6
Continuous
 62
     7
100
AcDbLine
 10
-346.8881225585938
 20
413.6767272949218
 30
0.0
 11
-346.8881225585938
 21
382.6767272949219
 31
0.0
  0
LINE
  5
D2
330
22
100
AcDbEntity
  8
0
  6
Continuous
 62
     7
100
AcDbLine
 10
-351.8881225585938
 20
413.6767272949218
 30
0.0
 11
-351.8881225585938
 21
382.6767272949219
 31
0.0
  0
LINE
  5
D3
330
22
100
AcDbEntity
  8
0
  6
DASHED
 62
     7
100
AcDbLine
 10
-447.8881225585937
 20
504.6767272949218
 30
0.0
 11
-561.8881225585938
 21
504.6767272949218
 31
0.0
  0
LINE
  5
D4
330
22
100
AcDbEntity
  8
0
  6
Continuous
 62
     7
100
AcDbLine
 10
-524.8881225585939
 20
269.676727294922
 30
0.0
 11
-524.8881225585939
 21
300.6767272949219
 31
0.0
  0
LINE
  5
D5
330
22
100
AcDbEntity
  8
0
  6
Continuous
 62
     7
100
AcDbLine
 10
-524.8881225585939
 20
354.0015869140625
 30
0.0
 11
-524.8881225585939
 21
363.6767272949219
 31
0.0
  0
LINE
  5
D6
330
22
100
AcDbEntity
  8
0
  6
Continuous
 62
     7
100
AcDbLine
 10
-524.8881225585939
 20
311.6767272949219
 30
0.0
 11
-524.8881225585939
 21
343.0015869140625
 31
0.0
  0
LINE
  5
D7
330
22
100
AcDbEntity
  8
0
  6
Continuous
 62
     7
100
AcDbLine
 10
-524.8881225585939
 20
248.6767425537109
 30
0.0
 11
-524.8881225585939
 21
258.6767272949219
 31
0.0
  0
LINE
  5
D8
330
22
100
AcDbEntity
  8
0
  6
Continuous
 62
     7
100
AcDbLine
 10
-524.8881225585939
 20
392.3518676757813
 30
0.0
 11
-524.8881225585939
 21
382.6767272949219
 31
0.0
  0
LINE
  5
D9
330
22
100
AcDbEntity
  8
0
  6
DASHED
 62
     7
100
AcDbLine
 10
-564.2776489257812
 20
370.6767272949219
 30
0.0
 11
-445.3881225585938
 21
370.6767272949219
 31
0.0
  0
LINE
  5
DA
330
22
100
AcDbEntity
  8
0
  6
DASHED
 62
     7
100
AcDbLine
 10
-564.3775024414062
 20
375.6767272949219
 30
0.0
 11
-445.3881225585938
 21
375.6767272949219
 31
0.0
  0
LINE
  5
DB
330
22
100
AcDbEntity
  8
0
  6
DASHED
 62
     7
100
AcDbLine
 10
-447.8881225585937
 20
241.6767425537109
 30
0.0
 11
-561.8881225585938
 21
241.6767425537109
 31
0.0
  0
LINE
  5
DC
330
22
100
AcDbEntity
  8
0
  6
Continuous
 62
     7
100
AcDbLine
 10
-554.8881225585938
 20
290.6767272949219
 30
0.0
 11
-554.8881225585938
 21
321.6767272949219
 31
0.0
  0
LINE
  5
DD
330
22
100
AcDbEntity
  8
0
  6
Continuous
 62
     7
100
AcDbLine
 10
-549.8881225585939
 20
290.6767272949219
 30
0.0
 11
-549.8881225585939
 21
321.6767272949219
 31
0.0
  0
LINE
  5
DE
330
22
100
AcDbEntity
  8
0
  6
Continuous
 62
     7
100
AcDbLine
 10
-534.8881225585938
 20
290.6767272949219
 30
0.0
 11
-534.8881225585938
 21
321.6767272949219
 31
0.0
  0
LINE
  5
DF
330
22
100
AcDbEntity
  8
0
  6
Continuous
 62
     7
100
AcDbLine
 10
-529.8881225585938
 20
290.6767272949219
 30
0.0
 11
-529.8881225585938
 21
321.6767272949219
 31
0.0
  0
LINE
  5
E0
330
22
100
AcDbEntity
  8
0
  6
DASHED
 62
     7
100
AcDbLine
 10
-572.3881225585937
 20
366.1767272949219
 30
0.0
 11
-572.3881225585937
 21
252.1767425537109
 31
0.0
  0
LINE
  5
E1
330
22
100
AcDbEntity
  8
0
  6
Continuous
 62
     7
100
AcDbLine
 10
-524.8881225585939
 20
497.6767272949218
 30
0.0
 11
-524.8881225585939
 21
487.6767272949218
 31
0.0
  0
LINE
  5
E2
330
22
100
AcDbEntity
  8
0
  6
Continuous
 62
     7
100
AcDbLine
 10
-524.8881225585939
 20
476.6767272949218
 30
0.0
 11
-524.8881225585939
 21
445.6767272949218
 31
0.0
  0
LINE
  5
E3
330
22
100
AcDbEntity
  8
0
  6
Continuous
 62
     7
100
AcDbLine
 10
-426.8881225585937
 20
290.6767272949219
 30
0.0
 11
-426.8881225585937
 21
321.6767272949219
 31
0.0
  0
LINE
  5
E4
330
22
100
AcDbEntity
  8
0
  6
Continuous
 62
     7
100
AcDbLine
 10
-431.8881225585938
 20
290.6767272949219
 30
0.0
 11
-431.8881225585938
 21
321.6767272949219
 31
0.0
  0
LINE
  5
E5
330
22
100
AcDbEntity
  8
0
  6
Continuous
 62
     7
100
AcDbLine
 10
-411.8881225585938
 20
290.6767272949219
 30
0.0
 11
-411.8881225585938
 21
321.6767272949219
 31
0.0
  0
LINE
  5
E6
330
22
100
AcDbEntity
  8
0
  6
DASHED
 62
     7
100
AcDbLine
 10
-438.3881225585938
 20
368.6767272949219
 30
0.0
 11
-438.3881225585938
 21
249.5068664550781
 31
0.0
  0
LINE
  5
E7
330
22
100
AcDbEntity
  8
0
  6
Continuous
 62
     7
100
AcDbLine
 10
-406.8881225585938
 20
290.6767272949219
 30
0.0
 11
-406.8881225585938
 21
321.6767272949219
 31
0.0
  0
LINE
  5
E8
330
22
100
AcDbEntity
  8
0
  6
Continuous
 62
     7
100
AcDbLine
 10
-449.8881225585938
 20
290.6767272949219
 30
0.0
 11
-449.8881225585938
 21
321.6767272949219
 31
0.0
  0
LINE
  5
E9
330
22
100
AcDbEntity
  8
0
  6
DASHED
 62
     7
100
AcDbLine
 10
-443.3881225585937
 20
249.5068664550781
 30
0.0
 11
-443.3881225585937
 21
368.6767272949219
 31
0.0
  0
LINE
  5
EA
330
22
100
AcDbEntity
  8
0
  6
Continuous
 62
     7
100
AcDbLine
 10
-454.8881225585938
 20
290.6767272949219
 30
0.0
 11
-454.8881225585938
 21
321.6767272949219
 31
0.0
  0
LINE
  5
EB
330
22
100
AcDbEntity
  8
0
  6
Continuous
 62
     7
100
AcDbLine
 10
-459.8881225585937
 20
311.6767272949219
 30
0.0
 11
-459.8881225585937
 21
343.0015869140625
 31
0.0
  0
LINE
  5
EC
330
22
100
AcDbEntity
  8
0
  6
Continuous
 62
     7
100
AcDbLine
 10
-499.8881225585938
 20
311.6767272949219
 30
0.0
 11
-499.8881225585938
 21
343.0015869140625
 31
0.0
  0
LINE
  5
ED
330
22
100
AcDbEntity
  8
0
  6
Continuous
 62
     7
100
AcDbLine
 10
-504.8881225585938
 20
311.6767272949219
 30
0.0
 11
-504.8881225585938
 21
343.0015869140625
 31
0.0
  0
LINE
  5
EE
330
22
100
AcDbEntity
  8
0
  6
Continuous
 62
     7
100
AcDbLine
 10
-484.8881225585937
 20
311.6767272949219
 30
0.0
 11
-484.8881225585937
 21
343.0015869140625
 31
0.0
  0
LINE
  5
EF
330
22
100
AcDbEntity
  8
0
  6
Continuous
 62
     7
100
AcDbLine
 10
-479.8881225585938
 20
311.6767272949219
 30
0.0
 11
-479.8881225585938
 21
343.0015869140625
 31
0.0
  0
LINE
  5
F0
330
22
100
AcDbEntity
  8
0
  6
Continuous
 62
     7
100
AcDbLine
 10
-519.8881225585938
 20
311.6767272949219
 30
0.0
 11
-519.8881225585938
 21
343.0015869140625
 31
0.0
  0
LINE
  5
F1
330
22
100
AcDbEntity
  8
0
  6
Continuous
 62
     7
100
AcDbLine
 10
-509.8881225585937
 20
290.6767272949219
 30
0.0
 11
-509.8881225585937
 21
321.6767272949219
 31
0.0
  0
LINE
  5
F2
330
22
100
AcDbEntity
  8
0
  6
Continuous
 62
     7
100
AcDbLine
 10
-514.8881225585938
 20
290.6767272949219
 30
0.0
 11
-514.8881225585938
 21
321.6767272949219
 31
0.0
  0
LINE
  5
F3
330
22
100
AcDbEntity
  8
0
  6
Continuous
 62
     7
100
AcDbLine
 10
-474.8881225585938
 20
290.6767272949219
 30
0.0
 11
-474.8881225585938
 21
321.6767272949219
 31
0.0
  0
LINE
  5
F4
330
22
100
AcDbEntity
  8
0
  6
Continuous
 62
     7
100
AcDbLine
 10
-494.8881225585938
 20
290.6767272949219
 30
0.0
 11
-494.8881225585938
 21
321.6767272949219
 31
0.0
  0
LINE
  5
F5
330
22
100
AcDbEntity
  8
0
  6
Continuous
 62
     7
100
AcDbLine
 10
-489.8881225585937
 20
290.6767272949219
 30
0.0
 11
-489.8881225585937
 21
321.6767272949219
 31
0.0
  0
LINE
  5
F6
330
22
100
AcDbEntity
  8
0
  6
Continuous
 62
     7
100
AcDbLine
 10
-469.8881225585938
 20
290.6767272949219
 30
0.0
 11
-469.8881225585938
 21
321.6767272949219
 31
0.0
  0
LINE
  5
F7
330
22
100
AcDbEntity
  8
0
  6
Continuous
 62
     7
100
AcDbLine
 10
-464.8881225585937
 20
311.6767272949219
 30
0.0
 11
-464.8881225585937
 21
343.0015869140625
 31
0.0
  0
LINE
  5
F8
330
22
100
AcDbEntity
  8
0
  6
Continuous
 62
     7
100
AcDbLine
 10
-564.8881225585937
 20
311.6767272949219
 30
0.0
 11
-564.8881225585937
 21
343.0015869140625
 31
0.0
  0
LINE
  5
F9
330
22
100
AcDbEntity
  8
0
  6
Continuous
 62
     7
100
AcDbLine
 10
-559.8881225585938
 20
311.6767272949219
 30
0.0
 11
-559.8881225585938
 21
343.0015869140625
 31
0.0
  0
LINE
  5
FA
330
22
100
AcDbEntity
  8
0
  6
Continuous
 62
     7
100
AcDbLine
 10
-539.8881225585938
 20
311.6767272949219
 30
0.0
 11
-539.8881225585938
 21
343.0015869140625
 31
0.0
  0
LINE
  5
FB
330
22
100
AcDbEntity
  8
0
  6
Continuous
 62
     7
100
AcDbLine
 10
-544.8881225585938
 20
311.6767272949219
 30
0.0
 11
-544.8881225585938
 21
343.0015869140625
 31
0.0
  0
LINE
  5
FC
330
22
100
AcDbEntity
  8
0
  6
Continuous
 62
     7
100
AcDbLine
 10
-504.8881225585938
 20
497.6767272949218
 30
0.0
 11
-504.8881225585938
 21
487.6767272949218
 31
0.0
  0
LINE
  5
FD
330
22
100
AcDbEntity
  8
0
  6
Continuous
 62
     7
100
AcDbLine
 10
-519.8881225585938
 20
497.6767272949218
 30
0.0
 11
-519.8881225585938
 21
487.6767272949218
 31
0.0
  0
LINE
  5
FE
330
22
100
AcDbEntity
  8
0
  6
Continuous
 62
     7
100
AcDbLine
 10
-479.8881225585938
 20
497.6767272949218
 30
0.0
 11
-479.8881225585938
 21
487.6767272949218
 31
0.0
  0
LINE
  5
FF
330
22
100
AcDbEntity
  8
0
  6
Continuous
 62
     7
100
AcDbLine
 10
-469.8881225585938
 20
497.6767272949218
 30
0.0
 11
-469.8881225585938
 21
466.6767272949218
 31
0.0
  0
LINE
  5
100
330
22
100
AcDbEntity
  8
0
  6
Continuous
 62
     7
100
AcDbLine
 10
-514.8881225585938
 20
497.6767272949218
 30
0.0
 11
-514.8881225585938
 21
466.6767272949218
 31
0.0
  0
LINE
  5
101
330
22
100
AcDbEntity
  8
0
  6
Continuous
 62
     7
100
AcDbLine
 10
-509.8881225585937
 20
497.6767272949218
 30
0.0
 11
-509.8881225585937
 21
466.6767272949218
 31
0.0
  0
LINE
  5
102
330
22
100
AcDbEntity
  8
0
  6
Continuous
 62
     7
100
AcDbLine
 10
-489.8881225585937
 20
497.6767272949218
 30
0.0
 11
-489.8881225585937
 21
466.6767272949218
 31
0.0
  0
LINE
  5
103
330
22
100
AcDbEntity
  8
0
  6
Continuous
 62
     7
100
AcDbLine
 10
-494.8881225585938
 20
497.6767272949218
 30
0.0
 11
-494.8881225585938
 21
466.6767272949218
 31
0.0
  0
LINE
  5
104
330
22
100
AcDbEntity
  8
0
  6
Continuous
 62
     7
100
AcDbLine
 10
-474.8881225585938
 20
497.6767272949218
 30
0.0
 11
-474.8881225585938
 21
466.6767272949218
 31
0.0
  0
LINE
  5
105
330
22
100
AcDbEntity
  8
0
  6
Continuous
 62
     7
100
AcDbLine
 10
-464.8881225585937
 20
497.6767272949218
 30
0.0
 11
-464.8881225585937
 21
487.6767272949218
 31
0.0
  0
LINE
  5
106
330
22
100
AcDbEntity
  8
0
  6
Continuous
 62
     7
100
AcDbLine
 10
-564.8881225585937
 20
492.6767272949218
 30
0.0
 11
-564.8881225585937
 21
487.6767272949218
 31
0.0
  0
LINE
  5
107
330
22
100
AcDbEntity
  8
0
  6
Continuous
 62
     7
100
AcDbLine
 10
-544.8881225585938
 20
497.6767272949218
 30
0.0
 11
-544.8881225585938
 21
487.6767272949218
 31
0.0
  0
LINE
  5
108
330
22
100
AcDbEntity
  8
0
  6
Continuous
 62
     7
100
AcDbLine
 10
-539.8881225585938
 20
497.6767272949218
 30
0.0
 11
-539.8881225585938
 21
487.6767272949218
 31
0.0
  0
LINE
  5
109
330
22
100
AcDbEntity
  8
0
  6
Continuous
 62
     7
100
AcDbLine
 10
-559.8881225585938
 20
492.6767272949218
 30
0.0
 11
-559.8881225585938
 21
487.6767272949218
 31
0.0
  0
LINE
  5
10A
330
22
100
AcDbEntity
  8
0
  6
Continuous
 62
     7
100
AcDbLine
 10
-534.8881225585938
 20
497.6767272949218
 30
0.0
 11
-534.8881225585938
 21
466.6767272949218
 31
0.0
  0
LINE
  5
10B
330
22
100
AcDbEntity
  8
0
  6
Continuous
 62
     7
100
AcDbLine
 10
-529.8881225585938
 20
497.6767272949218
 30
0.0
 11
-529.8881225585938
 21
466.6767272949218
 31
0.0
  0
LINE
  5
10C
330
22
100
AcDbEntity
  8
0
  6
Continuous
 62
     7
100
AcDbLine
 10
-554.8881225585938
 20
497.6767272949218
 30
0.0
 11
-554.8881225585938
 21
466.6767272949218
 31
0.0
  0
LINE
  5
10D
330
22
100
AcDbEntity
  8
0
  6
Continuous
 62
     7
100
AcDbLine
 10
-549.8881225585939
 20
497.6767272949218
 30
0.0
 11
-549.8881225585939
 21
466.6767272949218
 31
0.0
  0
LINE
  5
10E
330
22
100
AcDbEntity
  8
0
  6
Continuous
 62
     7
100
AcDbLine
 10
-421.8881225585938
 20
311.6767272949219
 30
0.0
 11
-421.8881225585938
 21
342.6767272949219
 31
0.0
  0
LINE
  5
10F
330
22
100
AcDbEntity
  8
0
  6
Continuous
 62
     7
100
AcDbLine
 10
-416.8881225585938
 20
311.6767272949219
 30
0.0
 11
-416.8881225585938
 21
342.6767272949219
 31
0.0
  0
LINE
  5
110
330
22
100
AcDbEntity
  8
0
  6
Continuous
 62
     7
100
AcDbLine
 10
-331.8881225585938
 20
290.6767272949219
 30
0.0
 11
-331.8881225585938
 21
321.6767272949219
 31
0.0
  0
LINE
  5
111
330
22
100
AcDbEntity
  8
0
  6
Continuous
 62
     7
100
AcDbLine
 10
-376.8881225585938
 20
311.6767272949219
 30
0.0
 11
-376.8881225585938
 21
342.6767272949219
 31
0.0
  0
LINE
  5
112
330
22
100
AcDbEntity
  8
0
  6
Continuous
 62
     7
100
AcDbLine
 10
-381.8881225585938
 20
311.6767272949219
 30
0.0
 11
-381.8881225585938
 21
342.6767272949219
 31
0.0
  0
LINE
  5
113
330
22
100
AcDbEntity
  8
0
  6
Continuous
 62
     7
100
AcDbLine
 10
-356.8881225585938
 20
311.6767272949219
 30
0.0
 11
-356.8881225585938
 21
342.6767272949219
 31
0.0
  0
LINE
  5
114
330
22
100
AcDbEntity
  8
0
  6
Continuous
 62
     7
100
AcDbLine
 10
-361.8881225585938
 20
311.6767272949219
 30
0.0
 11
-361.8881225585938
 21
342.6767272949219
 31
0.0
  0
LINE
  5
115
330
22
100
AcDbEntity
  8
0
  6
Continuous
 62
     7
100
AcDbLine
 10
-341.8881225585938
 20
311.6767272949219
 30
0.0
 11
-341.8881225585938
 21
342.6767272949219
 31
0.0
  0
LINE
  5
116
330
22
100
AcDbEntity
  8
0
  6
Continuous
 62
     7
100
AcDbLine
 10
-346.8881225585938
 20
290.6767272949219
 30
0.0
 11
-346.8881225585938
 21
321.6767272949219
 31
0.0
  0
LINE
  5
117
330
22
100
AcDbEntity
  8
0
  6
Continuous
 62
     7
100
AcDbLine
 10
-366.8881225585938
 20
290.6767272949219
 30
0.0
 11
-366.8881225585938
 21
321.6767272949219
 31
0.0
  0
LINE
  5
118
330
22
100
AcDbEntity
  8
0
  6
Continuous
 62
     7
100
AcDbLine
 10
-351.8881225585938
 20
290.6767272949219
 30
0.0
 11
-351.8881225585938
 21
321.6767272949219
 31
0.0
  0
LINE
  5
119
330
22
100
AcDbEntity
  8
0
  6
Continuous
 62
     7
100
AcDbLine
 10
-391.8881225585938
 20
290.6767272949219
 30
0.0
 11
-391.8881225585938
 21
321.6767272949219
 31
0.0
  0
LINE
  5
11A
330
22
100
AcDbEntity
  8
0
  6
Continuous
 62
     7
100
AcDbLine
 10
-386.8881225585938
 20
290.6767272949219
 30
0.0
 11
-386.8881225585938
 21
321.6767272949219
 31
0.0
  0
LINE
  5
11B
330
22
100
AcDbEntity
  8
0
  6
Continuous
 62
     7
100
AcDbLine
 10
-371.8881225585938
 20
290.6767272949219
 30
0.0
 11
-371.8881225585938
 21
321.6767272949219
 31
0.0
  0
LINE
  5
11C
330
22
100
AcDbEntity
  8
0
  6
Continuous
 62
     7
100
AcDbLine
 10
-336.8881225585938
 20
311.6767272949219
 30
0.0
 11
-336.8881225585938
 21
342.6767272949219
 31
0.0
  0
LINE
  5
11D
330
22
100
AcDbEntity
  8
0
  6
Continuous
 62
     7
100
AcDbLine
 10
-416.8881225585938
 20
497.6767272949218
 30
0.0
 11
-416.8881225585938
 21
487.6767272949218
 31
0.0
  0
LINE
  5
11E
330
22
100
AcDbEntity
  8
0
  6
Continuous
 62
     7
100
AcDbLine
 10
-421.8881225585938
 20
497.6767272949218
 30
0.0
 11
-421.8881225585938
 21
487.6767272949218
 31
0.0
  0
LINE
  5
11F
330
22
100
AcDbEntity
  8
0
  6
Continuous
 62
     7
100
AcDbLine
 10
-411.8881225585938
 20
497.6767272949218
 30
0.0
 11
-411.8881225585938
 21
466.6767272949218
 31
0.0
  0
LINE
  5
120
330
22
100
AcDbEntity
  8
0
  6
Continuous
 62
     7
100
AcDbLine
 10
-426.8881225585937
 20
497.6767272949218
 30
0.0
 11
-426.8881225585937
 21
466.6767272949218
 31
0.0
  0
LINE
  5
121
330
22
100
AcDbEntity
  8
0
  6
Continuous
 62
     7
100
AcDbLine
 10
-431.8881225585938
 20
497.6767272949218
 30
0.0
 11
-431.8881225585938
 21
466.6767272949218
 31
0.0
  0
LINE
  5
122
330
22
100
AcDbEntity
  8
0
  6
Continuous
 62
     7
100
AcDbLine
 10
-406.8881225585938
 20
497.6767272949218
 30
0.0
 11
-406.8881225585938
 21
466.6767272949218
 31
0.0
  0
LINE
  5
123
330
22
100
AcDbEntity
  8
0
  6
Continuous
 62
     7
100
AcDbLine
 10
-449.8881225585938
 20
497.6767272949218
 30
0.0
 11
-449.8881225585938
 21
466.6767272949218
 31
0.0
  0
LINE
  5
124
330
22
100
AcDbEntity
  8
0
  6
Continuous
 62
     7
100
AcDbLine
 10
-454.8881225585938
 20
497.6767272949218
 30
0.0
 11
-454.8881225585938
 21
466.6767272949218
 31
0.0
  0
LINE
  5
125
330
22
100
AcDbEntity
  8
0
  6
Continuous
 62
     7
100
AcDbLine
 10
-459.8881225585937
 20
497.6767272949218
 30
0.0
 11
-459.8881225585937
 21
487.6767272949218
 31
0.0
  0
LINE
  5
126
330
22
100
AcDbEntity
  8
0
  6
Continuous
 62
     7
100
AcDbLine
 10
-484.8881225585937
 20
497.6767272949218
 30
0.0
 11
-484.8881225585937
 21
487.6767272949218
 31
0.0
  0
LINE
  5
127
330
22
100
AcDbEntity
  8
0
  6
Continuous
 62
     7
100
AcDbLine
 10
-499.8881225585938
 20
497.6767272949218
 30
0.0
 11
-499.8881225585938
 21
487.6767272949218
 31
0.0
  0
LINE
  5
128
330
22
100
AcDbEntity
  8
0
  6
Continuous
 62
     7
100
AcDbLine
 10
-331.8881225585938
 20
497.6767272949218
 30
0.0
 11
-331.8881225585938
 21
466.6767272949218
 31
0.0
  0
LINE
  5
129
330
22
100
AcDbEntity
  8
0
  6
Continuous
 62
     7
100
AcDbLine
 10
-316.8881225585938
 20
492.6767272949218
 30
0.0
 11
-316.8881225585938
 21
487.6767272949218
 31
0.0
  0
LINE
  5
12A
330
22
100
AcDbEntity
  8
0
  6
Continuous
 62
     7
100
AcDbLine
 10
-341.8881225585938
 20
497.6767272949218
 30
0.0
 11
-341.8881225585938
 21
487.6767272949218
 31
0.0
  0
LINE
  5
12B
330
22
100
AcDbEntity
  8
0
  6
Continuous
 62
     7
100
AcDbLine
 10
-376.8881225585938
 20
497.6767272949218
 30
0.0
 11
-376.8881225585938
 21
487.6767272949218
 31
0.0
  0
LINE
  5
12C
330
22
100
AcDbEntity
  8
0
  6
Continuous
 62
     7
100
AcDbLine
 10
-321.8881225585938
 20
492.6767272949218
 30
0.0
 11
-321.8881225585938
 21
487.6767272949218
 31
0.0
  0
LINE
  5
12D
330
22
100
AcDbEntity
  8
0
  6
Continuous
 62
     7
100
AcDbLine
 10
-326.8881225585938
 20
497.6767272949218
 30
0.0
 11
-326.8881225585938
 21
466.6767272949218
 31
0.0
  0
LINE
  5
12E
330
22
100
AcDbEntity
  8
0
  6
Continuous
 62
     7
100
AcDbLine
 10
-381.8881225585938
 20
497.6767272949218
 30
0.0
 11
-381.8881225585938
 21
487.6767272949218
 31
0.0
  0
LINE
  5
12F
330
22
100
AcDbEntity
  8
0
  6
Continuous
 62
     7
100
AcDbLine
 10
-356.8881225585938
 20
497.6767272949218
 30
0.0
 11
-356.8881225585938
 21
487.6767272949218
 31
0.0
  0
LINE
  5
130
330
22
100
AcDbEntity
  8
0
  6
Continuous
 62
     7
100
AcDbLine
 10
-361.8881225585938
 20
497.6767272949218
 30
0.0
 11
-361.8881225585938
 21
487.6767272949218
 31
0.0
  0
LINE
  5
131
330
22
100
AcDbEntity
  8
0
  6
Continuous
 62
     7
100
AcDbLine
 10
-386.8881225585938
 20
497.6767272949218
 30
0.0
 11
-386.8881225585938
 21
466.6767272949218
 31
0.0
  0
LINE
  5
132
330
22
100
AcDbEntity
  8
0
  6
Continuous
 62
     7
100
AcDbLine
 10
-391.8881225585938
 20
497.6767272949218
 30
0.0
 11
-391.8881225585938
 21
466.6767272949218
 31
0.0
  0
LINE
  5
133
330
22
100
AcDbEntity
  8
0
  6
Continuous
 62
     7
100
AcDbLine
 10
-346.8881225585938
 20
497.6767272949218
 30
0.0
 11
-346.8881225585938
 21
466.6767272949218
 31
0.0
  0
LINE
  5
134
330
22
100
AcDbEntity
  8
0
  6
Continuous
 62
     7
100
AcDbLine
 10
-371.8881225585938
 20
497.6767272949218
 30
0.0
 11
-371.8881225585938
 21
466.6767272949218
 31
0.0
  0
LINE
  5
135
330
22
100
AcDbEntity
  8
0
  6
Continuous
 62
     7
100
AcDbLine
 10
-366.8881225585938
 20
497.6767272949218
 30
0.0
 11
-366.8881225585938
 21
466.6767272949218
 31
0.0
  0
LINE
  5
136
330
22
100
AcDbEntity
  8
0
  6
Continuous
 62
     7
100
AcDbLine
 10
-351.8881225585938
 20
497.6767272949218
 30
0.0
 11
-351.8881225585938
 21
466.6767272949218
 31
0.0
  0
LINE
  5
137
330
22
100
AcDbEntity
  8
0
  6
Continuous
 62
     7
100
AcDbLine
 10
-336.8881225585938
 20
497.6767272949218
 30
0.0
 11
-336.8881225585938
 21
487.6767272949218
 31
0.0
  0
LINE
  5
138
330
22
100
AcDbEntity
  8
0
  6
Continuous
 62
     7
100
AcDbLine
 10
-316.8881225585938
 20
311.6767272949219
 30
0.0
 11
-316.8881225585938
 21
342.6767272949219
 31
0.0
  0
LINE
  5
139
330
22
100
AcDbEntity
  8
0
  6
Continuous
 62
     7
100
AcDbLine
 10
-326.8881225585938
 20
290.6767272949219
 30
0.0
 11
-326.8881225585938
 21
321.6767272949219
 31
0.0
  0
LINE
  5
13A
330
22
100
AcDbEntity
  8
0
  6
DASHED
 62
     7
100
AcDbLine
 10
-309.3881225585938
 20
252.1767425537109
 30
0.0
 11
-309.3881225585938
 21
366.1767272949219
 31
0.0
  0
LINE
  5
13B
330
22
100
AcDbEntity
  8
0
  6
Continuous
 62
     7
100
AcDbLine
 10
-321.8881225585938
 20
311.6767272949219
 30
0.0
 11
-321.8881225585938
 21
342.6767272949219
 31
0.0
  0
LINE
  5
13C
330
22
100
AcDbEntity
  8
0
  6
Continuous
 62
     7
100
AcDbLine
 10
-529.8881225585938
 20
248.6767425537109
 30
0.0
 11
-529.8881225585938
 21
279.6767272949219
 31
0.0
  0
LINE
  5
13D
330
22
100
AcDbEntity
  8
0
  6
DASHED
 62
     7
100
AcDbLine
 10
-568.8881225585937
 20
250.1767425537109
 30
0.0
 11
-570.3881225585937
 21
250.1767425537109
 31
0.0
  0
LINE
  5
13E
330
22
100
AcDbEntity
  8
0
  6
DASHED
 62
     7
100
AcDbLine
 10
-563.8881225585937
 20
245.1767425537109
 30
0.0
 11
-563.8881225585937
 21
243.6767425537109
 31
0.0
  0
LINE
  5
13F
330
22
100
AcDbEntity
  8
0
  6
CENTER
 62
     7
100
AcDbLine
 10
-574.70849609375
 20
245.1767425537109
 30
0.0
 11
-555.2646484374999
 21
245.1767425537109
 31
0.0
  0
LINE
  5
140
330
22
100
AcDbEntity
  8
0
  6
Continuous
 62
     7
100
AcDbLine
 10
-534.8881225585938
 20
248.6767425537109
 30
0.0
 11
-534.8881225585938
 21
279.6767272949219
 31
0.0
  0
LINE
  5
141
330
22
100
AcDbEntity
  8
0
  6
Continuous
 62
     7
100
AcDbLine
 10
-571.6492919921875
 20
247.3944091796875
 30
0.0
 11
-571.3775634765625
 21
247.6661682128906
 31
0.0
  0
LINE
  5
142
330
22
100
AcDbEntity
  8
0
  6
Continuous
 62
     7
100
AcDbLine
 10
-566.6704101562499
 20
242.4155426025391
 30
0.0
 11
-568.8881225585937
 21
244.0954895019531
 31
0.0
  0
LINE
  5
143
330
22
100
AcDbEntity
  8
0
  6
Continuous
 62
     7
100
AcDbLine
 10
-566.1268920898437
 20
242.9590606689453
 30
0.0
 11
-567.8068847656249
 21
245.1767425537109
 31
0.0
  0
LINE
  5
144
330
22
100
AcDbEntity
  8
0
  6
Continuous
 62
     7
100
AcDbLine
 10
-566.3839111328124
 20
247.6809692382814
 30
0.0
 11
-566.1119384765624
 21
247.4089965820313
 31
0.0
  0
LINE
  5
145
330
22
100
AcDbEntity
  8
0
  6
Continuous
 62
     7
100
AcDbLine
 10
-566.6558837890625
 20
247.9529266357422
 30
0.0
 11
-568.8881225585937
 21
246.2579803466797
 31
0.0
  0
LINE
  5
146
330
22
100
AcDbEntity
  8
0
  6
Continuous
 62
     7
100
AcDbLine
 10
-571.120361328125
 20
242.4005432128906
 30
0.0
 11
-568.8881225585937
 21
244.0954895019531
 31
0.0
  0
LINE
  5
147
330
22
100
AcDbEntity
  8
0
  6
Continuous
 62
     7
100
AcDbLine
 10
-571.1057739257812
 20
247.9379425048828
 30
0.0
 11
-571.3775634765625
 21
247.6661682128906
 31
0.0
  0
LINE
  5
148
330
22
100
AcDbEntity
  8
0
  6
Continuous
 62
     7
100
AcDbLine
 10
-571.6643066406249
 20
242.9444732666016
 30
0.0
 11
-569.9693603515624
 21
245.1767425537109
 31
0.0
  0
LINE
  5
149
330
22
100
AcDbEntity
  8
0
  6
Continuous
 62
     7
100
AcDbLine
 10
-566.1268920898437
 20
242.9590606689453
 30
0.0
 11
-566.3986816406249
 21
242.6873016357422
 31
0.0
  0
LINE
  5
14A
330
22
100
AcDbEntity
  8
0
  6
Continuous
 62
     7
100
AcDbLine
 10
-571.1057739257812
 20
247.9379425048828
 30
0.0
 11
-568.8881225585937
 21
246.2579803466797
 31
0.0
  0
LINE
  5
14B
330
22
100
AcDbEntity
  8
0
  6
Continuous
 62
     7
100
AcDbLine
 10
-566.3839111328124
 20
247.6809692382814
 30
0.0
 11
-566.6558837890625
 21
247.9529266357422
 31
0.0
  0
LINE
  5
14C
330
22
100
AcDbEntity
  8
0
  6
Continuous
 62
     7
100
AcDbLine
 10
-566.6558837890625
 20
247.9529266357422
 30
0.0
 11
-568.8881225585937
 21
246.2579803466797
 31
0.0
  0
LINE
  5
14D
330
22
100
AcDbEntity
  8
0
  6
Continuous
 62
     7
100
AcDbLine
 10
-539.8881225585938
 20
269.676727294922
 30
0.0
 11
-539.8881225585938
 21
300.6767272949219
 31
0.0
  0
LINE
  5
14E
330
22
100
AcDbEntity
  8
0
  6
Continuous
 62
     7
100
AcDbLine
 10
-571.6492919921875
 20
247.3944091796875
 30
0.0
 11
-569.9693603515624
 21
245.1767425537109
 31
0.0
  0
LINE
  5
14F
330
22
100
AcDbEntity
  8
0
  6
Continuous
 62
     7
100
AcDbLine
 10
-571.6492919921875
 20
247.3944091796875
 30
0.0
 11
-571.3775634765625
 21
247.6661682128906
 31
0.0
  0
LINE
  5
150
330
22
100
AcDbEntity
  8
0
  6
Continuous
 62
     7
100
AcDbLine
 10
-571.1057739257812
 20
247.9379425048828
 30
0.0
 11
-571.3775634765625
 21
247.6661682128906
 31
0.0
  0
LINE
  5
151
330
22
100
AcDbEntity
  8
0
  6
Continuous
 62
     7
100
AcDbLine
 10
-549.8881225585939
 20
248.6767425537109
 30
0.0
 11
-549.8881225585939
 21
279.6767272949219
 31
0.0
  0
LINE
  5
152
330
22
100
AcDbEntity
  8
0
  6
Continuous
 62
     7
100
AcDbLine
 10
-554.8881225585938
 20
248.6767425537109
 30
0.0
 11
-554.8881225585938
 21
279.6767272949219
 31
0.0
  0
LINE
  5
153
330
22
100
AcDbEntity
  8
0
  6
Continuous
 62
     7
100
AcDbLine
 10
-559.8881225585938
 20
269.676727294922
 30
0.0
 11
-559.8881225585938
 21
300.6767272949219
 31
0.0
  0
LINE
  5
154
330
22
100
AcDbEntity
  8
0
  6
Continuous
 62
     7
100
AcDbLine
 10
-564.8881225585937
 20
269.676727294922
 30
0.0
 11
-564.8881225585937
 21
300.6767272949219
 31
0.0
  0
LINE
  5
155
330
22
100
AcDbEntity
  8
0
  6
Continuous
 62
     7
100
AcDbLine
 10
-566.1268920898437
 20
242.9590606689453
 30
0.0
 11
-567.8068847656249
 21
245.1767425537109
 31
0.0
  0
LINE
  5
156
330
22
100
AcDbEntity
  8
0
  6
Continuous
 62
     7
100
AcDbLine
 10
-566.1268920898437
 20
242.9590606689453
 30
0.0
 11
-566.3986816406249
 21
242.6873016357422
 31
0.0
  0
LINE
  5
157
330
22
100
AcDbEntity
  8
0
  6
Continuous
 62
     7
100
AcDbLine
 10
-566.6704101562499
 20
242.4155426025391
 30
0.0
 11
-566.3986816406249
 21
242.6873016357422
 31
0.0
  0
LINE
  5
158
330
22
100
AcDbEntity
  8
0
  6
Continuous
 62
     7
100
AcDbLine
 10
-571.3923339843749
 20
242.6725158691406
 30
0.0
 11
-571.120361328125
 21
242.4005432128906
 31
0.0
  0
LINE
  5
159
330
22
100
AcDbEntity
  8
0
  6
Continuous
 62
     7
100
AcDbLine
 10
-571.3923339843749
 20
242.6725158691406
 30
0.0
 11
-571.6643066406249
 21
242.9444732666016
 31
0.0
  0
LINE
  5
15A
330
22
100
AcDbEntity
  8
0
  6
Continuous
 62
     7
100
AcDbLine
 10
-571.3923339843749
 20
242.6725158691406
 30
0.0
 11
-571.6643066406249
 21
242.9444732666016
 31
0.0
  0
LINE
  5
15B
330
22
100
AcDbEntity
  8
0
  6
Continuous
 62
     7
100
AcDbLine
 10
-571.3923339843749
 20
242.6725158691406
 30
0.0
 11
-571.120361328125
 21
242.4005432128906
 31
0.0
  0
LINE
  5
15C
330
22
100
AcDbEntity
  8
0
  6
Continuous
 62
     7
100
AcDbLine
 10
-571.6643066406249
 20
242.9444732666016
 30
0.0
 11
-569.9693603515624
 21
245.1767425537109
 31
0.0
  0
LINE
  5
15D
330
22
100
AcDbEntity
  8
0
  6
Continuous
 62
     7
100
AcDbLine
 10
-571.6492919921875
 20
247.3944091796875
 30
0.0
 11
-569.9693603515624
 21
245.1767425537109
 31
0.0
  0
LINE
  5
15E
330
22
100
AcDbEntity
  8
0
  6
Continuous
 62
     7
100
AcDbLine
 10
-566.6704101562499
 20
242.4155426025391
 30
0.0
 11
-568.8881225585937
 21
244.0954895019531
 31
0.0
  0
LINE
  5
15F
330
22
100
AcDbEntity
  8
0
  6
Continuous
 62
     7
100
AcDbLine
 10
-571.120361328125
 20
242.4005432128906
 30
0.0
 11
-568.8881225585937
 21
244.0954895019531
 31
0.0
  0
LINE
  5
160
330
22
100
AcDbEntity
  8
0
  6
Continuous
 62
     7
100
AcDbLine
 10
-566.6704101562499
 20
242.4155426025391
 30
0.0
 11
-566.3986816406249
 21
242.6873016357422
 31
0.0
  0
LINE
  5
161
330
22
100
AcDbEntity
  8
0
  6
Continuous
 62
     7
100
AcDbLine
 10
-566.1119384765624
 20
247.4089965820313
 30
0.0
 11
-567.8068847656249
 21
245.1767425537109
 31
0.0
  0
LINE
  5
162
330
22
100
AcDbEntity
  8
0
  6
Continuous
 62
     7
100
AcDbLine
 10
-566.3839111328124
 20
247.6809692382814
 30
0.0
 11
-566.1119384765624
 21
247.4089965820313
 31
0.0
  0
LINE
  5
163
330
22
100
AcDbEntity
  8
0
  6
Continuous
 62
     7
100
AcDbLine
 10
-566.1119384765624
 20
247.4089965820313
 30
0.0
 11
-567.8068847656249
 21
245.1767425537109
 31
0.0
  0
LINE
  5
164
330
22
100
AcDbEntity
  8
0
  6
Continuous
 62
     7
100
AcDbLine
 10
-566.3839111328124
 20
247.6809692382814
 30
0.0
 11
-566.6558837890625
 21
247.9529266357422
 31
0.0
  0
LINE
  5
165
330
22
100
AcDbEntity
  8
0
  6
Continuous
 62
     7
100
AcDbLine
 10
-571.1057739257812
 20
247.9379425048828
 30
0.0
 11
-568.8881225585937
 21
246.2579803466797
 31
0.0
  0
LINE
  5
166
330
22
100
AcDbEntity
  8
0
  6
Continuous
 62
     7
100
AcDbLine
 10
-539.8881225585938
 20
392.3518676757813
 30
0.0
 11
-539.8881225585938
 21
382.6767272949219
 31
0.0
  0
LINE
  5
167
330
22
100
AcDbEntity
  8
0
  6
Continuous
 62
     7
100
AcDbLine
 10
-564.8881225585937
 20
392.3518676757813
 30
0.0
 11
-564.8881225585937
 21
382.6767272949219
 31
0.0
  0
LINE
  5
168
330
22
100
AcDbEntity
  8
0
  6
Continuous
 62
     7
100
AcDbLine
 10
-559.8881225585938
 20
392.3518676757813
 30
0.0
 11
-559.8881225585938
 21
382.6767272949219
 31
0.0
  0
LINE
  5
169
330
22
100
AcDbEntity
  8
0
  6
Continuous
 62
     7
100
AcDbLine
 10
-544.8881225585938
 20
392.3518676757813
 30
0.0
 11
-544.8881225585938
 21
382.6767272949219
 31
0.0
  0
LINE
  5
16A
330
22
100
AcDbEntity
  8
0
  6
CENTER
 62
     7
100
AcDbLine
 10
-568.8881225585937
 20
239.4626770019531
 30
0.0
 11
-568.8881225585937
 21
250.8397521972656
 31
0.0
  0
LINE
  5
16B
330
22
100
AcDbEntity
  8
0
  6
Continuous
 62
     7
100
AcDbLine
 10
-539.8881225585938
 20
248.6767425537109
 30
0.0
 11
-539.8881225585938
 21
258.6767272949219
 31
0.0
  0
LINE
  5
16C
330
22
100
AcDbEntity
  8
0
  6
Continuous
 62
     7
100
AcDbLine
 10
-544.8881225585938
 20
248.6767425537109
 30
0.0
 11
-544.8881225585938
 21
258.6767272949219
 31
0.0
  0
LINE
  5
16D
330
22
100
AcDbEntity
  8
0
  6
Continuous
 62
     7
100
AcDbLine
 10
-544.8881225585938
 20
269.676727294922
 30
0.0
 11
-544.8881225585938
 21
300.6767272949219
 31
0.0
  0
LINE
  5
16E
330
22
100
AcDbEntity
  8
0
  6
Continuous
 62
     7
100
AcDbLine
 10
-559.8881225585938
 20
253.6767425537109
 30
0.0
 11
-559.8881225585938
 21
258.6767272949219
 31
0.0
  0
LINE
  5
16F
330
22
100
AcDbEntity
  8
0
  6
Continuous
 62
     7
100
AcDbLine
 10
-564.8881225585937
 20
253.6767425537109
 30
0.0
 11
-564.8881225585937
 21
258.6767272949219
 31
0.0
  0
LINE
  5
170
330
22
100
AcDbEntity
  8
0
  6
Continuous
 62
     7
100
AcDbLine
 10
-570.825439453125
 20
375.9634704589844
 30
0.0
 11
-568.6077880859374
 21
374.2835083007813
 31
0.0
  0
LINE
  5
171
330
22
100
AcDbEntity
  8
0
  6
Continuous
 62
     7
100
AcDbLine
 10
-571.3689575195312
 20
375.4199523925781
 30
0.0
 11
-569.6890258789062
 21
373.2022705078125
 31
0.0
  0
LINE
  5
172
330
22
100
AcDbEntity
  8
0
  6
Continuous
 62
     7
100
AcDbLine
 10
-571.3689575195312
 20
375.4199523925781
 30
0.0
 11
-571.0972290039062
 21
375.6917114257813
 31
0.0
  0
LINE
  5
173
330
22
100
AcDbEntity
  8
0
  6
Continuous
 62
     7
100
AcDbLine
 10
-570.825439453125
 20
375.9634704589844
 30
0.0
 11
-571.0972290039062
 21
375.6917114257813
 31
0.0
  0
LINE
  5
174
330
22
100
AcDbEntity
  8
0
  6
Continuous
 62
     7
100
AcDbLine
 10
-571.3689575195312
 20
375.4199523925781
 30
0.0
 11
-571.0972290039062
 21
375.6917114257813
 31
0.0
  0
LINE
  5
175
330
22
100
AcDbEntity
  8
0
  6
Continuous
 62
     7
100
AcDbLine
 10
-566.1035766601562
 20
375.7064819335938
 30
0.0
 11
-565.8316040039062
 21
375.4345397949219
 31
0.0
  0
LINE
  5
176
330
22
100
AcDbEntity
  8
0
  6
Continuous
 62
     7
100
AcDbLine
 10
-566.3755493164062
 20
375.9784545898438
 30
0.0
 11
-568.6077880859374
 21
374.2835083007813
 31
0.0
  0
LINE
  5
177
330
22
100
AcDbEntity
  8
0
  6
CENTER
 62
     7
100
AcDbLine
 10
-568.6077880859374
 20
367.3563537597656
 30
0.0
 11
-568.6077880859374
 21
379.5271911621094
 31
0.0
  0
LINE
  5
178
330
22
100
AcDbEntity
  8
0
  6
Continuous
 62
     7
100
AcDbLine
 10
-570.825439453125
 20
375.9634704589844
 30
0.0
 11
-571.0972290039062
 21
375.6917114257813
 31
0.0
  0
LINE
  5
179
330
22
100
AcDbEntity
  8
0
  6
Continuous
 62
     7
100
AcDbLine
 10
-570.825439453125
 20
375.9634704589844
 30
0.0
 11
-568.6077880859374
 21
374.2835083007813
 31
0.0
  0
LINE
  5
17A
330
22
100
AcDbEntity
  8
0
  6
Continuous
 62
     7
100
AcDbLine
 10
-566.1035766601562
 20
375.7064819335938
 30
0.0
 11
-566.3755493164062
 21
375.9784545898438
 31
0.0
  0
LINE
  5
17B
330
22
100
AcDbEntity
  8
0
  6
Continuous
 62
     7
100
AcDbLine
 10
-566.3755493164062
 20
375.9784545898438
 30
0.0
 11
-568.6077880859374
 21
374.2835083007813
 31
0.0
  0
LINE
  5
17C
330
22
100
AcDbEntity
  8
0
  6
Continuous
 62
     7
100
AcDbLine
 10
-529.8881225585938
 20
332.6767272949219
 30
0.0
 11
-529.8881225585938
 21
363.6767272949219
 31
0.0
  0
LINE
  5
17D
330
22
100
AcDbEntity
  8
0
  6
Continuous
 62
     7
100
AcDbLine
 10
-566.39013671875
 20
370.4410705566406
 30
0.0
 11
-566.1183471679687
 21
370.7128295898438
 31
0.0
  0
LINE
  5
17E
330
22
100
AcDbEntity
  8
0
  6
Continuous
 62
     7
100
AcDbLine
 10
-566.39013671875
 20
370.4410705566406
 30
0.0
 11
-568.6077880859374
 21
372.1210021972656
 31
0.0
  0
LINE
  5
17F
330
22
100
AcDbEntity
  8
0
  6
Continuous
 62
     7
100
AcDbLine
 10
-565.8466186523437
 20
370.9845886230469
 30
0.0
 11
-567.5265502929687
 21
373.2022705078125
 31
0.0
  0
LINE
  5
180
330
22
100
AcDbEntity
  8
0
  6
DASHED
 62
     7
100
AcDbLine
 10
-568.6077880859374
 20
368.1767272949219
 30
0.0
 11
-570.1077880859375
 21
368.1767272949219
 31
0.0
  0
LINE
  5
181
330
22
100
AcDbEntity
  8
0
  6
Continuous
 62
     7
100
AcDbLine
 10
-539.8881225585938
 20
354.0015869140625
 30
0.0
 11
-539.8881225585938
 21
363.6767272949219
 31
0.0
  0
LINE
  5
182
330
22
100
AcDbEntity
  8
0
  6
Continuous
 62
     7
100
AcDbLine
 10
-544.8881225585938
 20
354.0015869140625
 30
0.0
 11
-544.8881225585938
 21
363.6767272949219
 31
0.0
  0
LINE
  5
183
330
22
100
AcDbEntity
  8
0
  6
Continuous
 62
     7
100
AcDbLine
 10
-571.1119995117187
 20
370.6980285644531
 30
0.0
 11
-570.8400268554687
 21
370.4260864257813
 31
0.0
  0
LINE
  5
184
330
22
100
AcDbEntity
  8
0
  6
Continuous
 62
     7
100
AcDbLine
 10
-571.1119995117187
 20
370.6980285644531
 30
0.0
 11
-571.3839721679687
 21
370.9700012207031
 31
0.0
  0
LINE
  5
185
330
22
100
AcDbEntity
  8
0
  6
Continuous
 62
     7
100
AcDbLine
 10
-571.1119995117187
 20
370.6980285644531
 30
0.0
 11
-571.3839721679687
 21
370.9700012207031
 31
0.0
  0
LINE
  5
186
330
22
100
AcDbEntity
  8
0
  6
Continuous
 62
     7
100
AcDbLine
 10
-571.1119995117187
 20
370.6980285644531
 30
0.0
 11
-570.8400268554687
 21
370.4260864257813
 31
0.0
  0
LINE
  5
187
330
22
100
AcDbEntity
  8
0
  6
Continuous
 62
     7
100
AcDbLine
 10
-571.3839721679687
 20
370.9700012207031
 30
0.0
 11
-569.6890258789062
 21
373.2022705078125
 31
0.0
  0
LINE
  5
188
330
22
100
AcDbEntity
  8
0
  6
Continuous
 62
     7
100
AcDbLine
 10
-566.39013671875
 20
370.4410705566406
 30
0.0
 11
-568.6077880859374
 21
372.1210021972656
 31
0.0
  0
LINE
  5
189
330
22
100
AcDbEntity
  8
0
  6
Continuous
 62
     7
100
AcDbLine
 10
-570.8400268554687
 20
370.4260864257813
 30
0.0
 11
-568.6077880859374
 21
372.1210021972656
 31
0.0
  0
LINE
  5
18A
330
22
100
AcDbEntity
  8
0
  6
Continuous
 62
     7
100
AcDbLine
 10
-570.8400268554687
 20
370.4260864257813
 30
0.0
 11
-568.6077880859374
 21
372.1210021972656
 31
0.0
  0
LINE
  5
18B
330
22
100
AcDbEntity
  8
0
  6
Continuous
 62
     7
100
AcDbLine
 10
-571.3839721679687
 20
370.9700012207031
 30
0.0
 11
-569.6890258789062
 21
373.2022705078125
 31
0.0
  0
LINE
  5
18C
330
22
100
AcDbEntity
  8
0
  6
Continuous
 62
     7
100
AcDbLine
 10
-565.8466186523437
 20
370.9845886230469
 30
0.0
 11
-566.1183471679687
 21
370.7128295898438
 31
0.0
  0
LINE
  5
18D
330
22
100
AcDbEntity
  8
0
  6
Continuous
 62
     7
100
AcDbLine
 10
-565.8466186523437
 20
370.9845886230469
 30
0.0
 11
-567.5265502929687
 21
373.2022705078125
 31
0.0
  0
LINE
  5
18E
330
22
100
AcDbEntity
  8
0
  6
Continuous
 62
     7
100
AcDbLine
 10
-565.8466186523437
 20
370.9845886230469
 30
0.0
 11
-566.1183471679687
 21
370.7128295898438
 31
0.0
  0
LINE
  5
18F
330
22
100
AcDbEntity
  8
0
  6
Continuous
 62
     7
100
AcDbLine
 10
-566.39013671875
 20
370.4410705566406
 30
0.0
 11
-566.1183471679687
 21
370.7128295898438
 31
0.0
  0
LINE
  5
190
330
22
100
AcDbEntity
  8
0
  6
DASHED
 62
     7
100
AcDbLine
 10
-568.6077880859374
 20
378.1767272949219
 30
0.0
 11
-570.1077880859375
 21
378.1767272949219
 31
0.0
  0
LINE
  5
191
330
22
100
AcDbEntity
  8
0
  6
Continuous
 62
     7
100
AcDbLine
 10
-571.3689575195312
 20
375.4199523925781
 30
0.0
 11
-569.6890258789062
 21
373.2022705078125
 31
0.0
  0
LINE
  5
192
330
22
100
AcDbEntity
  8
0
  6
Continuous
 62
     7
100
AcDbLine
 10
-565.8316040039062
 20
375.4345397949219
 30
0.0
 11
-567.5265502929687
 21
373.2022705078125
 31
0.0
  0
LINE
  5
193
330
22
100
AcDbEntity
  8
0
  6
Continuous
 62
     7
100
AcDbLine
 10
-566.1035766601562
 20
375.7064819335938
 30
0.0
 11
-565.8316040039062
 21
375.4345397949219
 31
0.0
  0
LINE
  5
194
330
22
100
AcDbEntity
  8
0
  6
Continuous
 62
     7
100
AcDbLine
 10
-565.8316040039062
 20
375.4345397949219
 30
0.0
 11
-567.5265502929687
 21
373.2022705078125
 31
0.0
  0
LINE
  5
195
330
22
100
AcDbEntity
  8
0
  6
Continuous
 62
     7
100
AcDbLine
 10
-566.1035766601562
 20
375.7064819335938
 30
0.0
 11
-566.3755493164062
 21
375.9784545898438
 31
0.0
  0
LINE
  5
196
330
22
100
AcDbEntity
  8
0
  6
Continuous
 62
     7
100
AcDbLine
 10
-479.8881225585938
 20
269.676727294922
 30
0.0
 11
-479.8881225585938
 21
300.6767272949219
 31
0.0
  0
LINE
  5
197
330
22
100
AcDbEntity
  8
0
  6
Continuous
 62
     7
100
AcDbLine
 10
-479.8881225585938
 20
248.6767425537109
 30
0.0
 11
-479.8881225585938
 21
258.6767272949219
 31
0.0
  0
LINE
  5
198
330
22
100
AcDbEntity
  8
0
  6
Continuous
 62
     7
100
AcDbLine
 10
-484.8881225585937
 20
269.676727294922
 30
0.0
 11
-484.8881225585937
 21
300.6767272949219
 31
0.0
  0
LINE
  5
199
330
22
100
AcDbEntity
  8
0
  6
Continuous
 62
     7
100
AcDbLine
 10
-464.8881225585937
 20
248.6767425537109
 30
0.0
 11
-464.8881225585937
 21
258.6767272949219
 31
0.0
  0
LINE
  5
19A
330
22
100
AcDbEntity
  8
0
  6
Continuous
 62
     7
100
AcDbLine
 10
-464.8881225585937
 20
269.676727294922
 30
0.0
 11
-464.8881225585937
 21
300.6767272949219
 31
0.0
  0
LINE
  5
19B
330
22
100
AcDbEntity
  8
0
  6
Continuous
 62
     7
100
AcDbLine
 10
-559.8881225585938
 20
354.0015869140625
 30
0.0
 11
-559.8881225585938
 21
363.6767272949219
 31
0.0
  0
LINE
  5
19C
330
22
100
AcDbEntity
  8
0
  6
Continuous
 62
     7
100
AcDbLine
 10
-534.8881225585938
 20
332.6767272949219
 30
0.0
 11
-534.8881225585938
 21
363.6767272949219
 31
0.0
  0
LINE
  5
19D
330
22
100
AcDbEntity
  8
0
  6
Continuous
 62
     7
100
AcDbLine
 10
-564.8881225585937
 20
354.0015869140625
 30
0.0
 11
-564.8881225585937
 21
363.6767272949219
 31
0.0
  0
LINE
  5
19E
330
22
100
AcDbEntity
  8
0
  6
Continuous
 62
     7
100
AcDbLine
 10
-549.8881225585939
 20
332.6767272949219
 30
0.0
 11
-549.8881225585939
 21
363.6767272949219
 31
0.0
  0
LINE
  5
19F
330
22
100
AcDbEntity
  8
0
  6
Continuous
 62
     7
100
AcDbLine
 10
-554.8881225585938
 20
332.6767272949219
 30
0.0
 11
-554.8881225585938
 21
363.6767272949219
 31
0.0
  0
LINE
  5
1A0
330
22
100
AcDbEntity
  8
0
  6
Continuous
 62
     7
100
AcDbLine
 10
-494.8881225585938
 20
248.6767425537109
 30
0.0
 11
-494.8881225585938
 21
279.6767272949219
 31
0.0
  0
LINE
  5
1A1
330
22
100
AcDbEntity
  8
0
  6
Continuous
 62
     7
100
AcDbLine
 10
-504.8881225585938
 20
269.676727294922
 30
0.0
 11
-504.8881225585938
 21
300.6767272949219
 31
0.0
  0
LINE
  5
1A2
330
22
100
AcDbEntity
  8
0
  6
Continuous
 62
     7
100
AcDbLine
 10
-484.8881225585937
 20
248.6767425537109
 30
0.0
 11
-484.8881225585937
 21
258.6767272949219
 31
0.0
  0
LINE
  5
1A3
330
22
100
AcDbEntity
  8
0
  6
Continuous
 62
     7
100
AcDbLine
 10
-509.8881225585937
 20
248.6767425537109
 30
0.0
 11
-509.8881225585937
 21
279.6767272949219
 31
0.0
  0
LINE
  5
1A4
330
22
100
AcDbEntity
  8
0
  6
Continuous
 62
     7
100
AcDbLine
 10
-514.8881225585938
 20
248.6767425537109
 30
0.0
 11
-514.8881225585938
 21
279.6767272949219
 31
0.0
  0
LINE
  5
1A5
330
22
100
AcDbEntity
  8
0
  6
Continuous
 62
     7
100
AcDbLine
 10
-504.8881225585938
 20
248.6767425537109
 30
0.0
 11
-504.8881225585938
 21
258.6767272949219
 31
0.0
  0
LINE
  5
1A6
330
22
100
AcDbEntity
  8
0
  6
Continuous
 62
     7
100
AcDbLine
 10
-489.8881225585937
 20
248.6767425537109
 30
0.0
 11
-489.8881225585937
 21
279.6767272949219
 31
0.0
  0
LINE
  5
1A7
330
22
100
AcDbEntity
  8
0
  6
Continuous
 62
     7
100
AcDbLine
 10
-499.8881225585938
 20
269.676727294922
 30
0.0
 11
-499.8881225585938
 21
300.6767272949219
 31
0.0
  0
LINE
  5
1A8
330
22
100
AcDbEntity
  8
0
  6
Continuous
 62
     7
100
AcDbLine
 10
-474.8881225585938
 20
248.6767425537109
 30
0.0
 11
-474.8881225585938
 21
279.6767272949219
 31
0.0
  0
LINE
  5
1A9
330
22
100
AcDbEntity
  8
0
  6
Continuous
 62
     7
100
AcDbLine
 10
-499.8881225585938
 20
248.6767425537109
 30
0.0
 11
-499.8881225585938
 21
258.6767272949219
 31
0.0
  0
LINE
  5
1AA
330
22
100
AcDbEntity
  8
0
  6
Continuous
 62
     7
100
AcDbLine
 10
-443.664306640625
 20
242.9444732666016
 30
0.0
 11
-441.9693603515624
 21
245.1767425537109
 31
0.0
  0
LINE
  5
1AB
330
22
100
AcDbEntity
  8
0
  6
Continuous
 62
     7
100
AcDbLine
 10
-443.392333984375
 20
242.6725158691406
 30
0.0
 11
-443.1203613281249
 21
242.4005432128906
 31
0.0
  0
LINE
  5
1AC
330
22
100
AcDbEntity
  8
0
  6
Continuous
 62
     7
100
AcDbLine
 10
-443.1058044433593
 20
247.9379425048828
 30
0.0
 11
-440.8881225585938
 21
246.2579803466797
 31
0.0
  0
LINE
  5
1AD
330
22
100
AcDbEntity
  8
0
  6
Continuous
 62
     7
100
AcDbLine
 10
-443.392333984375
 20
242.6725158691406
 30
0.0
 11
-443.664306640625
 21
242.9444732666016
 31
0.0
  0
LINE
  5
1AE
330
22
100
AcDbEntity
  8
0
  6
Continuous
 62
     7
100
AcDbLine
 10
-443.392333984375
 20
242.6725158691406
 30
0.0
 11
-443.664306640625
 21
242.9444732666016
 31
0.0
  0
LINE
  5
1AF
330
22
100
AcDbEntity
  8
0
  6
Continuous
 62
     7
100
AcDbLine
 10
-443.392333984375
 20
242.6725158691406
 30
0.0
 11
-443.1203613281249
 21
242.4005432128906
 31
0.0
  0
LINE
  5
1B0
330
22
100
AcDbEntity
  8
0
  6
Continuous
 62
     7
100
AcDbLine
 10
-438.6704406738281
 20
242.4155426025391
 30
0.0
 11
-438.398681640625
 21
242.6873016357422
 31
0.0
  0
LINE
  5
1B1
330
22
100
AcDbEntity
  8
0
  6
Continuous
 62
     7
100
AcDbLine
 10
-438.1269226074218
 20
242.9590606689453
 30
0.0
 11
-439.8068542480468
 21
245.1767425537109
 31
0.0
  0
LINE
  5
1B2
330
22
100
AcDbEntity
  8
0
  6
Continuous
 62
     7
100
AcDbLine
 10
-438.6558532714843
 20
247.9529266357422
 30
0.0
 11
-440.8881225585938
 21
246.2579803466797
 31
0.0
  0
LINE
  5
1B3
330
22
100
AcDbEntity
  8
0
  6
Continuous
 62
     7
100
AcDbLine
 10
-443.664306640625
 20
242.9444732666016
 30
0.0
 11
-441.9693603515624
 21
245.1767425537109
 31
0.0
  0
LINE
  5
1B4
330
22
100
AcDbEntity
  8
0
  6
Continuous
 62
     7
100
AcDbLine
 10
-443.1058044433593
 20
247.9379425048828
 30
0.0
 11
-443.3775634765624
 21
247.6661682128906
 31
0.0
  0
LINE
  5
1B5
330
22
100
AcDbEntity
  8
0
  6
Continuous
 62
     7
100
AcDbLine
 10
-443.1203613281249
 20
242.4005432128906
 30
0.0
 11
-440.8881225585938
 21
244.0954895019531
 31
0.0
  0
LINE
  5
1B6
330
22
100
AcDbEntity
  8
0
  6
Continuous
 62
     7
100
AcDbLine
 10
-438.6558532714843
 20
247.9529266357422
 30
0.0
 11
-440.8881225585938
 21
246.2579803466797
 31
0.0
  0
LINE
  5
1B7
330
22
100
AcDbEntity
  8
0
  6
Continuous
 62
     7
100
AcDbLine
 10
-438.1269226074218
 20
242.9590606689453
 30
0.0
 11
-439.8068542480468
 21
245.1767425537109
 31
0.0
  0
LINE
  5
1B8
330
22
100
AcDbEntity
  8
0
  6
Continuous
 62
     7
100
AcDbLine
 10
-438.6704406738281
 20
242.4155426025391
 30
0.0
 11
-440.8881225585938
 21
244.0954895019531
 31
0.0
  0
LINE
  5
1B9
330
22
100
AcDbEntity
  8
0
  6
Continuous
 62
     7
100
AcDbLine
 10
-443.6493225097656
 20
247.3944091796875
 30
0.0
 11
-443.3775634765624
 21
247.6661682128906
 31
0.0
  0
LINE
  5
1BA
330
22
100
AcDbEntity
  8
0
  6
Continuous
 62
     7
100
AcDbLine
 10
-443.1058044433593
 20
247.9379425048828
 30
0.0
 11
-443.3775634765624
 21
247.6661682128906
 31
0.0
  0
LINE
  5
1BB
330
22
100
AcDbEntity
  8
0
  6
Continuous
 62
     7
100
AcDbLine
 10
-443.6493225097656
 20
247.3944091796875
 30
0.0
 11
-443.3775634765624
 21
247.6661682128906
 31
0.0
  0
LINE
  5
1BC
330
22
100
AcDbEntity
  8
0
  6
Continuous
 62
     7
100
AcDbLine
 10
-438.1119384765624
 20
247.4089965820313
 30
0.0
 11
-439.8068542480468
 21
245.1767425537109
 31
0.0
  0
LINE
  5
1BD
330
22
100
AcDbEntity
  8
0
  6
Continuous
 62
     7
100
AcDbLine
 10
-469.8881225585938
 20
248.6767425537109
 30
0.0
 11
-469.8881225585938
 21
279.6767272949219
 31
0.0
  0
LINE
  5
1BE
330
22
100
AcDbEntity
  8
0
  6
Continuous
 62
     7
100
AcDbLine
 10
-519.8881225585938
 20
248.6767425537109
 30
0.0
 11
-519.8881225585938
 21
258.6767272949219
 31
0.0
  0
LINE
  5
1BF
330
22
100
AcDbEntity
  8
0
  6
Continuous
 62
     7
100
AcDbLine
 10
-519.8881225585938
 20
269.676727294922
 30
0.0
 11
-519.8881225585938
 21
300.6767272949219
 31
0.0
  0
LINE
  5
1C0
330
22
100
AcDbEntity
  8
0
  6
Continuous
 62
     7
100
AcDbLine
 10
-438.3838806152343
 20
247.6809692382814
 30
0.0
 11
-438.6558532714843
 21
247.9529266357422
 31
0.0
  0
LINE
  5
1C1
330
22
100
AcDbEntity
  8
0
  6
Continuous
 62
     7
100
AcDbLine
 10
-438.3838806152343
 20
247.6809692382814
 30
0.0
 11
-438.1119384765624
 21
247.4089965820313
 31
0.0
  0
LINE
  5
1C2
330
22
100
AcDbEntity
  8
0
  6
Continuous
 62
     7
100
AcDbLine
 10
-438.3838806152343
 20
247.6809692382814
 30
0.0
 11
-438.6558532714843
 21
247.9529266357422
 31
0.0
  0
LINE
  5
1C3
330
22
100
AcDbEntity
  8
0
  6
Continuous
 62
     7
100
AcDbLine
 10
-406.8881225585938
 20
248.6767425537109
 30
0.0
 11
-406.8881225585938
 21
279.6767272949219
 31
0.0
  0
LINE
  5
1C4
330
22
100
AcDbEntity
  8
0
  6
Continuous
 62
     7
100
AcDbLine
 10
-443.6493225097656
 20
247.3944091796875
 30
0.0
 11
-441.9693603515624
 21
245.1767425537109
 31
0.0
  0
LINE
  5
1C5
330
22
100
AcDbEntity
  8
0
  6
Continuous
 62
     7
100
AcDbLine
 10
-443.1058044433593
 20
247.9379425048828
 30
0.0
 11
-440.8881225585938
 21
246.2579803466797
 31
0.0
  0
LINE
  5
1C6
330
22
100
AcDbEntity
  8
0
  6
DASHED
 62
     7
100
AcDbLine
 10
-445.8881225585938
 20
245.1767425537109
 30
0.0
 11
-445.8881225585938
 21
243.6767425537109
 31
0.0
  0
LINE
  5
1C7
330
22
100
AcDbEntity
  8
0
  6
Continuous
 62
     7
100
AcDbLine
 10
-449.8881225585938
 20
248.6767425537109
 30
0.0
 11
-449.8881225585938
 21
279.6767272949219
 31
0.0
  0
LINE
  5
1C8
330
22
100
AcDbEntity
  8
0
  6
CENTER
 62
     7
100
AcDbLine
 10
-446.70849609375
 20
245.1767425537109
 30
0.0
 11
-434.5376586914063
 21
245.1767425537109
 31
0.0
  0
LINE
  5
1C9
330
22
100
AcDbEntity
  8
0
  6
Continuous
 62
     7
100
AcDbLine
 10
-454.8881225585938
 20
248.6767425537109
 30
0.0
 11
-454.8881225585938
 21
279.6767272949219
 31
0.0
  0
LINE
  5
1CA
330
22
100
AcDbEntity
  8
0
  6
Continuous
 62
     7
100
AcDbLine
 10
-459.8881225585937
 20
269.676727294922
 30
0.0
 11
-459.8881225585937
 21
300.6767272949219
 31
0.0
  0
LINE
  5
1CB
330
22
100
AcDbEntity
  8
0
  6
Continuous
 62
     7
100
AcDbLine
 10
-459.8881225585937
 20
248.6767425537109
 30
0.0
 11
-459.8881225585937
 21
258.6767272949219
 31
0.0
  0
LINE
  5
1CC
330
22
100
AcDbEntity
  8
0
  6
Continuous
 62
     7
100
AcDbLine
 10
-438.1119384765624
 20
247.4089965820313
 30
0.0
 11
-439.8068542480468
 21
245.1767425537109
 31
0.0
  0
LINE
  5
1CD
330
22
100
AcDbEntity
  8
0
  6
Continuous
 62
     7
100
AcDbLine
 10
-438.6704406738281
 20
242.4155426025391
 30
0.0
 11
-438.398681640625
 21
242.6873016357422
 31
0.0
  0
LINE
  5
1CE
330
22
100
AcDbEntity
  8
0
  6
Continuous
 62
     7
100
AcDbLine
 10
-443.1203613281249
 20
242.4005432128906
 30
0.0
 11
-440.8881225585938
 21
244.0954895019531
 31
0.0
  0
LINE
  5
1CF
330
22
100
AcDbEntity
  8
0
  6
Continuous
 62
     7
100
AcDbLine
 10
-438.6704406738281
 20
242.4155426025391
 30
0.0
 11
-440.8881225585938
 21
244.0954895019531
 31
0.0
  0
LINE
  5
1D0
330
22
100
AcDbEntity
  8
0
  6
Continuous
 62
     7
100
AcDbLine
 10
-443.6493225097656
 20
247.3944091796875
 30
0.0
 11
-441.9693603515624
 21
245.1767425537109
 31
0.0
  0
LINE
  5
1D1
330
22
100
AcDbEntity
  8
0
  6
Continuous
 62
     7
100
AcDbLine
 10
-464.8881225585937
 20
354.0015869140625
 30
0.0
 11
-464.8881225585937
 21
363.6767272949219
 31
0.0
  0
LINE
  5
1D2
330
22
100
AcDbEntity
  8
0
  6
DASHED
 62
     7
100
AcDbLine
 10
-435.8881225585938
 20
245.1767425537109
 30
0.0
 11
-435.8881225585938
 21
243.6767425537109
 31
0.0
  0
LINE
  5
1D3
330
22
100
AcDbEntity
  8
0
  6
Continuous
 62
     7
100
AcDbLine
 10
-438.1269226074218
 20
242.9590606689453
 30
0.0
 11
-438.398681640625
 21
242.6873016357422
 31
0.0
  0
LINE
  5
1D4
330
22
100
AcDbEntity
  8
0
  6
Continuous
 62
     7
100
AcDbLine
 10
-438.1269226074218
 20
242.9590606689453
 30
0.0
 11
-438.398681640625
 21
242.6873016357422
 31
0.0
  0
LINE
  5
1D5
330
22
100
AcDbEntity
  8
0
  6
Continuous
 62
     7
100
AcDbLine
 10
-438.3838806152343
 20
247.6809692382814
 30
0.0
 11
-438.1119384765624
 21
247.4089965820313
 31
0.0
  0
LINE
  5
1D6
330
22
100
AcDbEntity
  8
0
  6
Continuous
 62
     7
100
AcDbLine
 10
-411.8881225585938
 20
248.6767425537109
 30
0.0
 11
-411.8881225585938
 21
279.6767272949219
 31
0.0
  0
LINE
  5
1D7
330
22
100
AcDbEntity
  8
0
  6
Continuous
 62
     7
100
AcDbLine
 10
-431.8881225585938
 20
248.6767425537109
 30
0.0
 11
-431.8881225585938
 21
279.6767272949219
 31
0.0
  0
LINE
  5
1D8
330
22
100
AcDbEntity
  8
0
  6
Continuous
 62
     7
100
AcDbLine
 10
-426.8881225585937
 20
248.6767425537109
 30
0.0
 11
-426.8881225585937
 21
279.6767272949219
 31
0.0
  0
LINE
  5
1D9
330
22
100
AcDbEntity
  8
0
  6
Continuous
 62
     7
100
AcDbLine
 10
-416.8881225585938
 20
248.6767425537109
 30
0.0
 11
-416.8881225585938
 21
258.6767272949219
 31
0.0
  0
LINE
  5
1DA
330
22
100
AcDbEntity
  8
0
  6
Continuous
 62
     7
100
AcDbLine
 10
-416.8881225585938
 20
269.676727294922
 30
0.0
 11
-416.8881225585938
 21
300.6767272949219
 31
0.0
  0
LINE
  5
1DB
330
22
100
AcDbEntity
  8
0
  6
Continuous
 62
     7
100
AcDbLine
 10
-421.8881225585938
 20
248.6767425537109
 30
0.0
 11
-421.8881225585938
 21
258.6767272949219
 31
0.0
  0
LINE
  5
1DC
330
22
100
AcDbEntity
  8
0
  6
Continuous
 62
     7
100
AcDbLine
 10
-421.8881225585938
 20
269.676727294922
 30
0.0
 11
-421.8881225585938
 21
300.6767272949219
 31
0.0
  0
LINE
  5
1DD
330
22
100
AcDbEntity
  8
0
  6
Continuous
 62
     7
100
AcDbLine
 10
-514.8881225585938
 20
332.6767272949219
 30
0.0
 11
-514.8881225585938
 21
363.6767272949219
 31
0.0
  0
LINE
  5
1DE
330
22
100
AcDbEntity
  8
0
  6
Continuous
 62
     7
100
AcDbLine
 10
-479.8881225585938
 20
354.0015869140625
 30
0.0
 11
-479.8881225585938
 21
363.6767272949219
 31
0.0
  0
LINE
  5
1DF
330
22
100
AcDbEntity
  8
0
  6
Continuous
 62
     7
100
AcDbLine
 10
-489.8881225585937
 20
332.6767272949219
 30
0.0
 11
-489.8881225585937
 21
363.6767272949219
 31
0.0
  0
LINE
  5
1E0
330
22
100
AcDbEntity
  8
0
  6
Continuous
 62
     7
100
AcDbLine
 10
-459.8881225585937
 20
392.3518676757813
 30
0.0
 11
-459.8881225585937
 21
382.6767272949219
 31
0.0
  0
LINE
  5
1E1
330
22
100
AcDbEntity
  8
0
  6
Continuous
 62
     7
100
AcDbLine
 10
-416.8881225585938
 20
392.3518676757813
 30
0.0
 11
-416.8881225585938
 21
382.6767272949219
 31
0.0
  0
LINE
  5
1E2
330
22
100
AcDbEntity
  8
0
  6
Continuous
 62
     7
100
AcDbLine
 10
-421.8881225585938
 20
392.3518676757813
 30
0.0
 11
-421.8881225585938
 21
382.6767272949219
 31
0.0
  0
LINE
  5
1E3
330
22
100
AcDbEntity
  8
0
  6
Continuous
 62
     7
100
AcDbLine
 10
-479.8881225585938
 20
392.3518676757813
 30
0.0
 11
-479.8881225585938
 21
382.6767272949219
 31
0.0
  0
LINE
  5
1E4
330
22
100
AcDbEntity
  8
0
  6
Continuous
 62
     7
100
AcDbLine
 10
-504.8881225585938
 20
392.3518676757813
 30
0.0
 11
-504.8881225585938
 21
382.6767272949219
 31
0.0
  0
LINE
  5
1E5
330
22
100
AcDbEntity
  8
0
  6
Continuous
 62
     7
100
AcDbLine
 10
-519.8881225585938
 20
392.3518676757813
 30
0.0
 11
-519.8881225585938
 21
382.6767272949219
 31
0.0
  0
LINE
  5
1E6
330
22
100
AcDbEntity
  8
0
  6
Continuous
 62
     7
100
AcDbLine
 10
-499.8881225585938
 20
392.3518676757813
 30
0.0
 11
-499.8881225585938
 21
382.6767272949219
 31
0.0
  0
LINE
  5
1E7
330
22
100
AcDbEntity
  8
0
  6
Continuous
 62
     7
100
AcDbLine
 10
-484.8881225585937
 20
392.3518676757813
 30
0.0
 11
-484.8881225585937
 21
382.6767272949219
 31
0.0
  0
LINE
  5
1E8
330
22
100
AcDbEntity
  8
0
  6
Continuous
 62
     7
100
AcDbLine
 10
-464.8881225585937
 20
392.3518676757813
 30
0.0
 11
-464.8881225585937
 21
382.6767272949219
 31
0.0
  0
LINE
  5
1E9
330
22
100
AcDbEntity
  8
0
  6
Continuous
 62
     7
100
AcDbLine
 10
-454.8881225585938
 20
332.6767272949219
 30
0.0
 11
-454.8881225585938
 21
363.6767272949219
 31
0.0
  0
LINE
  5
1EA
330
22
100
AcDbEntity
  8
0
  6
Continuous
 62
     7
100
AcDbLine
 10
-459.8881225585937
 20
354.0015869140625
 30
0.0
 11
-459.8881225585937
 21
363.6767272949219
 31
0.0
  0
LINE
  5
1EB
330
22
100
AcDbEntity
  8
0
  6
Continuous
 62
     7
100
AcDbLine
 10
-519.8881225585938
 20
354.0015869140625
 30
0.0
 11
-519.8881225585938
 21
363.6767272949219
 31
0.0
  0
LINE
  5
1EC
330
22
100
AcDbEntity
  8
0
  6
Continuous
 62
     7
100
AcDbLine
 10
-484.8881225585937
 20
354.0015869140625
 30
0.0
 11
-484.8881225585937
 21
363.6767272949219
 31
0.0
  0
LINE
  5
1ED
330
22
100
AcDbEntity
  8
0
  6
Continuous
 62
     7
100
AcDbLine
 10
-474.8881225585938
 20
332.6767272949219
 30
0.0
 11
-474.8881225585938
 21
363.6767272949219
 31
0.0
  0
LINE
  5
1EE
330
22
100
AcDbEntity
  8
0
  6
Continuous
 62
     7
100
AcDbLine
 10
-469.8881225585938
 20
332.6767272949219
 30
0.0
 11
-469.8881225585938
 21
363.6767272949219
 31
0.0
  0
LINE
  5
1EF
330
22
100
AcDbEntity
  8
0
  6
Continuous
 62
     7
100
AcDbLine
 10
-504.8881225585938
 20
354.0015869140625
 30
0.0
 11
-504.8881225585938
 21
363.6767272949219
 31
0.0
  0
LINE
  5
1F0
330
22
100
AcDbEntity
  8
0
  6
Continuous
 62
     7
100
AcDbLine
 10
-499.8881225585938
 20
354.0015869140625
 30
0.0
 11
-499.8881225585938
 21
363.6767272949219
 31
0.0
  0
LINE
  5
1F1
330
22
100
AcDbEntity
  8
0
  6
Continuous
 62
     7
100
AcDbLine
 10
-494.8881225585938
 20
332.6767272949219
 30
0.0
 11
-494.8881225585938
 21
363.6767272949219
 31
0.0
  0
LINE
  5
1F2
330
22
100
AcDbEntity
  8
0
  6
Continuous
 62
     7
100
AcDbLine
 10
-509.8881225585937
 20
332.6767272949219
 30
0.0
 11
-509.8881225585937
 21
363.6767272949219
 31
0.0
  0
LINE
  5
1F3
330
22
100
AcDbEntity
  8
0
  6
Continuous
 62
     7
100
AcDbLine
 10
-421.8881225585938
 20
353.6767272949219
 30
0.0
 11
-421.8881225585938
 21
363.6767272949219
 31
0.0
  0
LINE
  5
1F4
330
22
100
AcDbEntity
  8
0
  6
Continuous
 62
     7
100
AcDbLine
 10
-411.8881225585938
 20
332.6767272949219
 30
0.0
 11
-411.8881225585938
 21
363.6767272949219
 31
0.0
  0
LINE
  5
1F5
330
22
100
AcDbEntity
  8
0
  6
Continuous
 62
     7
100
AcDbLine
 10
-431.8881225585938
 20
332.6767272949219
 30
0.0
 11
-431.8881225585938
 21
363.6767272949219
 31
0.0
  0
LINE
  5
1F6
330
22
100
AcDbEntity
  8
0
  6
Continuous
 62
     7
100
AcDbLine
 10
-426.8881225585937
 20
332.6767272949219
 30
0.0
 11
-426.8881225585937
 21
363.6767272949219
 31
0.0
  0
LINE
  5
1F7
330
22
100
AcDbEntity
  8
0
  6
Continuous
 62
     7
100
AcDbLine
 10
-416.8881225585938
 20
353.6767272949219
 30
0.0
 11
-416.8881225585938
 21
363.6767272949219
 31
0.0
  0
LINE
  5
1F8
330
22
100
AcDbEntity
  8
0
  6
Continuous
 62
     7
100
AcDbLine
 10
-406.8881225585938
 20
332.6767272949219
 30
0.0
 11
-406.8881225585938
 21
363.6767272949219
 31
0.0
  0
LINE
  5
1F9
330
22
100
AcDbEntity
  8
0
  6
Continuous
 62
     7
100
AcDbLine
 10
-449.8881225585938
 20
332.6767272949219
 30
0.0
 11
-449.8881225585938
 21
363.6767272949219
 31
0.0
  0
LINE
  5
1FA
330
22
100
AcDbEntity
  8
0
  6
Continuous
 62
     7
100
AcDbLine
 10
-566.3839111328124
 20
503.7064819335937
 30
0.0
 11
-566.6558837890625
 21
503.9784545898438
 31
0.0
  0
LINE
  5
1FB
330
22
100
AcDbEntity
  8
0
  6
Continuous
 62
     7
100
AcDbLine
 10
-571.6643066406249
 20
498.970001220703
 30
0.0
 11
-569.9693603515624
 21
501.2022705078124
 31
0.0
  0
LINE
  5
1FC
330
22
100
AcDbEntity
  8
0
  6
Continuous
 62
     7
100
AcDbLine
 10
-571.3923339843749
 20
498.6980285644531
 30
0.0
 11
-571.120361328125
 21
498.4260864257812
 31
0.0
  0
LINE
  5
1FD
330
22
100
AcDbEntity
  8
0
  6
Continuous
 62
     7
100
AcDbLine
 10
-559.8881225585938
 20
476.6767272949218
 30
0.0
 11
-559.8881225585938
 21
445.6767272949218
 31
0.0
  0
LINE
  5
1FE
330
22
100
AcDbEntity
  8
0
  6
Continuous
 62
     7
100
AcDbLine
 10
-539.8881225585938
 20
476.6767272949218
 30
0.0
 11
-539.8881225585938
 21
445.6767272949218
 31
0.0
  0
LINE
  5
1FF
330
22
100
AcDbEntity
  8
0
  6
Continuous
 62
     7
100
AcDbLine
 10
-544.8881225585938
 20
476.6767272949218
 30
0.0
 11
-544.8881225585938
 21
445.6767272949218
 31
0.0
  0
LINE
  5
200
330
22
100
AcDbEntity
  8
0
  6
Continuous
 62
     7
100
AcDbLine
 10
-554.8881225585938
 20
455.6767272949218
 30
0.0
 11
-554.8881225585938
 21
424.6767272949218
 31
0.0
  0
LINE
  5
201
330
22
100
AcDbEntity
  8
0
  6
Continuous
 62
     7
100
AcDbLine
 10
-564.8881225585937
 20
476.6767272949218
 30
0.0
 11
-564.8881225585937
 21
445.6767272949218
 31
0.0
  0
LINE
  5
202
330
22
100
AcDbEntity
  8
0
  6
Continuous
 62
     7
100
AcDbLine
 10
-549.8881225585939
 20
455.6767272949218
 30
0.0
 11
-549.8881225585939
 21
424.6767272949218
 31
0.0
  0
LINE
  5
203
330
22
100
AcDbEntity
  8
0
  6
Continuous
 62
     7
100
AcDbLine
 10
-534.8881225585938
 20
455.6767272949218
 30
0.0
 11
-534.8881225585938
 21
424.6767272949218
 31
0.0
  0
LINE
  5
204
330
22
100
AcDbEntity
  8
0
  6
Continuous
 62
     7
100
AcDbLine
 10
-529.8881225585938
 20
455.6767272949218
 30
0.0
 11
-529.8881225585938
 21
424.6767272949218
 31
0.0
  0
LINE
  5
205
330
22
100
AcDbEntity
  8
0
  6
Continuous
 62
     7
100
AcDbLine
 10
-571.6492919921875
 20
503.4199523925781
 30
0.0
 11
-569.9693603515624
 21
501.2022705078124
 31
0.0
  0
LINE
  5
206
330
22
100
AcDbEntity
  8
0
  6
Continuous
 62
     7
100
AcDbLine
 10
-571.3923339843749
 20
498.6980285644531
 30
0.0
 11
-571.6643066406249
 21
498.970001220703
 31
0.0
  0
LINE
  5
207
330
22
100
AcDbEntity
  8
0
  6
Continuous
 62
     7
100
AcDbLine
 10
-571.3923339843749
 20
498.6980285644531
 30
0.0
 11
-571.6643066406249
 21
498.970001220703
 31
0.0
  0
LINE
  5
208
330
22
100
AcDbEntity
  8
0
  6
Continuous
 62
     7
100
AcDbLine
 10
-571.3923339843749
 20
498.6980285644531
 30
0.0
 11
-571.120361328125
 21
498.4260864257812
 31
0.0
  0
LINE
  5
209
330
22
100
AcDbEntity
  8
0
  6
Continuous
 62
     7
100
AcDbLine
 10
-566.6704101562499
 20
498.4410705566406
 30
0.0
 11
-566.3986816406249
 21
498.7128295898438
 31
0.0
  0
LINE
  5
20A
330
22
100
AcDbEntity
  8
0
  6
Continuous
 62
     7
100
AcDbLine
 10
-566.1268920898437
 20
498.9845886230468
 30
0.0
 11
-566.3986816406249
 21
498.7128295898438
 31
0.0
  0
LINE
  5
20B
330
22
100
AcDbEntity
  8
0
  6
Continuous
 62
     7
100
AcDbLine
 10
-566.1268920898437
 20
498.9845886230468
 30
0.0
 11
-567.8068847656249
 21
501.2022705078124
 31
0.0
  0
LINE
  5
20C
330
22
100
AcDbEntity
  8
0
  6
Continuous
 62
     7
100
AcDbLine
 10
-566.6558837890625
 20
503.9784545898438
 30
0.0
 11
-568.8881225585937
 21
502.2835083007812
 31
0.0
  0
LINE
  5
20D
330
22
100
AcDbEntity
  8
0
  6
Continuous
 62
     7
100
AcDbLine
 10
-566.3839111328124
 20
503.7064819335937
 30
0.0
 11
-566.6558837890625
 21
503.9784545898438
 31
0.0
  0
LINE
  5
20E
330
22
100
AcDbEntity
  8
0
  6
Continuous
 62
     7
100
AcDbLine
 10
-571.1057739257812
 20
503.9634704589843
 30
0.0
 11
-568.8881225585937
 21
502.2835083007812
 31
0.0
  0
LINE
  5
20F
330
22
100
AcDbEntity
  8
0
  6
Continuous
 62
     7
100
AcDbLine
 10
-566.1268920898437
 20
498.9845886230468
 30
0.0
 11
-566.3986816406249
 21
498.7128295898438
 31
0.0
  0
LINE
  5
210
330
22
100
AcDbEntity
  8
0
  6
Continuous
 62
     7
100
AcDbLine
 10
-571.6643066406249
 20
498.970001220703
 30
0.0
 11
-569.9693603515624
 21
501.2022705078124
 31
0.0
  0
LINE
  5
211
330
22
100
AcDbEntity
  8
0
  6
Continuous
 62
     7
100
AcDbLine
 10
-571.120361328125
 20
498.4260864257812
 30
0.0
 11
-568.8881225585937
 21
500.1210021972656
 31
0.0
  0
LINE
  5
212
330
22
100
AcDbEntity
  8
0
  6
Continuous
 62
     7
100
AcDbLine
 10
-566.6558837890625
 20
503.9784545898438
 30
0.0
 11
-568.8881225585937
 21
502.2835083007812
 31
0.0
  0
LINE
  5
213
330
22
100
AcDbEntity
  8
0
  6
Continuous
 62
     7
100
AcDbLine
 10
-566.3839111328124
 20
503.7064819335937
 30
0.0
 11
-566.1119384765624
 21
503.4345397949218
 31
0.0
  0
LINE
  5
214
330
22
100
AcDbEntity
  8
0
  6
Continuous
 62
     7
100
AcDbLine
 10
-566.1268920898437
 20
498.9845886230468
 30
0.0
 11
-567.8068847656249
 21
501.2022705078124
 31
0.0
  0
LINE
  5
215
330
22
100
AcDbEntity
  8
0
  6
Continuous
 62
     7
100
AcDbLine
 10
-566.6704101562499
 20
498.4410705566406
 30
0.0
 11
-568.8881225585937
 21
500.1210021972656
 31
0.0
  0
LINE
  5
216
330
22
100
AcDbEntity
  8
0
  6
Continuous
 62
     7
100
AcDbLine
 10
-571.6492919921875
 20
503.4199523925781
 30
0.0
 11
-571.3775634765625
 21
503.6917114257812
 31
0.0
  0
LINE
  5
217
330
22
100
AcDbEntity
  8
0
  6
Continuous
 62
     7
100
AcDbLine
 10
-571.1057739257812
 20
503.9634704589843
 30
0.0
 11
-571.3775634765625
 21
503.6917114257812
 31
0.0
  0
LINE
  5
218
330
22
100
AcDbEntity
  8
0
  6
Continuous
 62
     7
100
AcDbLine
 10
-571.6492919921875
 20
503.4199523925781
 30
0.0
 11
-571.3775634765625
 21
503.6917114257812
 31
0.0
  0
LINE
  5
219
330
22
100
AcDbEntity
  8
0
  6
Continuous
 62
     7
100
AcDbLine
 10
-571.6492919921875
 20
503.4199523925781
 30
0.0
 11
-569.9693603515624
 21
501.2022705078124
 31
0.0
  0
LINE
  5
21A
330
22
100
AcDbEntity
  8
0
  6
Continuous
 62
     7
100
AcDbLine
 10
-571.1057739257812
 20
503.9634704589843
 30
0.0
 11
-568.8881225585937
 21
502.2835083007812
 31
0.0
  0
LINE
  5
21B
330
22
100
AcDbEntity
  8
0
  6
DASHED
 62
     7
100
AcDbLine
 10
-563.8881225585937
 20
501.1767272949218
 30
0.0
 11
-563.8881225585937
 21
502.6767272949219
 31
0.0
  0
LINE
  5
21C
330
22
100
AcDbEntity
  8
0
  6
CENTER
 62
     7
100
AcDbLine
 10
-574.70849609375
 20
501.1767272949218
 30
0.0
 11
-562.5376586914064
 21
501.1767272949218
 31
0.0
  0
LINE
  5
21D
330
22
100
AcDbEntity
  8
0
  6
Continuous
 62
     7
100
AcDbLine
 10
-571.1057739257812
 20
503.9634704589843
 30
0.0
 11
-571.3775634765625
 21
503.6917114257812
 31
0.0
  0
LINE
  5
21E
330
22
100
AcDbEntity
  8
0
  6
CENTER
 62
     7
100
AcDbLine
 10
-568.8881225585937
 20
506.8908081054687
 30
0.0
 11
-568.8881225585937
 21
495.5137329101563
 31
0.0
  0
LINE
  5
21F
330
22
100
AcDbEntity
  8
0
  6
DASHED
 62
     7
100
AcDbLine
 10
-568.8881225585937
 20
496.1767272949218
 30
0.0
 11
-570.3881225585937
 21
496.1767272949218
 31
0.0
  0
LINE
  5
220
330
22
100
AcDbEntity
  8
0
  6
Continuous
 62
     7
100
AcDbLine
 10
-566.1119384765624
 20
503.4345397949218
 30
0.0
 11
-567.8068847656249
 21
501.2022705078124
 31
0.0
  0
LINE
  5
221
330
22
100
AcDbEntity
  8
0
  6
Continuous
 62
     7
100
AcDbLine
 10
-566.3839111328124
 20
503.7064819335937
 30
0.0
 11
-566.1119384765624
 21
503.4345397949218
 31
0.0
  0
LINE
  5
222
330
22
100
AcDbEntity
  8
0
  6
Continuous
 62
     7
100
AcDbLine
 10
-566.1119384765624
 20
503.4345397949218
 30
0.0
 11
-567.8068847656249
 21
501.2022705078124
 31
0.0
  0
LINE
  5
223
330
22
100
AcDbEntity
  8
0
  6
Continuous
 62
     7
100
AcDbLine
 10
-566.6704101562499
 20
498.4410705566406
 30
0.0
 11
-566.3986816406249
 21
498.7128295898438
 31
0.0
  0
LINE
  5
224
330
22
100
AcDbEntity
  8
0
  6
Continuous
 62
     7
100
AcDbLine
 10
-571.120361328125
 20
498.4260864257812
 30
0.0
 11
-568.8881225585937
 21
500.1210021972656
 31
0.0
  0
LINE
  5
225
330
22
100
AcDbEntity
  8
0
  6
Continuous
 62
     7
100
AcDbLine
 10
-566.6704101562499
 20
498.4410705566406
 30
0.0
 11
-568.8881225585937
 21
500.1210021972656
 31
0.0
  0
LINE
  5
226
330
22
100
AcDbEntity
  8
0
  6
Continuous
 62
     7
100
AcDbLine
 10
-499.8881225585938
 20
476.6767272949218
 30
0.0
 11
-499.8881225585938
 21
445.6767272949218
 31
0.0
  0
LINE
  5
227
330
22
100
AcDbEntity
  8
0
  6
Continuous
 62
     7
100
AcDbLine
 10
-509.8881225585937
 20
455.6767272949218
 30
0.0
 11
-509.8881225585937
 21
424.6767272949218
 31
0.0
  0
LINE
  5
228
330
22
100
AcDbEntity
  8
0
  6
Continuous
 62
     7
100
AcDbLine
 10
-514.8881225585938
 20
455.6767272949218
 30
0.0
 11
-514.8881225585938
 21
424.6767272949218
 31
0.0
  0
LINE
  5
229
330
22
100
AcDbEntity
  8
0
  6
Continuous
 62
     7
100
AcDbLine
 10
-469.8881225585938
 20
455.6767272949218
 30
0.0
 11
-469.8881225585938
 21
424.6767272949218
 31
0.0
  0
LINE
  5
22A
330
22
100
AcDbEntity
  8
0
  6
Continuous
 62
     7
100
AcDbLine
 10
-474.8881225585938
 20
455.6767272949218
 30
0.0
 11
-474.8881225585938
 21
424.6767272949218
 31
0.0
  0
LINE
  5
22B
330
22
100
AcDbEntity
  8
0
  6
Continuous
 62
     7
100
AcDbLine
 10
-494.8881225585938
 20
455.6767272949218
 30
0.0
 11
-494.8881225585938
 21
424.6767272949218
 31
0.0
  0
LINE
  5
22C
330
22
100
AcDbEntity
  8
0
  6
Continuous
 62
     7
100
AcDbLine
 10
-464.8881225585937
 20
476.6767272949218
 30
0.0
 11
-464.8881225585937
 21
445.6767272949218
 31
0.0
  0
LINE
  5
22D
330
22
100
AcDbEntity
  8
0
  6
Continuous
 62
     7
100
AcDbLine
 10
-416.8881225585938
 20
476.6767272949218
 30
0.0
 11
-416.8881225585938
 21
445.6767272949218
 31
0.0
  0
LINE
  5
22E
330
22
100
AcDbEntity
  8
0
  6
Continuous
 62
     7
100
AcDbLine
 10
-426.8881225585937
 20
455.6767272949218
 30
0.0
 11
-426.8881225585937
 21
424.6767272949218
 31
0.0
  0
LINE
  5
22F
330
22
100
AcDbEntity
  8
0
  6
Continuous
 62
     7
100
AcDbLine
 10
-431.8881225585938
 20
455.6767272949218
 30
0.0
 11
-431.8881225585938
 21
424.6767272949218
 31
0.0
  0
LINE
  5
230
330
22
100
AcDbEntity
  8
0
  6
Continuous
 62
     7
100
AcDbLine
 10
-411.8881225585938
 20
455.6767272949218
 30
0.0
 11
-411.8881225585938
 21
424.6767272949218
 31
0.0
  0
LINE
  5
231
330
22
100
AcDbEntity
  8
0
  6
Continuous
 62
     7
100
AcDbLine
 10
-406.8881225585938
 20
455.6767272949218
 30
0.0
 11
-406.8881225585938
 21
424.6767272949218
 31
0.0
  0
LINE
  5
232
330
22
100
AcDbEntity
  8
0
  6
Continuous
 62
     7
100
AcDbLine
 10
-449.8881225585938
 20
455.6767272949218
 30
0.0
 11
-449.8881225585938
 21
424.6767272949218
 31
0.0
  0
LINE
  5
233
330
22
100
AcDbEntity
  8
0
  6
Continuous
 62
     7
100
AcDbLine
 10
-459.8881225585937
 20
476.6767272949218
 30
0.0
 11
-459.8881225585937
 21
445.6767272949218
 31
0.0
  0
LINE
  5
234
330
22
100
AcDbEntity
  8
0
  6
Continuous
 62
     7
100
AcDbLine
 10
-454.8881225585938
 20
455.6767272949218
 30
0.0
 11
-454.8881225585938
 21
424.6767272949218
 31
0.0
  0
LINE
  5
235
330
22
100
AcDbEntity
  8
0
  6
Continuous
 62
     7
100
AcDbLine
 10
-489.8881225585937
 20
455.6767272949218
 30
0.0
 11
-489.8881225585937
 21
424.6767272949218
 31
0.0
  0
LINE
  5
236
330
22
100
AcDbEntity
  8
0
  6
Continuous
 62
     7
100
AcDbLine
 10
-484.8881225585937
 20
476.6767272949218
 30
0.0
 11
-484.8881225585937
 21
445.6767272949218
 31
0.0
  0
LINE
  5
237
330
22
100
AcDbEntity
  8
0
  6
Continuous
 62
     7
100
AcDbLine
 10
-479.8881225585938
 20
476.6767272949218
 30
0.0
 11
-479.8881225585938
 21
445.6767272949218
 31
0.0
  0
LINE
  5
238
330
22
100
AcDbEntity
  8
0
  6
Continuous
 62
     7
100
AcDbLine
 10
-519.8881225585938
 20
476.6767272949218
 30
0.0
 11
-519.8881225585938
 21
445.6767272949218
 31
0.0
  0
LINE
  5
239
330
22
100
AcDbEntity
  8
0
  6
Continuous
 62
     7
100
AcDbLine
 10
-504.8881225585938
 20
476.6767272949218
 30
0.0
 11
-504.8881225585938
 21
445.6767272949218
 31
0.0
  0
LINE
  5
23A
330
22
100
AcDbEntity
  8
0
  6
Continuous
 62
     7
100
AcDbLine
 10
-443.664306640625
 20
498.9444885253906
 30
0.0
 11
-441.9693603515624
 21
501.1767272949218
 31
0.0
  0
LINE
  5
23B
330
22
100
AcDbEntity
  8
0
  6
Continuous
 62
     7
100
AcDbLine
 10
-443.1058044433593
 20
503.9379272460938
 30
0.0
 11
-440.8881225585938
 21
502.2579956054688
 31
0.0
  0
LINE
  5
23C
330
22
100
AcDbEntity
  8
0
  6
Continuous
 62
     7
100
AcDbLine
 10
-438.6558532714843
 20
503.9529418945313
 30
0.0
 11
-440.8881225585938
 21
502.2579956054688
 31
0.0
  0
LINE
  5
23D
330
22
100
AcDbEntity
  8
0
  6
Continuous
 62
     7
100
AcDbLine
 10
-438.1269226074218
 20
498.9590759277343
 30
0.0
 11
-439.8068542480468
 21
501.1767272949218
 31
0.0
  0
LINE
  5
23E
330
22
100
AcDbEntity
  8
0
  6
Continuous
 62
     7
100
AcDbLine
 10
-438.6704406738281
 20
498.4155578613281
 30
0.0
 11
-438.398681640625
 21
498.6873168945312
 31
0.0
  0
LINE
  5
23F
330
22
100
AcDbEntity
  8
0
  6
Continuous
 62
     7
100
AcDbLine
 10
-443.392333984375
 20
498.6725158691406
 30
0.0
 11
-443.1203613281249
 21
498.4005432128906
 31
0.0
  0
LINE
  5
240
330
22
100
AcDbEntity
  8
0
  6
Continuous
 62
     7
100
AcDbLine
 10
-443.392333984375
 20
498.6725158691406
 30
0.0
 11
-443.664306640625
 21
498.9444885253906
 31
0.0
  0
LINE
  5
241
330
22
100
AcDbEntity
  8
0
  6
Continuous
 62
     7
100
AcDbLine
 10
-443.392333984375
 20
498.6725158691406
 30
0.0
 11
-443.664306640625
 21
498.9444885253906
 31
0.0
  0
LINE
  5
242
330
22
100
AcDbEntity
  8
0
  6
Continuous
 62
     7
100
AcDbLine
 10
-443.392333984375
 20
498.6725158691406
 30
0.0
 11
-443.1203613281249
 21
498.4005432128906
 31
0.0
  0
LINE
  5
243
330
22
100
AcDbEntity
  8
0
  6
Continuous
 62
     7
100
AcDbLine
 10
-443.664306640625
 20
498.9444885253906
 30
0.0
 11
-441.9693603515624
 21
501.1767272949218
 31
0.0
  0
LINE
  5
244
330
22
100
AcDbEntity
  8
0
  6
Continuous
 62
     7
100
AcDbLine
 10
-443.6493225097656
 20
503.3944091796874
 30
0.0
 11
-441.9693603515624
 21
501.1767272949218
 31
0.0
  0
LINE
  5
245
330
22
100
AcDbEntity
  8
0
  6
Continuous
 62
     7
100
AcDbLine
 10
-438.6704406738281
 20
498.4155578613281
 30
0.0
 11
-440.8881225585938
 21
500.0954895019531
 31
0.0
  0
LINE
  5
246
330
22
100
AcDbEntity
  8
0
  6
Continuous
 62
     7
100
AcDbLine
 10
-443.1203613281249
 20
498.4005432128906
 30
0.0
 11
-440.8881225585938
 21
500.0954895019531
 31
0.0
  0
LINE
  5
247
330
22
100
AcDbEntity
  8
0
  6
Continuous
 62
     7
100
AcDbLine
 10
-438.6704406738281
 20
498.4155578613281
 30
0.0
 11
-438.398681640625
 21
498.6873168945312
 31
0.0
  0
LINE
  5
248
330
22
100
AcDbEntity
  8
0
  6
Continuous
 62
     7
100
AcDbLine
 10
-438.1119384765624
 20
503.4089965820313
 30
0.0
 11
-439.8068542480468
 21
501.1767272949218
 31
0.0
  0
LINE
  5
249
330
22
100
AcDbEntity
  8
0
  6
Continuous
 62
     7
100
AcDbLine
 10
-438.1119384765624
 20
503.4089965820313
 30
0.0
 11
-439.8068542480468
 21
501.1767272949218
 31
0.0
  0
LINE
  5
24A
330
22
100
AcDbEntity
  8
0
  6
Continuous
 62
     7
100
AcDbLine
 10
-443.1058044433593
 20
503.9379272460938
 30
0.0
 11
-440.8881225585938
 21
502.2579956054688
 31
0.0
  0
LINE
  5
24B
330
22
100
AcDbEntity
  8
0
  6
Continuous
 62
     7
100
AcDbLine
 10
-443.6493225097656
 20
503.3944091796874
 30
0.0
 11
-441.9693603515624
 21
501.1767272949218
 31
0.0
  0
LINE
  5
24C
330
22
100
AcDbEntity
  8
0
  6
Continuous
 62
     7
100
AcDbLine
 10
-421.8881225585938
 20
476.6767272949218
 30
0.0
 11
-421.8881225585938
 21
445.6767272949218
 31
0.0
  0
LINE
  5
24D
330
22
100
AcDbEntity
  8
0
  6
Continuous
 62
     7
100
AcDbLine
 10
-438.3838806152343
 20
503.6809692382813
 30
0.0
 11
-438.1119384765624
 21
503.4089965820313
 31
0.0
  0
LINE
  5
24E
330
22
100
AcDbEntity
  8
0
  6
Continuous
 62
     7
100
AcDbLine
 10
-438.3838806152343
 20
503.6809692382813
 30
0.0
 11
-438.6558532714843
 21
503.9529418945313
 31
0.0
  0
LINE
  5
24F
330
22
100
AcDbEntity
  8
0
  6
Continuous
 62
     7
100
AcDbLine
 10
-438.3838806152343
 20
503.6809692382813
 30
0.0
 11
-438.1119384765624
 21
503.4089965820313
 31
0.0
  0
LINE
  5
250
330
22
100
AcDbEntity
  8
0
  6
Continuous
 62
     7
100
AcDbLine
 10
-438.1269226074218
 20
498.9590759277343
 30
0.0
 11
-438.398681640625
 21
498.6873168945312
 31
0.0
  0
LINE
  5
251
330
22
100
AcDbEntity
  8
0
  6
Continuous
 62
     7
100
AcDbLine
 10
-438.3838806152343
 20
503.6809692382813
 30
0.0
 11
-438.6558532714843
 21
503.9529418945313
 31
0.0
  0
LINE
  5
252
330
22
100
AcDbEntity
  8
0
  6
Continuous
 62
     7
100
AcDbLine
 10
-438.1269226074218
 20
498.9590759277343
 30
0.0
 11
-438.398681640625
 21
498.6873168945312
 31
0.0
  0
LINE
  5
253
330
22
100
AcDbEntity
  8
0
  6
Continuous
 62
     7
100
AcDbLine
 10
-443.6493225097656
 20
503.3944091796874
 30
0.0
 11
-443.3775634765624
 21
503.6661682128906
 31
0.0
  0
LINE
  5
254
330
22
100
AcDbEntity
  8
0
  6
Continuous
 62
     7
100
AcDbLine
 10
-443.1058044433593
 20
503.9379272460938
 30
0.0
 11
-443.3775634765624
 21
503.6661682128906
 31
0.0
  0
LINE
  5
255
330
22
100
AcDbEntity
  8
0
  6
Continuous
 62
     7
100
AcDbLine
 10
-443.6493225097656
 20
503.3944091796874
 30
0.0
 11
-443.3775634765624
 21
503.6661682128906
 31
0.0
  0
LINE
  5
256
330
22
100
AcDbEntity
  8
0
  6
Continuous
 62
     7
100
AcDbLine
 10
-438.6704406738281
 20
498.4155578613281
 30
0.0
 11
-440.8881225585938
 21
500.0954895019531
 31
0.0
  0
LINE
  5
257
330
22
100
AcDbEntity
  8
0
  6
Continuous
 62
     7
100
AcDbLine
 10
-438.1269226074218
 20
498.9590759277343
 30
0.0
 11
-439.8068542480468
 21
501.1767272949218
 31
0.0
  0
LINE
  5
258
330
22
100
AcDbEntity
  8
0
  6
DASHED
 62
     7
100
AcDbLine
 10
-445.8881225585938
 20
501.1767272949218
 30
0.0
 11
-445.8881225585938
 21
502.6767272949219
 31
0.0
  0
LINE
  5
259
330
22
100
AcDbEntity
  8
0
  6
CENTER
 62
     7
100
AcDbLine
 10
-446.70849609375
 20
501.1767272949218
 30
0.0
 11
-434.5376586914063
 21
501.1767272949218
 31
0.0
  0
LINE
  5
25A
330
22
100
AcDbEntity
  8
0
  6
Continuous
 62
     7
100
AcDbLine
 10
-438.6558532714843
 20
503.9529418945313
 30
0.0
 11
-440.8881225585938
 21
502.2579956054688
 31
0.0
  0
LINE
  5
25B
330
22
100
AcDbEntity
  8
0
  6
Continuous
 62
     7
100
AcDbLine
 10
-443.1203613281249
 20
498.4005432128906
 30
0.0
 11
-440.8881225585938
 21
500.0954895019531
 31
0.0
  0
LINE
  5
25C
330
22
100
AcDbEntity
  8
0
  6
Continuous
 62
     7
100
AcDbLine
 10
-443.1058044433593
 20
503.9379272460938
 30
0.0
 11
-443.3775634765624
 21
503.6661682128906
 31
0.0
  0
LINE
  5
25D
330
22
100
AcDbEntity
  8
0
  6
Continuous
 62
     7
100
AcDbLine
 10
-351.8881225585938
 20
248.6767425537109
 30
0.0
 11
-351.8881225585938
 21
279.6767272949219
 31
0.0
  0
LINE
  5
25E
330
22
100
AcDbEntity
  8
0
  6
Continuous
 62
     7
100
AcDbLine
 10
-341.8881225585938
 20
248.6767425537109
 30
0.0
 11
-341.8881225585938
 21
258.6767272949219
 31
0.0
  0
LINE
  5
25F
330
22
100
AcDbEntity
  8
0
  6
Continuous
 62
     7
100
AcDbLine
 10
-376.8881225585938
 20
248.6767425537109
 30
0.0
 11
-376.8881225585938
 21
258.6767272949219
 31
0.0
  0
LINE
  5
260
330
22
100
AcDbEntity
  8
0
  6
Continuous
 62
     7
100
AcDbLine
 10
-346.8881225585938
 20
248.6767425537109
 30
0.0
 11
-346.8881225585938
 21
279.6767272949219
 31
0.0
  0
LINE
  5
261
330
22
100
AcDbEntity
  8
0
  6
Continuous
 62
     7
100
AcDbLine
 10
-391.8881225585938
 20
248.6767425537109
 30
0.0
 11
-391.8881225585938
 21
279.6767272949219
 31
0.0
  0
LINE
  5
262
330
22
100
AcDbEntity
  8
0
  6
Continuous
 62
     7
100
AcDbLine
 10
-386.8881225585938
 20
248.6767425537109
 30
0.0
 11
-386.8881225585938
 21
279.6767272949219
 31
0.0
  0
LINE
  5
263
330
22
100
AcDbEntity
  8
0
  6
Continuous
 62
     7
100
AcDbLine
 10
-336.8881225585938
 20
269.676727294922
 30
0.0
 11
-336.8881225585938
 21
300.6767272949219
 31
0.0
  0
LINE
  5
264
330
22
100
AcDbEntity
  8
0
  6
Continuous
 62
     7
100
AcDbLine
 10
-336.8881225585938
 20
248.6767425537109
 30
0.0
 11
-336.8881225585938
 21
258.6767272949219
 31
0.0
  0
LINE
  5
265
330
22
100
AcDbEntity
  8
0
  6
DASHED
 62
     7
100
AcDbLine
 10
-435.8881225585938
 20
501.1767272949218
 30
0.0
 11
-435.8881225585938
 21
502.6767272949219
 31
0.0
  0
LINE
  5
266
330
22
100
AcDbEntity
  8
0
  6
Continuous
 62
     7
100
AcDbLine
 10
-341.8881225585938
 20
269.676727294922
 30
0.0
 11
-341.8881225585938
 21
300.6767272949219
 31
0.0
  0
LINE
  5
267
330
22
100
AcDbEntity
  8
0
  6
Continuous
 62
     7
100
AcDbLine
 10
-331.8881225585938
 20
248.6767425537109
 30
0.0
 11
-331.8881225585938
 21
279.6767272949219
 31
0.0
  0
LINE
  5
268
330
22
100
AcDbEntity
  8
0
  6
Continuous
 62
     7
100
AcDbLine
 10
-381.8881225585938
 20
269.676727294922
 30
0.0
 11
-381.8881225585938
 21
300.6767272949219
 31
0.0
  0
LINE
  5
269
330
22
100
AcDbEntity
  8
0
  6
Continuous
 62
     7
100
AcDbLine
 10
-376.8881225585938
 20
269.676727294922
 30
0.0
 11
-376.8881225585938
 21
300.6767272949219
 31
0.0
  0
LINE
  5
26A
330
22
100
AcDbEntity
  8
0
  6
Continuous
 62
     7
100
AcDbLine
 10
-356.8881225585938
 20
269.676727294922
 30
0.0
 11
-356.8881225585938
 21
300.6767272949219
 31
0.0
  0
LINE
  5
26B
330
22
100
AcDbEntity
  8
0
  6
Continuous
 62
     7
100
AcDbLine
 10
-361.8881225585938
 20
269.676727294922
 30
0.0
 11
-361.8881225585938
 21
300.6767272949219
 31
0.0
  0
LINE
  5
26C
330
22
100
AcDbEntity
  8
0
  6
Continuous
 62
     7
100
AcDbLine
 10
-381.8881225585938
 20
248.6767425537109
 30
0.0
 11
-381.8881225585938
 21
258.6767272949219
 31
0.0
  0
LINE
  5
26D
330
22
100
AcDbEntity
  8
0
  6
Continuous
 62
     7
100
AcDbLine
 10
-361.8881225585938
 20
248.6767425537109
 30
0.0
 11
-361.8881225585938
 21
258.6767272949219
 31
0.0
  0
LINE
  5
26E
330
22
100
AcDbEntity
  8
0
  6
Continuous
 62
     7
100
AcDbLine
 10
-356.8881225585938
 20
248.6767425537109
 30
0.0
 11
-356.8881225585938
 21
258.6767272949219
 31
0.0
  0
LINE
  5
26F
330
22
100
AcDbEntity
  8
0
  6
Continuous
 62
     7
100
AcDbLine
 10
-366.8881225585938
 20
248.6767425537109
 30
0.0
 11
-366.8881225585938
 21
279.6767272949219
 31
0.0
  0
LINE
  5
270
330
22
100
AcDbEntity
  8
0
  6
Continuous
 62
     7
100
AcDbLine
 10
-371.8881225585938
 20
248.6767425537109
 30
0.0
 11
-371.8881225585938
 21
279.6767272949219
 31
0.0
  0
LINE
  5
271
330
22
100
AcDbEntity
  8
0
  6
Continuous
 62
     7
100
AcDbLine
 10
-310.3838806152344
 20
247.6809692382814
 30
0.0
 11
-310.6558532714844
 21
247.9529266357422
 31
0.0
  0
LINE
  5
272
330
22
100
AcDbEntity
  8
0
  6
Continuous
 62
     7
100
AcDbLine
 10
-310.1119384765625
 20
247.4089965820313
 30
0.0
 11
-311.8068542480469
 21
245.1767425537109
 31
0.0
  0
LINE
  5
273
330
22
100
AcDbEntity
  8
0
  6
Continuous
 62
     7
100
AcDbLine
 10
-310.3838806152344
 20
247.6809692382814
 30
0.0
 11
-310.1119384765625
 21
247.4089965820313
 31
0.0
  0
LINE
  5
274
330
22
100
AcDbEntity
  8
0
  6
Continuous
 62
     7
100
AcDbLine
 10
-310.1119384765625
 20
247.4089965820313
 30
0.0
 11
-311.8068542480469
 21
245.1767425537109
 31
0.0
  0
LINE
  5
275
330
22
100
AcDbEntity
  8
0
  6
Continuous
 62
     7
100
AcDbLine
 10
-310.6704406738281
 20
242.4155426025391
 30
0.0
 11
-310.398681640625
 21
242.6873016357422
 31
0.0
  0
LINE
  5
276
330
22
100
AcDbEntity
  8
0
  6
Continuous
 62
     7
100
AcDbLine
 10
-315.120361328125
 20
242.4005432128906
 30
0.0
 11
-312.8881225585938
 21
244.0954895019531
 31
0.0
  0
LINE
  5
277
330
22
100
AcDbEntity
  8
0
  6
Continuous
 62
     7
100
AcDbLine
 10
-310.6704406738281
 20
242.4155426025391
 30
0.0
 11
-312.8881225585938
 21
244.0954895019531
 31
0.0
  0
LINE
  5
278
330
22
100
AcDbEntity
  8
0
  6
Continuous
 62
     7
100
AcDbLine
 10
-315.6493225097656
 20
247.3944091796875
 30
0.0
 11
-313.9693603515625
 21
245.1767425537109
 31
0.0
  0
LINE
  5
279
330
22
100
AcDbEntity
  8
0
  6
Continuous
 62
     7
100
AcDbLine
 10
-316.8881225585938
 20
253.6767425537109
 30
0.0
 11
-316.8881225585938
 21
258.6767272949219
 31
0.0
  0
LINE
  5
27A
330
22
100
AcDbEntity
  8
0
  6
Continuous
 62
     7
100
AcDbLine
 10
-316.8881225585938
 20
269.676727294922
 30
0.0
 11
-316.8881225585938
 21
300.6767272949219
 31
0.0
  0
LINE
  5
27B
330
22
100
AcDbEntity
  8
0
  6
Continuous
 62
     7
100
AcDbLine
 10
-315.664306640625
 20
242.9444732666016
 30
0.0
 11
-313.9693603515625
 21
245.1767425537109
 31
0.0
  0
LINE
  5
27C
330
22
100
AcDbEntity
  8
0
  6
Continuous
 62
     7
100
AcDbLine
 10
-315.392333984375
 20
242.6725158691406
 30
0.0
 11
-315.120361328125
 21
242.4005432128906
 31
0.0
  0
LINE
  5
27D
330
22
100
AcDbEntity
  8
0
  6
Continuous
 62
     7
100
AcDbLine
 10
-315.392333984375
 20
242.6725158691406
 30
0.0
 11
-315.664306640625
 21
242.9444732666016
 31
0.0
  0
LINE
  5
27E
330
22
100
AcDbEntity
  8
0
  6
Continuous
 62
     7
100
AcDbLine
 10
-315.392333984375
 20
242.6725158691406
 30
0.0
 11
-315.664306640625
 21
242.9444732666016
 31
0.0
  0
LINE
  5
27F
330
22
100
AcDbEntity
  8
0
  6
Continuous
 62
     7
100
AcDbLine
 10
-315.392333984375
 20
242.6725158691406
 30
0.0
 11
-315.120361328125
 21
242.4005432128906
 31
0.0
  0
LINE
  5
280
330
22
100
AcDbEntity
  8
0
  6
Continuous
 62
     7
100
AcDbLine
 10
-310.6704406738281
 20
242.4155426025391
 30
0.0
 11
-310.398681640625
 21
242.6873016357422
 31
0.0
  0
LINE
  5
281
330
22
100
AcDbEntity
  8
0
  6
Continuous
 62
     7
100
AcDbLine
 10
-310.1269226074219
 20
242.9590606689453
 30
0.0
 11
-310.398681640625
 21
242.6873016357422
 31
0.0
  0
LINE
  5
282
330
22
100
AcDbEntity
  8
0
  6
Continuous
 62
     7
100
AcDbLine
 10
-310.1269226074219
 20
242.9590606689453
 30
0.0
 11
-311.8068542480469
 21
245.1767425537109
 31
0.0
  0
LINE
  5
283
330
22
100
AcDbEntity
  8
0
  6
Continuous
 62
     7
100
AcDbLine
 10
-310.1269226074219
 20
242.9590606689453
 30
0.0
 11
-310.398681640625
 21
242.6873016357422
 31
0.0
  0
LINE
  5
284
330
22
100
AcDbEntity
  8
0
  6
Continuous
 62
     7
100
AcDbLine
 10
-315.664306640625
 20
242.9444732666016
 30
0.0
 11
-313.9693603515625
 21
245.1767425537109
 31
0.0
  0
LINE
  5
285
330
22
100
AcDbEntity
  8
0
  6
Continuous
 62
     7
100
AcDbLine
 10
-326.8881225585938
 20
248.6767425537109
 30
0.0
 11
-326.8881225585938
 21
279.6767272949219
 31
0.0
  0
LINE
  5
286
330
22
100
AcDbEntity
  8
0
  6
Continuous
 62
     7
100
AcDbLine
 10
-321.8881225585938
 20
253.6767425537109
 30
0.0
 11
-321.8881225585938
 21
258.6767272949219
 31
0.0
  0
LINE
  5
287
330
22
100
AcDbEntity
  8
0
  6
Continuous
 62
     7
100
AcDbLine
 10
-321.8881225585938
 20
269.676727294922
 30
0.0
 11
-321.8881225585938
 21
300.6767272949219
 31
0.0
  0
LINE
  5
288
330
22
100
AcDbEntity
  8
0
  6
Continuous
 62
     7
100
AcDbLine
 10
-315.1058044433594
 20
247.9379425048828
 30
0.0
 11
-312.8881225585938
 21
246.2579803466797
 31
0.0
  0
LINE
  5
289
330
22
100
AcDbEntity
  8
0
  6
Continuous
 62
     7
100
AcDbLine
 10
-310.6558532714844
 20
247.9529266357422
 30
0.0
 11
-312.8881225585938
 21
246.2579803466797
 31
0.0
  0
LINE
  5
28A
330
22
100
AcDbEntity
  8
0
  6
Continuous
 62
     7
100
AcDbLine
 10
-310.3838806152344
 20
247.6809692382814
 30
0.0
 11
-310.6558532714844
 21
247.9529266357422
 31
0.0
  0
LINE
  5
28B
330
22
100
AcDbEntity
  8
0
  6
Continuous
 62
     7
100
AcDbLine
 10
-315.1058044433594
 20
247.9379425048828
 30
0.0
 11
-312.8881225585938
 21
246.2579803466797
 31
0.0
  0
LINE
  5
28C
330
22
100
AcDbEntity
  8
0
  6
DASHED
 62
     7
100
AcDbLine
 10
-317.8881225585938
 20
245.1767425537109
 30
0.0
 11
-317.8881225585938
 21
243.6767425537109
 31
0.0
  0
LINE
  5
28D
330
22
100
AcDbEntity
  8
0
  6
DASHED
 62
     7
100
AcDbLine
 10
-312.8881225585938
 20
250.1767425537109
 30
0.0
 11
-311.3881225585938
 21
250.1767425537109
 31
0.0
  0
LINE
  5
28E
330
22
100
AcDbEntity
  8
0
  6
CENTER
 62
     7
100
AcDbLine
 10
-312.8881225585938
 20
239.4626770019531
 30
0.0
 11
-312.8881225585938
 21
250.8397521972656
 31
0.0
  0
LINE
  5
28F
330
22
100
AcDbEntity
  8
0
  6
CENTER
 62
     7
100
AcDbLine
 10
-307.0677490234375
 20
245.1767425537109
 30
0.0
 11
-319.2385559082031
 21
245.1767425537109
 31
0.0
  0
LINE
  5
290
330
22
100
AcDbEntity
  8
0
  6
Continuous
 62
     7
100
AcDbLine
 10
-315.1058044433594
 20
247.9379425048828
 30
0.0
 11
-315.3775634765625
 21
247.6661682128906
 31
0.0
  0
LINE
  5
291
330
22
100
AcDbEntity
  8
0
  6
Continuous
 62
     7
100
AcDbLine
 10
-315.120361328125
 20
242.4005432128906
 30
0.0
 11
-312.8881225585938
 21
244.0954895019531
 31
0.0
  0
LINE
  5
292
330
22
100
AcDbEntity
  8
0
  6
Continuous
 62
     7
100
AcDbLine
 10
-310.6558532714844
 20
247.9529266357422
 30
0.0
 11
-312.8881225585938
 21
246.2579803466797
 31
0.0
  0
LINE
  5
293
330
22
100
AcDbEntity
  8
0
  6
Continuous
 62
     7
100
AcDbLine
 10
-310.3838806152344
 20
247.6809692382814
 30
0.0
 11
-310.1119384765625
 21
247.4089965820313
 31
0.0
  0
LINE
  5
294
330
22
100
AcDbEntity
  8
0
  6
Continuous
 62
     7
100
AcDbLine
 10
-310.1269226074219
 20
242.9590606689453
 30
0.0
 11
-311.8068542480469
 21
245.1767425537109
 31
0.0
  0
LINE
  5
295
330
22
100
AcDbEntity
  8
0
  6
Continuous
 62
     7
100
AcDbLine
 10
-310.6704406738281
 20
242.4155426025391
 30
0.0
 11
-312.8881225585938
 21
244.0954895019531
 31
0.0
  0
LINE
  5
296
330
22
100
AcDbEntity
  8
0
  6
Continuous
 62
     7
100
AcDbLine
 10
-315.6493225097656
 20
247.3944091796875
 30
0.0
 11
-315.3775634765625
 21
247.6661682128906
 31
0.0
  0
LINE
  5
297
330
22
100
AcDbEntity
  8
0
  6
Continuous
 62
     7
100
AcDbLine
 10
-315.1058044433594
 20
247.9379425048828
 30
0.0
 11
-315.3775634765625
 21
247.6661682128906
 31
0.0
  0
LINE
  5
298
330
22
100
AcDbEntity
  8
0
  6
Continuous
 62
     7
100
AcDbLine
 10
-315.6493225097656
 20
247.3944091796875
 30
0.0
 11
-315.3775634765625
 21
247.6661682128906
 31
0.0
  0
LINE
  5
299
330
22
100
AcDbEntity
  8
0
  6
Continuous
 62
     7
100
AcDbLine
 10
-336.8881225585938
 20
353.6767272949219
 30
0.0
 11
-336.8881225585938
 21
363.6767272949219
 31
0.0
  0
LINE
  5
29A
330
22
100
AcDbEntity
  8
0
  6
CENTER
 62
     7
100
AcDbLine
 10
-312.8881225585938
 20
367.3563537597656
 30
0.0
 11
-312.8881225585938
 21
379.5271911621094
 31
0.0
  0
LINE
  5
29B
330
22
100
AcDbEntity
  8
0
  6
Continuous
 62
     7
100
AcDbLine
 10
-376.8881225585938
 20
392.3518676757813
 30
0.0
 11
-376.8881225585938
 21
382.6767272949219
 31
0.0
  0
LINE
  5
29C
330
22
100
AcDbEntity
  8
0
  6
Continuous
 62
     7
100
AcDbLine
 10
-341.8881225585938
 20
392.3518676757813
 30
0.0
 11
-341.8881225585938
 21
382.6767272949219
 31
0.0
  0
LINE
  5
29D
330
22
100
AcDbEntity
  8
0
  6
Continuous
 62
     7
100
AcDbLine
 10
-361.8881225585938
 20
392.3518676757813
 30
0.0
 11
-361.8881225585938
 21
382.6767272949219
 31
0.0
  0
LINE
  5
29E
330
22
100
AcDbEntity
  8
0
  6
Continuous
 62
     7
100
AcDbLine
 10
-356.8881225585938
 20
392.3518676757813
 30
0.0
 11
-356.8881225585938
 21
382.6767272949219
 31
0.0
  0
LINE
  5
29F
330
22
100
AcDbEntity
  8
0
  6
Continuous
 62
     7
100
AcDbLine
 10
-336.8881225585938
 20
392.3518676757813
 30
0.0
 11
-336.8881225585938
 21
382.6767272949219
 31
0.0
  0
LINE
  5
2A0
330
22
100
AcDbEntity
  8
0
  6
Continuous
 62
     7
100
AcDbLine
 10
-381.8881225585938
 20
392.3518676757813
 30
0.0
 11
-381.8881225585938
 21
382.6767272949219
 31
0.0
  0
LINE
  5
2A1
330
22
100
AcDbEntity
  8
0
  6
Continuous
 62
     7
100
AcDbLine
 10
-321.8881225585938
 20
392.3518676757813
 30
0.0
 11
-321.8881225585938
 21
382.6767272949219
 31
0.0
  0
LINE
  5
2A2
330
22
100
AcDbEntity
  8
0
  6
Continuous
 62
     7
100
AcDbLine
 10
-316.8881225585938
 20
392.3518676757813
 30
0.0
 11
-316.8881225585938
 21
382.6767272949219
 31
0.0
  0
LINE
  5
2A3
330
22
100
AcDbEntity
  8
0
  6
Continuous
 62
     7
100
AcDbLine
 10
-315.6493225097656
 20
247.3944091796875
 30
0.0
 11
-313.9693603515625
 21
245.1767425537109
 31
0.0
  0
LINE
  5
2A4
330
22
100
AcDbEntity
  8
0
  6
Continuous
 62
     7
100
AcDbLine
 10
-356.8881225585938
 20
353.6767272949219
 30
0.0
 11
-356.8881225585938
 21
363.6767272949219
 31
0.0
  0
LINE
  5
2A5
330
22
100
AcDbEntity
  8
0
  6
Continuous
 62
     7
100
AcDbLine
 10
-310.3838806152344
 20
375.6809692382813
 30
0.0
 11
-310.1119384765625
 21
375.4089965820313
 31
0.0
  0
LINE
  5
2A6
330
22
100
AcDbEntity
  8
0
  6
Continuous
 62
     7
100
AcDbLine
 10
-331.8881225585938
 20
332.6767272949219
 30
0.0
 11
-331.8881225585938
 21
363.6767272949219
 31
0.0
  0
LINE
  5
2A7
330
22
100
AcDbEntity
  8
0
  6
Continuous
 62
     7
100
AcDbLine
 10
-361.8881225585938
 20
353.6767272949219
 30
0.0
 11
-361.8881225585938
 21
363.6767272949219
 31
0.0
  0
LINE
  5
2A8
330
22
100
AcDbEntity
  8
0
  6
Continuous
 62
     7
100
AcDbLine
 10
-386.8881225585938
 20
332.6767272949219
 30
0.0
 11
-386.8881225585938
 21
363.6767272949219
 31
0.0
  0
LINE
  5
2A9
330
22
100
AcDbEntity
  8
0
  6
Continuous
 62
     7
100
AcDbLine
 10
-376.8881225585938
 20
353.6767272949219
 30
0.0
 11
-376.8881225585938
 21
363.6767272949219
 31
0.0
  0
LINE
  5
2AA
330
22
100
AcDbEntity
  8
0
  6
Continuous
 62
     7
100
AcDbLine
 10
-366.8881225585938
 20
332.6767272949219
 30
0.0
 11
-366.8881225585938
 21
363.6767272949219
 31
0.0
  0
LINE
  5
2AB
330
22
100
AcDbEntity
  8
0
  6
Continuous
 62
     7
100
AcDbLine
 10
-371.8881225585938
 20
332.6767272949219
 30
0.0
 11
-371.8881225585938
 21
363.6767272949219
 31
0.0
  0
LINE
  5
2AC
330
22
100
AcDbEntity
  8
0
  6
Continuous
 62
     7
100
AcDbLine
 10
-351.8881225585938
 20
332.6767272949219
 30
0.0
 11
-351.8881225585938
 21
363.6767272949219
 31
0.0
  0
LINE
  5
2AD
330
22
100
AcDbEntity
  8
0
  6
DASHED
 62
     7
100
AcDbLine
 10
-312.8881225585938
 20
378.1767272949219
 30
0.0
 11
-311.3881225585938
 21
378.1767272949219
 31
0.0
  0
LINE
  5
2AE
330
22
100
AcDbEntity
  8
0
  6
Continuous
 62
     7
100
AcDbLine
 10
-310.1119384765625
 20
375.4089965820313
 30
0.0
 11
-311.8068542480469
 21
373.1767272949219
 31
0.0
  0
LINE
  5
2AF
330
22
100
AcDbEntity
  8
0
  6
Continuous
 62
     7
100
AcDbLine
 10
-310.3838806152344
 20
375.6809692382813
 30
0.0
 11
-310.6558532714844
 21
375.9529418945313
 31
0.0
  0
LINE
  5
2B0
330
22
100
AcDbEntity
  8
0
  6
Continuous
 62
     7
100
AcDbLine
 10
-315.1058044433594
 20
375.9379272460938
 30
0.0
 11
-312.8881225585938
 21
374.2579956054688
 31
0.0
  0
LINE
  5
2B1
330
22
100
AcDbEntity
  8
0
  6
Continuous
 62
     7
100
AcDbLine
 10
-315.6493225097656
 20
375.3944091796875
 30
0.0
 11
-313.9693603515625
 21
373.1767272949219
 31
0.0
  0
LINE
  5
2B2
330
22
100
AcDbEntity
  8
0
  6
Continuous
 62
     7
100
AcDbLine
 10
-315.6493225097656
 20
375.3944091796875
 30
0.0
 11
-315.3775634765625
 21
375.6661682128906
 31
0.0
  0
LINE
  5
2B3
330
22
100
AcDbEntity
  8
0
  6
Continuous
 62
     7
100
AcDbLine
 10
-315.1058044433594
 20
375.9379272460938
 30
0.0
 11
-315.3775634765625
 21
375.6661682128906
 31
0.0
  0
LINE
  5
2B4
330
22
100
AcDbEntity
  8
0
  6
Continuous
 62
     7
100
AcDbLine
 10
-315.6493225097656
 20
375.3944091796875
 30
0.0
 11
-315.3775634765625
 21
375.6661682128906
 31
0.0
  0
LINE
  5
2B5
330
22
100
AcDbEntity
  8
0
  6
Continuous
 62
     7
100
AcDbLine
 10
-310.3838806152344
 20
375.6809692382813
 30
0.0
 11
-310.1119384765625
 21
375.4089965820313
 31
0.0
  0
LINE
  5
2B6
330
22
100
AcDbEntity
  8
0
  6
Continuous
 62
     7
100
AcDbLine
 10
-310.6558532714844
 20
375.9529418945313
 30
0.0
 11
-312.8881225585938
 21
374.2579956054688
 31
0.0
  0
LINE
  5
2B7
330
22
100
AcDbEntity
  8
0
  6
Continuous
 62
     7
100
AcDbLine
 10
-315.1058044433594
 20
375.9379272460938
 30
0.0
 11
-315.3775634765625
 21
375.6661682128906
 31
0.0
  0
LINE
  5
2B8
330
22
100
AcDbEntity
  8
0
  6
Continuous
 62
     7
100
AcDbLine
 10
-315.1058044433594
 20
375.9379272460938
 30
0.0
 11
-312.8881225585938
 21
374.2579956054688
 31
0.0
  0
LINE
  5
2B9
330
22
100
AcDbEntity
  8
0
  6
Continuous
 62
     7
100
AcDbLine
 10
-310.3838806152344
 20
375.6809692382813
 30
0.0
 11
-310.6558532714844
 21
375.9529418945313
 31
0.0
  0
LINE
  5
2BA
330
22
100
AcDbEntity
  8
0
  6
Continuous
 62
     7
100
AcDbLine
 10
-391.8881225585938
 20
332.6767272949219
 30
0.0
 11
-391.8881225585938
 21
363.6767272949219
 31
0.0
  0
LINE
  5
2BB
330
22
100
AcDbEntity
  8
0
  6
Continuous
 62
     7
100
AcDbLine
 10
-346.8881225585938
 20
332.6767272949219
 30
0.0
 11
-346.8881225585938
 21
363.6767272949219
 31
0.0
  0
LINE
  5
2BC
330
22
100
AcDbEntity
  8
0
  6
Continuous
 62
     7
100
AcDbLine
 10
-381.8881225585938
 20
353.6767272949219
 30
0.0
 11
-381.8881225585938
 21
363.6767272949219
 31
0.0
  0
LINE
  5
2BD
330
22
100
AcDbEntity
  8
0
  6
Continuous
 62
     7
100
AcDbLine
 10
-341.8881225585938
 20
353.6767272949219
 30
0.0
 11
-341.8881225585938
 21
363.6767272949219
 31
0.0
  0
LINE
  5
2BE
330
22
100
AcDbEntity
  8
0
  6
DASHED
 62
     7
100
AcDbLine
 10
-312.8881225585938
 20
368.1767272949219
 30
0.0
 11
-311.3881225585938
 21
368.1767272949219
 31
0.0
  0
LINE
  5
2BF
330
22
100
AcDbEntity
  8
0
  6
Continuous
 62
     7
100
AcDbLine
 10
-310.6704406738281
 20
370.4155578613281
 30
0.0
 11
-312.8881225585938
 21
372.0954895019531
 31
0.0
  0
LINE
  5
2C0
330
22
100
AcDbEntity
  8
0
  6
Continuous
 62
     7
100
AcDbLine
 10
-310.1269226074219
 20
370.9590759277344
 30
0.0
 11
-311.8068542480469
 21
373.1767272949219
 31
0.0
  0
LINE
  5
2C1
330
22
100
AcDbEntity
  8
0
  6
Continuous
 62
     7
100
AcDbLine
 10
-310.6558532714844
 20
375.9529418945313
 30
0.0
 11
-312.8881225585938
 21
374.2579956054688
 31
0.0
  0
LINE
  5
2C2
330
22
100
AcDbEntity
  8
0
  6
Continuous
 62
     7
100
AcDbLine
 10
-315.6493225097656
 20
375.3944091796875
 30
0.0
 11
-313.9693603515625
 21
373.1767272949219
 31
0.0
  0
LINE
  5
2C3
330
22
100
AcDbEntity
  8
0
  6
Continuous
 62
     7
100
AcDbLine
 10
-310.1119384765625
 20
375.4089965820313
 30
0.0
 11
-311.8068542480469
 21
373.1767272949219
 31
0.0
  0
LINE
  5
2C4
330
22
100
AcDbEntity
  8
0
  6
Continuous
 62
     7
100
AcDbLine
 10
-315.120361328125
 20
370.4005432128906
 30
0.0
 11
-312.8881225585938
 21
372.0954895019531
 31
0.0
  0
LINE
  5
2C5
330
22
100
AcDbEntity
  8
0
  6
Continuous
 62
     7
100
AcDbLine
 10
-315.664306640625
 20
370.9444885253906
 30
0.0
 11
-313.9693603515625
 21
373.1767272949219
 31
0.0
  0
LINE
  5
2C6
330
22
100
AcDbEntity
  8
0
  6
Continuous
 62
     7
100
AcDbLine
 10
-310.1269226074219
 20
370.9590759277344
 30
0.0
 11
-310.398681640625
 21
370.6873168945313
 31
0.0
  0
LINE
  5
2C7
330
22
100
AcDbEntity
  8
0
  6
Continuous
 62
     7
100
AcDbLine
 10
-310.1269226074219
 20
370.9590759277344
 30
0.0
 11
-311.8068542480469
 21
373.1767272949219
 31
0.0
  0
LINE
  5
2C8
330
22
100
AcDbEntity
  8
0
  6
Continuous
 62
     7
100
AcDbLine
 10
-310.1269226074219
 20
370.9590759277344
 30
0.0
 11
-310.398681640625
 21
370.6873168945313
 31
0.0
  0
LINE
  5
2C9
330
22
100
AcDbEntity
  8
0
  6
Continuous
 62
     7
100
AcDbLine
 10
-310.6704406738281
 20
370.4155578613281
 30
0.0
 11
-310.398681640625
 21
370.6873168945313
 31
0.0
  0
LINE
  5
2CA
330
22
100
AcDbEntity
  8
0
  6
Continuous
 62
     7
100
AcDbLine
 10
-315.392333984375
 20
370.6725158691406
 30
0.0
 11
-315.120361328125
 21
370.4005432128906
 31
0.0
  0
LINE
  5
2CB
330
22
100
AcDbEntity
  8
0
  6
Continuous
 62
     7
100
AcDbLine
 10
-315.392333984375
 20
370.6725158691406
 30
0.0
 11
-315.664306640625
 21
370.9444885253906
 31
0.0
  0
LINE
  5
2CC
330
22
100
AcDbEntity
  8
0
  6
Continuous
 62
     7
100
AcDbLine
 10
-315.392333984375
 20
370.6725158691406
 30
0.0
 11
-315.664306640625
 21
370.9444885253906
 31
0.0
  0
LINE
  5
2CD
330
22
100
AcDbEntity
  8
0
  6
Continuous
 62
     7
100
AcDbLine
 10
-315.392333984375
 20
370.6725158691406
 30
0.0
 11
-315.120361328125
 21
370.4005432128906
 31
0.0
  0
LINE
  5
2CE
330
22
100
AcDbEntity
  8
0
  6
Continuous
 62
     7
100
AcDbLine
 10
-315.664306640625
 20
370.9444885253906
 30
0.0
 11
-313.9693603515625
 21
373.1767272949219
 31
0.0
  0
LINE
  5
2CF
330
22
100
AcDbEntity
  8
0
  6
Continuous
 62
     7
100
AcDbLine
 10
-310.6704406738281
 20
370.4155578613281
 30
0.0
 11
-312.8881225585938
 21
372.0954895019531
 31
0.0
  0
LINE
  5
2D0
330
22
100
AcDbEntity
  8
0
  6
Continuous
 62
     7
100
AcDbLine
 10
-315.120361328125
 20
370.4005432128906
 30
0.0
 11
-312.8881225585938
 21
372.0954895019531
 31
0.0
  0
LINE
  5
2D1
330
22
100
AcDbEntity
  8
0
  6
Continuous
 62
     7
100
AcDbLine
 10
-310.6704406738281
 20
370.4155578613281
 30
0.0
 11
-310.398681640625
 21
370.6873168945313
 31
0.0
  0
LINE
  5
2D2
330
22
100
AcDbEntity
  8
0
  6
Continuous
 62
     7
100
AcDbLine
 10
-326.8881225585938
 20
332.6767272949219
 30
0.0
 11
-326.8881225585938
 21
363.6767272949219
 31
0.0
  0
LINE
  5
2D3
330
22
100
AcDbEntity
  8
0
  6
Continuous
 62
     7
100
AcDbLine
 10
-321.8881225585938
 20
353.6767272949219
 30
0.0
 11
-321.8881225585938
 21
363.6767272949219
 31
0.0
  0
LINE
  5
2D4
330
22
100
AcDbEntity
  8
0
  6
Continuous
 62
     7
100
AcDbLine
 10
-381.8881225585938
 20
476.6767272949218
 30
0.0
 11
-381.8881225585938
 21
445.6767272949218
 31
0.0
  0
LINE
  5
2D5
330
22
100
AcDbEntity
  8
0
  6
Continuous
 62
     7
100
AcDbLine
 10
-386.8881225585938
 20
455.6767272949218
 30
0.0
 11
-386.8881225585938
 21
424.6767272949218
 31
0.0
  0
LINE
  5
2D6
330
22
100
AcDbEntity
  8
0
  6
Continuous
 62
     7
100
AcDbLine
 10
-391.8881225585938
 20
455.6767272949218
 30
0.0
 11
-391.8881225585938
 21
424.6767272949218
 31
0.0
  0
LINE
  5
2D7
330
22
100
AcDbEntity
  8
0
  6
Continuous
 62
     7
100
AcDbLine
 10
-371.8881225585938
 20
455.6767272949218
 30
0.0
 11
-371.8881225585938
 21
424.6767272949218
 31
0.0
  0
LINE
  5
2D8
330
22
100
AcDbEntity
  8
0
  6
Continuous
 62
     7
100
AcDbLine
 10
-376.8881225585938
 20
476.6767272949218
 30
0.0
 11
-376.8881225585938
 21
445.6767272949218
 31
0.0
  0
LINE
  5
2D9
330
22
100
AcDbEntity
  8
0
  6
Continuous
 62
     7
100
AcDbLine
 10
-336.8881225585938
 20
476.6767272949218
 30
0.0
 11
-336.8881225585938
 21
445.6767272949218
 31
0.0
  0
LINE
  5
2DA
330
22
100
AcDbEntity
  8
0
  6
Continuous
 62
     7
100
AcDbLine
 10
-316.8881225585938
 20
353.6767272949219
 30
0.0
 11
-316.8881225585938
 21
363.6767272949219
 31
0.0
  0
LINE
  5
2DB
330
22
100
AcDbEntity
  8
0
  6
Continuous
 62
     7
100
AcDbLine
 10
-316.8881225585938
 20
476.6767272949218
 30
0.0
 11
-316.8881225585938
 21
445.6767272949218
 31
0.0
  0
LINE
  5
2DC
330
22
100
AcDbEntity
  8
0
  6
Continuous
 62
     7
100
AcDbLine
 10
-346.8881225585938
 20
455.6767272949218
 30
0.0
 11
-346.8881225585938
 21
424.6767272949218
 31
0.0
  0
LINE
  5
2DD
330
22
100
AcDbEntity
  8
0
  6
Continuous
 62
     7
100
AcDbLine
 10
-321.8881225585938
 20
476.6767272949218
 30
0.0
 11
-321.8881225585938
 21
445.6767272949218
 31
0.0
  0
LINE
  5
2DE
330
22
100
AcDbEntity
  8
0
  6
Continuous
 62
     7
100
AcDbLine
 10
-326.8881225585938
 20
455.6767272949218
 30
0.0
 11
-326.8881225585938
 21
424.6767272949218
 31
0.0
  0
LINE
  5
2DF
330
22
100
AcDbEntity
  8
0
  6
Continuous
 62
     7
100
AcDbLine
 10
-331.8881225585938
 20
455.6767272949218
 30
0.0
 11
-331.8881225585938
 21
424.6767272949218
 31
0.0
  0
LINE
  5
2E0
330
22
100
AcDbEntity
  8
0
  6
Continuous
 62
     7
100
AcDbLine
 10
-351.8881225585938
 20
455.6767272949218
 30
0.0
 11
-351.8881225585938
 21
424.6767272949218
 31
0.0
  0
LINE
  5
2E1
330
22
100
AcDbEntity
  8
0
  6
Continuous
 62
     7
100
AcDbLine
 10
-341.8881225585938
 20
476.6767272949218
 30
0.0
 11
-341.8881225585938
 21
445.6767272949218
 31
0.0
  0
LINE
  5
2E2
330
22
100
AcDbEntity
  8
0
  6
Continuous
 62
     7
100
AcDbLine
 10
-361.8881225585938
 20
476.6767272949218
 30
0.0
 11
-361.8881225585938
 21
445.6767272949218
 31
0.0
  0
LINE
  5
2E3
330
22
100
AcDbEntity
  8
0
  6
Continuous
 62
     7
100
AcDbLine
 10
-356.8881225585938
 20
476.6767272949218
 30
0.0
 11
-356.8881225585938
 21
445.6767272949218
 31
0.0
  0
LINE
  5
2E4
330
22
100
AcDbEntity
  8
0
  6
Continuous
 62
     7
100
AcDbLine
 10
-366.8881225585938
 20
455.6767272949218
 30
0.0
 11
-366.8881225585938
 21
424.6767272949218
 31
0.0
  0
LINE
  5
2E5
330
22
100
AcDbEntity
  8
0
  6
DASHED
 62
     7
100
AcDbLine
 10
-317.8881225585938
 20
501.1767272949218
 30
0.0
 11
-317.8881225585938
 21
502.6767272949219
 31
0.0
  0
LINE
  5
2E6
330
22
100
AcDbEntity
  8
0
  6
CENTER
 62
     7
100
AcDbLine
 10
-307.0677490234375
 20
501.1767272949218
 30
0.0
 11
-319.2385559082031
 21
501.1767272949218
 31
0.0
  0
LINE
  5
2E7
330
22
100
AcDbEntity
  8
0
  6
Continuous
 62
     7
100
AcDbLine
 10
-315.664306640625
 20
498.9444885253906
 30
0.0
 11
-313.9693603515625
 21
501.1767272949218
 31
0.0
  0
LINE
  5
2E8
330
22
100
AcDbEntity
  8
0
  6
Continuous
 62
     7
100
AcDbLine
 10
-315.392333984375
 20
498.6725158691406
 30
0.0
 11
-315.120361328125
 21
498.4005432128906
 31
0.0
  0
LINE
  5
2E9
330
22
100
AcDbEntity
  8
0
  6
Continuous
 62
     7
100
AcDbLine
 10
-315.392333984375
 20
498.6725158691406
 30
0.0
 11
-315.664306640625
 21
498.9444885253906
 31
0.0
  0
LINE
  5
2EA
330
22
100
AcDbEntity
  8
0
  6
Continuous
 62
     7
100
AcDbLine
 10
-315.392333984375
 20
498.6725158691406
 30
0.0
 11
-315.664306640625
 21
498.9444885253906
 31
0.0
  0
LINE
  5
2EB
330
22
100
AcDbEntity
  8
0
  6
Continuous
 62
     7
100
AcDbLine
 10
-315.392333984375
 20
498.6725158691406
 30
0.0
 11
-315.120361328125
 21
498.4005432128906
 31
0.0
  0
LINE
  5
2EC
330
22
100
AcDbEntity
  8
0
  6
Continuous
 62
     7
100
AcDbLine
 10
-310.6704406738281
 20
498.4155578613281
 30
0.0
 11
-310.398681640625
 21
498.6873168945312
 31
0.0
  0
LINE
  5
2ED
330
22
100
AcDbEntity
  8
0
  6
Continuous
 62
     7
100
AcDbLine
 10
-310.1269226074219
 20
498.9590759277343
 30
0.0
 11
-310.398681640625
 21
498.6873168945312
 31
0.0
  0
LINE
  5
2EE
330
22
100
AcDbEntity
  8
0
  6
Continuous
 62
     7
100
AcDbLine
 10
-310.1269226074219
 20
498.9590759277343
 30
0.0
 11
-311.8068542480469
 21
501.1767272949218
 31
0.0
  0
LINE
  5
2EF
330
22
100
AcDbEntity
  8
0
  6
Continuous
 62
     7
100
AcDbLine
 10
-310.6558532714844
 20
503.9529418945313
 30
0.0
 11
-312.8881225585938
 21
502.2579956054688
 31
0.0
  0
LINE
  5
2F0
330
22
100
AcDbEntity
  8
0
  6
Continuous
 62
     7
100
AcDbLine
 10
-310.3838806152344
 20
503.6809692382813
 30
0.0
 11
-310.6558532714844
 21
503.9529418945313
 31
0.0
  0
LINE
  5
2F1
330
22
100
AcDbEntity
  8
0
  6
Continuous
 62
     7
100
AcDbLine
 10
-315.1058044433594
 20
503.9379272460938
 30
0.0
 11
-312.8881225585938
 21
502.2579956054688
 31
0.0
  0
LINE
  5
2F2
330
22
100
AcDbEntity
  8
0
  6
Continuous
 62
     7
100
AcDbLine
 10
-310.1269226074219
 20
498.9590759277343
 30
0.0
 11
-310.398681640625
 21
498.6873168945312
 31
0.0
  0
LINE
  5
2F3
330
22
100
AcDbEntity
  8
0
  6
Continuous
 62
     7
100
AcDbLine
 10
-315.664306640625
 20
498.9444885253906
 30
0.0
 11
-313.9693603515625
 21
501.1767272949218
 31
0.0
  0
LINE
  5
2F4
330
22
100
AcDbEntity
  8
0
  6
Continuous
 62
     7
100
AcDbLine
 10
-310.1269226074219
 20
498.9590759277343
 30
0.0
 11
-311.8068542480469
 21
501.1767272949218
 31
0.0
  0
LINE
  5
2F5
330
22
100
AcDbEntity
  8
0
  6
Continuous
 62
     7
100
AcDbLine
 10
-310.6704406738281
 20
498.4155578613281
 30
0.0
 11
-312.8881225585938
 21
500.0954895019531
 31
0.0
  0
LINE
  5
2F6
330
22
100
AcDbEntity
  8
0
  6
Continuous
 62
     7
100
AcDbLine
 10
-315.1058044433594
 20
503.9379272460938
 30
0.0
 11
-315.3775634765625
 21
503.6661682128906
 31
0.0
  0
LINE
  5
2F7
330
22
100
AcDbEntity
  8
0
  6
Continuous
 62
     7
100
AcDbLine
 10
-315.120361328125
 20
498.4005432128906
 30
0.0
 11
-312.8881225585938
 21
500.0954895019531
 31
0.0
  0
LINE
  5
2F8
330
22
100
AcDbEntity
  8
0
  6
Continuous
 62
     7
100
AcDbLine
 10
-310.6558532714844
 20
503.9529418945313
 30
0.0
 11
-312.8881225585938
 21
502.2579956054688
 31
0.0
  0
LINE
  5
2F9
330
22
100
AcDbEntity
  8
0
  6
Continuous
 62
     7
100
AcDbLine
 10
-310.3838806152344
 20
503.6809692382813
 30
0.0
 11
-310.1119384765625
 21
503.4089965820313
 31
0.0
  0
LINE
  5
2FA
330
22
100
AcDbEntity
  8
0
  6
Continuous
 62
     7
100
AcDbLine
 10
-315.6493225097656
 20
503.3944091796874
 30
0.0
 11
-315.3775634765625
 21
503.6661682128906
 31
0.0
  0
LINE
  5
2FB
330
22
100
AcDbEntity
  8
0
  6
Continuous
 62
     7
100
AcDbLine
 10
-315.1058044433594
 20
503.9379272460938
 30
0.0
 11
-315.3775634765625
 21
503.6661682128906
 31
0.0
  0
LINE
  5
2FC
330
22
100
AcDbEntity
  8
0
  6
Continuous
 62
     7
100
AcDbLine
 10
-315.6493225097656
 20
503.3944091796874
 30
0.0
 11
-315.3775634765625
 21
503.6661682128906
 31
0.0
  0
LINE
  5
2FD
330
22
100
AcDbEntity
  8
0
  6
Continuous
 62
     7
100
AcDbLine
 10
-315.6493225097656
 20
503.3944091796874
 30
0.0
 11
-313.9693603515625
 21
501.1767272949218
 31
0.0
  0
LINE
  5
2FE
330
22
100
AcDbEntity
  8
0
  6
Continuous
 62
     7
100
AcDbLine
 10
-315.1058044433594
 20
503.9379272460938
 30
0.0
 11
-312.8881225585938
 21
502.2579956054688
 31
0.0
  0
LINE
  5
2FF
330
22
100
AcDbEntity
  8
0
  6
Continuous
 62
     7
100
AcDbLine
 10
-310.3838806152344
 20
503.6809692382813
 30
0.0
 11
-310.6558532714844
 21
503.9529418945313
 31
0.0
  0
LINE
  5
300
330
22
100
AcDbEntity
  8
0
  6
Continuous
 62
     7
100
AcDbLine
 10
-310.1119384765625
 20
503.4089965820313
 30
0.0
 11
-311.8068542480469
 21
501.1767272949218
 31
0.0
  0
LINE
  5
301
330
22
100
AcDbEntity
  8
0
  6
Continuous
 62
     7
100
AcDbLine
 10
-310.3838806152344
 20
503.6809692382813
 30
0.0
 11
-310.1119384765625
 21
503.4089965820313
 31
0.0
  0
LINE
  5
302
330
22
100
AcDbEntity
  8
0
  6
Continuous
 62
     7
100
AcDbLine
 10
-310.1119384765625
 20
503.4089965820313
 30
0.0
 11
-311.8068542480469
 21
501.1767272949218
 31
0.0
  0
LINE
  5
303
330
22
100
AcDbEntity
  8
0
  6
Continuous
 62
     7
100
AcDbLine
 10
-310.6704406738281
 20
498.4155578613281
 30
0.0
 11
-310.398681640625
 21
498.6873168945312
 31
0.0
  0
LINE
  5
304
330
22
100
AcDbEntity
  8
0
  6
Continuous
 62
     7
100
AcDbLine
 10
-315.120361328125
 20
498.4005432128906
 30
0.0
 11
-312.8881225585938
 21
500.0954895019531
 31
0.0
  0
LINE
  5
305
330
22
100
AcDbEntity
  8
0
  6
Continuous
 62
     7
100
AcDbLine
 10
-310.6704406738281
 20
498.4155578613281
 30
0.0
 11
-312.8881225585938
 21
500.0954895019531
 31
0.0
  0
LINE
  5
306
330
22
100
AcDbEntity
  8
0
  6
Continuous
 62
     7
100
AcDbLine
 10
-315.6493225097656
 20
503.3944091796874
 30
0.0
 11
-313.9693603515625
 21
501.1767272949218
 31
0.0
  0
LINE
  5
307
330
22
100
AcDbEntity
  8
0
  6
CENTER
 62
     7
100
AcDbLine
 10
-312.8881225585938
 20
506.8908081054687
 30
0.0
 11
-312.8881225585938
 21
495.5137329101563
 31
0.0
  0
LINE
  5
308
330
22
100
AcDbEntity
  8
0
  6
DASHED
 62
     7
100
AcDbLine
 10
-312.8881225585938
 20
496.1767272949218
 30
0.0
 11
-311.3881225585938
 21
496.1767272949218
 31
0.0
  0
LINE
  5
309
330
22
100
AcDbEntity
  8
0
  6
Continuous
 62
     7
100
AcDbLine
 10
-388.254150390625
 20
83.97416687011718
 30
0.0
 11
-440.8881225585938
 21
83.97416687011718
 31
0.0
  0
LINE
  5
30A
330
22
100
AcDbEntity
  8
0
  6
Continuous
 62
     7
100
AcDbLine
 10
-323.2933959960938
 20
124.620735168457
 30
0.0
 11
-440.8881225585938
 21
124.620735168457
 31
0.0
  0
LINE
  5
30B
330
22
100
AcDbEntity
  8
0
  6
Continuous
 62
     7
100
AcDbLine
 10
-440.8881225585938
 20
147.0848388671875
 30
0.0
 11
-306.8881225585938
 21
147.0848388671875
 31
0.0
  0
LINE
  5
30C
330
22
100
AcDbEntity
  8
0
  6
Continuous
 62
     7
100
AcDbLine
 10
-387.3881225585938
 20
81.26432800292969
 30
0.0
 11
-440.8881225585938
 21
81.26432800292969
 31
0.0
  0
LINE
  5
30D
330
22
100
AcDbEntity
  8
0
  6
Continuous
 62
     7
100
AcDbLine
 10
-305.8881225585938
 20
154.0848388671875
 30
0.0
 11
-440.8881225585938
 21
154.0848388671875
 31
0.0
  0
LINE
  5
30E
330
22
100
AcDbEntity
  8
0
  6
Continuous
 62
     7
100
AcDbLine
 10
-440.8881225585938
 20
147.5848388671875
 30
0.0
 11
-317.8881225585938
 21
147.5848388671875
 31
0.0
  0
LINE
  5
30F
330
22
100
AcDbEntity
  8
0
  6
Continuous
 62
     7
100
AcDbLine
 10
-440.8881225585938
 20
151.5327758789063
 30
0.0
 11
-436.9401855468749
 21
147.5848388671875
 31
0.0
  0
LINE
  5
310
330
22
100
AcDbEntity
  8
0
  6
Continuous
 62
     7
100
AcDbLine
 10
-439.1975402832031
 20
154.0848388671875
 30
0.0
 11
-432.6975402832031
 21
147.5848388671875
 31
0.0
  0
LINE
  5
311
330
22
100
AcDbEntity
  8
0
  6
Continuous
 62
     7
100
AcDbLine
 10
-434.9548950195313
 20
154.0848388671875
 30
0.0
 11
-428.4548950195313
 21
147.5848388671875
 31
0.0
  0
LINE
  5
312
330
22
100
AcDbEntity
  8
0
  6
Continuous
 62
     7
100
AcDbLine
 10
-430.7122497558593
 20
154.0848388671875
 30
0.0
 11
-424.2122497558593
 21
147.5848388671875
 31
0.0
  0
LINE
  5
313
330
22
100
AcDbEntity
  8
0
  6
Continuous
 62
     7
100
AcDbLine
 10
-426.4696350097656
 20
154.0848388671875
 30
0.0
 11
-419.9696350097656
 21
147.5848388671875
 31
0.0
  0
LINE
  5
314
330
22
100
AcDbEntity
  8
0
  6
Continuous
 62
     7
100
AcDbLine
 10
-422.2269897460938
 20
154.0848388671875
 30
0.0
 11
-415.7269897460937
 21
147.5848388671875
 31
0.0
  0
LINE
  5
315
330
22
100
AcDbEntity
  8
0
  6
Continuous
 62
     7
100
AcDbLine
 10
-417.9843444824219
 20
154.0848388671875
 30
0.0
 11
-411.4843444824218
 21
147.5848388671875
 31
0.0
  0
LINE
  5
316
330
22
100
AcDbEntity
  8
0
  6
Continuous
 62
     7
100
AcDbLine
 10
-413.74169921875
 20
154.0848388671875
 30
0.0
 11
-407.2416992187499
 21
147.5848388671875
 31
0.0
  0
LINE
  5
317
330
22
100
AcDbEntity
  8
0
  6
Continuous
 62
     7
100
AcDbLine
 10
-409.4990539550781
 20
154.0848388671875
 30
0.0
 11
-402.9990539550781
 21
147.5848388671875
 31
0.0
  0
LINE
  5
318
330
22
100
AcDbEntity
  8
0
  6
Continuous
 62
     7
100
AcDbLine
 10
-405.2564086914062
 20
154.0848388671875
 30
0.0
 11
-398.7564086914063
 21
147.5848388671875
 31
0.0
  0
LINE
  5
319
330
22
100
AcDbEntity
  8
0
  6
Continuous
 62
     7
100
AcDbLine
 10
-401.0137634277343
 20
154.0848388671875
 30
0.0
 11
-394.5137634277344
 21
147.5848388671875
 31
0.0
  0
LINE
  5
31A
330
22
100
AcDbEntity
  8
0
  6
Continuous
 62
     7
100
AcDbLine
 10
-396.7711486816406
 20
154.0848388671875
 30
0.0
 11
-390.2711486816406
 21
147.5848388671875
 31
0.0
  0
LINE
  5
31B
330
22
100
AcDbEntity
  8
0
  6
Continuous
 62
     7
100
AcDbLine
 10
-392.5285034179688
 20
154.0848388671875
 30
0.0
 11
-386.0285034179688
 21
147.5848388671875
 31
0.0
  0
LINE
  5
31C
330
22
100
AcDbEntity
  8
0
  6
Continuous
 62
     7
100
AcDbLine
 10
-388.2858581542969
 20
154.0848388671875
 30
0.0
 11
-381.7858581542969
 21
147.5848388671875
 31
0.0
  0
LINE
  5
31D
330
22
100
AcDbEntity
  8
0
  6
Continuous
 62
     7
100
AcDbLine
 10
-384.043212890625
 20
154.0848388671875
 30
0.0
 11
-377.543212890625
 21
147.5848388671875
 31
0.0
  0
LINE
  5
31E
330
22
100
AcDbEntity
  8
0
  6
Continuous
 62
     7
100
AcDbLine
 10
-379.8005676269531
 20
154.0848388671875
 30
0.0
 11
-373.3005676269531
 21
147.5848388671875
 31
0.0
  0
LINE
  5
31F
330
22
100
AcDbEntity
  8
0
  6
Continuous
 62
     7
100
AcDbLine
 10
-375.5579223632813
 20
154.0848388671875
 30
0.0
 11
-369.0579223632813
 21
147.5848388671875
 31
0.0
  0
LINE
  5
320
330
22
100
AcDbEntity
  8
0
  6
Continuous
 62
     7
100
AcDbLine
 10
-371.3153076171875
 20
154.0848388671875
 30
0.0
 11
-364.8153076171875
 21
147.5848388671875
 31
0.0
  0
LINE
  5
321
330
22
100
AcDbEntity
  8
0
  6
Continuous
 62
     7
100
AcDbLine
 10
-367.0726623535156
 20
154.0848388671875
 30
0.0
 11
-360.5726623535156
 21
147.5848388671875
 31
0.0
  0
LINE
  5
322
330
22
100
AcDbEntity
  8
0
  6
Continuous
 62
     7
100
AcDbLine
 10
-362.8300170898438
 20
154.0848388671875
 30
0.0
 11
-356.3300170898438
 21
147.5848388671875
 31
0.0
  0
LINE
  5
323
330
22
100
AcDbEntity
  8
0
  6
Continuous
 62
     7
100
AcDbLine
 10
-358.5873718261719
 20
154.0848388671875
 30
0.0
 11
-352.0873718261719
 21
147.5848388671875
 31
0.0
  0
LINE
  5
324
330
22
100
AcDbEntity
  8
0
  6
Continuous
 62
     7
100
AcDbLine
 10
-354.3447265625
 20
154.0848388671875
 30
0.0
 11
-347.8447265625
 21
147.5848388671875
 31
0.0
  0
LINE
  5
325
330
22
100
AcDbEntity
  8
0
  6
Continuous
 62
     7
100
AcDbLine
 10
-350.1020812988281
 20
154.0848388671875
 30
0.0
 11
-343.6020812988281
 21
147.5848388671875
 31
0.0
  0
LINE
  5
326
330
22
100
AcDbEntity
  8
0
  6
Continuous
 62
     7
100
AcDbLine
 10
-345.8594360351563
 20
154.0848388671875
 30
0.0
 11
-339.3594360351563
 21
147.5848388671875
 31
0.0
  0
LINE
  5
327
330
22
100
AcDbEntity
  8
0
  6
Continuous
 62
     7
100
AcDbLine
 10
-341.6168212890625
 20
154.0848388671875
 30
0.0
 11
-335.1168212890625
 21
147.5848388671875
 31
0.0
  0
LINE
  5
328
330
22
100
AcDbEntity
  8
0
  6
Continuous
 62
     7
100
AcDbLine
 10
-337.3741760253906
 20
154.0848388671875
 30
0.0
 11
-330.8741760253906
 21
147.5848388671875
 31
0.0
  0
LINE
  5
329
330
22
100
AcDbEntity
  8
0
  6
Continuous
 62
     7
100
AcDbLine
 10
-333.1315307617188
 20
154.0848388671875
 30
0.0
 11
-326.6315307617188
 21
147.5848388671875
 31
0.0
  0
LINE
  5
32A
330
22
100
AcDbEntity
  8
0
  6
Continuous
 62
     7
100
AcDbLine
 10
-328.8888854980469
 20
154.0848388671875
 30
0.0
 11
-322.3888854980469
 21
147.5848388671875
 31
0.0
  0
LINE
  5
32B
330
22
100
AcDbEntity
  8
0
  6
Continuous
 62
     7
100
AcDbLine
 10
-324.646240234375
 20
154.0848388671875
 30
0.0
 11
-318.146240234375
 21
147.5848388671875
 31
0.0
  0
LINE
  5
32C
330
22
100
AcDbEntity
  8
0
  6
Continuous
 62
     7
100
AcDbLine
 10
-317.6928100585938
 20
147.1314086914063
 30
0.0
 11
-317.646240234375
 21
147.0848388671875
 31
0.0
  0
LINE
  5
32D
330
22
100
AcDbEntity
  8
0
  6
Continuous
 62
     7
100
AcDbLine
 10
-320.4035949707031
 20
154.0848388671875
 30
0.0
 11
-315.1817321777344
 21
148.8629760742188
 31
0.0
  0
LINE
  5
32E
330
22
100
AcDbEntity
  8
0
  6
Continuous
 62
     7
100
AcDbLine
 10
-310.6817321777344
 20
148.6056213378906
 30
0.0
 11
-309.1609497070313
 21
147.0848388671875
 31
0.0
  0
LINE
  5
32F
330
22
100
AcDbEntity
  8
0
  6
Continuous
 62
     7
100
AcDbLine
 10
-310.1750183105469
 20
152.341552734375
 30
0.0
 11
-305.89697265625
 21
148.0634765625
 31
0.0
  0
LINE
  5
330
330
22
100
AcDbEntity
  8
0
  6
Continuous
 62
     7
100
AcDbLine
 10
-307.6756896972656
 20
154.0848388671875
 30
0.0
 11
-305.8881225585938
 21
152.2972717285156
 31
0.0
  0
LINE
  5
331
330
22
100
AcDbEntity
  8
0
  6
Continuous
 62
     7
100
AcDbLine
 10
-440.8881225585938
 20
149.4114532470703
 30
0.0
 11
-439.0614929199219
 21
147.5848388671875
 31
0.0
  0
LINE
  5
332
330
22
100
AcDbEntity
  8
0
  6
Continuous
 62
     7
100
AcDbLine
 10
-440.8881225585938
 20
153.6540985107422
 30
0.0
 11
-434.8188781738281
 21
147.5848388671875
 31
0.0
  0
LINE
  5
333
330
22
100
AcDbEntity
  8
0
  6
Continuous
 62
     7
100
AcDbLine
 10
-437.0762329101562
 20
154.0848388671875
 30
0.0
 11
-430.5762329101563
 21
147.5848388671875
 31
0.0
  0
LINE
  5
334
330
22
100
AcDbEntity
  8
0
  6
Continuous
 62
     7
100
AcDbLine
 10
-432.8335876464843
 20
154.0848388671875
 30
0.0
 11
-426.3335876464843
 21
147.5848388671875
 31
0.0
  0
LINE
  5
335
330
22
100
AcDbEntity
  8
0
  6
Continuous
 62
     7
100
AcDbLine
 10
-428.5909423828124
 20
154.0848388671875
 30
0.0
 11
-422.0909423828125
 21
147.5848388671875
 31
0.0
  0
LINE
  5
336
330
22
100
AcDbEntity
  8
0
  6
Continuous
 62
     7
100
AcDbLine
 10
-424.3482971191406
 20
154.0848388671875
 30
0.0
 11
-417.8482971191406
 21
147.5848388671875
 31
0.0
  0
LINE
  5
337
330
22
100
AcDbEntity
  8
0
  6
Continuous
 62
     7
100
AcDbLine
 10
-420.1056518554688
 20
154.0848388671875
 30
0.0
 11
-413.6056518554688
 21
147.5848388671875
 31
0.0
  0
LINE
  5
338
330
22
100
AcDbEntity
  8
0
  6
Continuous
 62
     7
100
AcDbLine
 10
-415.8630065917968
 20
154.0848388671875
 30
0.0
 11
-409.3630065917968
 21
147.5848388671875
 31
0.0
  0
LINE
  5
339
330
22
100
AcDbEntity
  8
0
  6
Continuous
 62
     7
100
AcDbLine
 10
-411.620391845703
 20
154.0848388671875
 30
0.0
 11
-405.1203918457031
 21
147.5848388671875
 31
0.0
  0
LINE
  5
33A
330
22
100
AcDbEntity
  8
0
  6
Continuous
 62
     7
100
AcDbLine
 10
-407.3777465820312
 20
154.0848388671875
 30
0.0
 11
-400.8777465820313
 21
147.5848388671875
 31
0.0
  0
LINE
  5
33B
330
22
100
AcDbEntity
  8
0
  6
Continuous
 62
     7
100
AcDbLine
 10
-403.1351013183593
 20
154.0848388671875
 30
0.0
 11
-396.6351013183594
 21
147.5848388671875
 31
0.0
  0
LINE
  5
33C
330
22
100
AcDbEntity
  8
0
  6
Continuous
 62
     7
100
AcDbLine
 10
-398.8924560546875
 20
154.0848388671875
 30
0.0
 11
-392.3924560546875
 21
147.5848388671875
 31
0.0
  0
LINE
  5
33D
330
22
100
AcDbEntity
  8
0
  6
Continuous
 62
     7
100
AcDbLine
 10
-394.6498107910156
 20
154.0848388671875
 30
0.0
 11
-388.1498107910156
 21
147.5848388671875
 31
0.0
  0
LINE
  5
33E
330
22
100
AcDbEntity
  8
0
  6
Continuous
 62
     7
100
AcDbLine
 10
-390.4071655273438
 20
154.0848388671875
 30
0.0
 11
-383.9071655273438
 21
147.5848388671875
 31
0.0
  0
LINE
  5
33F
330
22
100
AcDbEntity
  8
0
  6
Continuous
 62
     7
100
AcDbLine
 10
-386.16455078125
 20
154.0848388671875
 30
0.0
 11
-379.66455078125
 21
147.5848388671875
 31
0.0
  0
LINE
  5
340
330
22
100
AcDbEntity
  8
0
  6
Continuous
 62
     7
100
AcDbLine
 10
-381.9219055175781
 20
154.0848388671875
 30
0.0
 11
-375.4219055175781
 21
147.5848388671875
 31
0.0
  0
LINE
  5
341
330
22
100
AcDbEntity
  8
0
  6
Continuous
 62
     7
100
AcDbLine
 10
-377.6792602539063
 20
154.0848388671875
 30
0.0
 11
-371.1792602539063
 21
147.5848388671875
 31
0.0
  0
LINE
  5
342
330
22
100
AcDbEntity
  8
0
  6
Continuous
 62
     7
100
AcDbLine
 10
-373.4366149902344
 20
154.0848388671875
 30
0.0
 11
-366.9366149902344
 21
147.5848388671875
 31
0.0
  0
LINE
  5
343
330
22
100
AcDbEntity
  8
0
  6
Continuous
 62
     7
100
AcDbLine
 10
-369.1939697265625
 20
154.0848388671875
 30
0.0
 11
-362.6939697265625
 21
147.5848388671875
 31
0.0
  0
LINE
  5
344
330
22
100
AcDbEntity
  8
0
  6
Continuous
 62
     7
100
AcDbLine
 10
-364.9513244628906
 20
154.0848388671875
 30
0.0
 11
-358.4513244628906
 21
147.5848388671875
 31
0.0
  0
LINE
  5
345
330
22
100
AcDbEntity
  8
0
  6
Continuous
 62
     7
100
AcDbLine
 10
-360.7086791992188
 20
154.0848388671875
 30
0.0
 11
-354.2086791992188
 21
147.5848388671875
 31
0.0
  0
LINE
  5
346
330
22
100
AcDbEntity
  8
0
  6
Continuous
 62
     7
100
AcDbLine
 10
-356.466064453125
 20
154.0848388671875
 30
0.0
 11
-349.966064453125
 21
147.5848388671875
 31
0.0
  0
LINE
  5
347
330
22
100
AcDbEntity
  8
0
  6
Continuous
 62
     7
100
AcDbLine
 10
-352.2234191894531
 20
154.0848388671875
 30
0.0
 11
-345.7234191894531
 21
147.5848388671875
 31
0.0
  0
LINE
  5
348
330
22
100
AcDbEntity
  8
0
  6
Continuous
 62
     7
100
AcDbLine
 10
-347.9807739257813
 20
154.0848388671875
 30
0.0
 11
-341.4807739257813
 21
147.5848388671875
 31
0.0
  0
LINE
  5
349
330
22
100
AcDbEntity
  8
0
  6
Continuous
 62
     7
100
AcDbLine
 10
-343.7381286621094
 20
154.0848388671875
 30
0.0
 11
-337.2381286621094
 21
147.5848388671875
 31
0.0
  0
LINE
  5
34A
330
22
100
AcDbEntity
  8
0
  6
Continuous
 62
     7
100
AcDbLine
 10
-339.4954833984375
 20
154.0848388671875
 30
0.0
 11
-332.9954833984375
 21
147.5848388671875
 31
0.0
  0
LINE
  5
34B
330
22
100
AcDbEntity
  8
0
  6
Continuous
 62
     7
100
AcDbLine
 10
-335.2528381347656
 20
154.0848388671875
 30
0.0
 11
-328.7528381347656
 21
147.5848388671875
 31
0.0
  0
LINE
  5
34C
330
22
100
AcDbEntity
  8
0
  6
Continuous
 62
     7
100
AcDbLine
 10
-331.0101928710938
 20
154.0848388671875
 30
0.0
 11
-324.5101928710938
 21
147.5848388671875
 31
0.0
  0
LINE
  5
34D
330
22
100
AcDbEntity
  8
0
  6
Continuous
 62
     7
100
AcDbLine
 10
-326.767578125
 20
154.0848388671875
 30
0.0
 11
-320.267578125
 21
147.5848388671875
 31
0.0
  0
LINE
  5
34E
330
22
100
AcDbEntity
  8
0
  6
Continuous
 62
     7
100
AcDbLine
 10
-322.5249328613281
 20
154.0848388671875
 30
0.0
 11
-315.5249328613281
 21
147.0848388671875
 31
0.0
  0
LINE
  5
34F
330
22
100
AcDbEntity
  8
0
  6
Continuous
 62
     7
100
AcDbLine
 10
-318.2822875976563
 20
154.0848388671875
 30
0.0
 11
-315.1817321777344
 21
150.9842987060547
 31
0.0
  0
LINE
  5
350
330
22
100
AcDbEntity
  8
0
  6
Continuous
 62
     7
100
AcDbLine
 10
-310.6817321777344
 20
150.7269287109375
 30
0.0
 11
-307.0396423339844
 21
147.0848388671875
 31
0.0
  0
LINE
  5
351
330
22
100
AcDbEntity
  8
0
  6
Continuous
 62
     7
100
AcDbLine
 10
-309.1143798828125
 20
153.4022064208984
 30
0.0
 11
-305.8881225585938
 21
150.1759490966797
 31
0.0
  0
LINE
  5
352
330
22
100
AcDbEntity
  8
0
  6
Continuous
 62
     7
100
AcDbLine
 10
-589.8881225585937
 20
154.5848388671875
 30
0.0
 11
-291.8881225585938
 21
154.5848388671875
 31
0.0
  0
LINE
  5
353
330
22
100
AcDbEntity
  8
0
  6
CENTER
 62
     7
100
AcDbLine
 10
-440.8881225585938
 20
41.67051315307617
 30
0.0
 11
-440.8881225585938
 21
164.5402526855469
 31
0.0
  0
LINE
  5
354
330
22
100
AcDbEntity
  8
0
  6
Continuous
 62
     7
100
AcDbLine
 10
-440.8881225585938
 20
51.11207962036132
 30
0.0
 11
-385.9003601074219
 21
51.11207962036132
 31
0.0
  0
LINE
  5
355
330
22
100
AcDbEntity
  8
0
  6
Continuous
 62
     7
100
AcDbLine
 10
-578.3881225585937
 20
128.1414642333984
 30
0.0
 11
-504.8881225585938
 21
85.70622253417969
 31
0.0
  0
LINE
  5
356
330
22
100
AcDbEntity
  8
0
  6
Continuous
 62
     7
100
AcDbLine
 10
-578.3881225585937
 20
129.5848388671875
 30
0.0
 11
-440.8881225585938
 21
129.5848388671875
 31
0.0
  0
LINE
  5
357
330
22
100
AcDbEntity
  8
0
  6
Continuous
 62
     7
100
AcDbLine
 10
-589.8881225585937
 20
150.5848388671875
 30
0.0
 11
-440.8881225585938
 21
150.5848388671875
 31
0.0
  0
LINE
  5
358
330
22
100
AcDbEntity
  8
0
  6
Continuous
 62
     7
100
AcDbLine
 10
-303.3881225585938
 20
128.1414642333984
 30
0.0
 11
-376.8881225585938
 21
85.70622253417969
 31
0.0
  0
LINE
  5
359
330
22
100
AcDbEntity
  8
0
  6
Continuous
 62
     7
100
AcDbLine
 10
-319.3881225585938
 20
123.5226593017578
 30
0.0
 11
-387.8881225585938
 21
83.97416687011718
 31
0.0
  0
LINE
  5
35A
330
22
100
AcDbEntity
  8
0
  6
Continuous
 62
     7
100
AcDbLine
 10
-383.2112426757813
 20
49.5848388671875
 30
0.0
 11
-379.3881225585938
 21
53.40796661376953
 31
0.0
  0
LINE
  5
35B
330
22
100
AcDbEntity
  8
0
  6
Continuous
 62
     7
100
AcDbLine
 10
-306.3847045898438
 20
126.4113922119141
 30
0.0
 11
-300.9516906738281
 21
131.8443908691406
 31
0.0
  0
LINE
  5
35C
330
22
100
AcDbEntity
  8
0
  6
Continuous
 62
     7
100
AcDbLine
 10
-384.4266662597656
 20
51.19784164428711
 30
0.0
 11
-379.3881225585938
 21
56.23639297485352
 31
0.0
  0
LINE
  5
35D
330
22
100
AcDbEntity
  8
0
  6
Continuous
 62
     7
100
AcDbLine
 10
-313.0768127441406
 20
122.5476837158203
 30
0.0
 11
-300.8881225585938
 21
134.7363891601563
 31
0.0
  0
LINE
  5
35E
330
22
100
AcDbEntity
  8
0
  6
Continuous
 62
     7
100
AcDbLine
 10
-384.5175476074219
 20
53.93538665771484
 30
0.0
 11
-379.3881225585938
 21
59.0648193359375
 31
0.0
  0
LINE
  5
35F
330
22
100
AcDbEntity
  8
0
  6
Continuous
 62
     7
100
AcDbLine
 10
-319.7689514160156
 20
118.6839828491211
 30
0.0
 11
-300.8881225585938
 21
137.5648193359375
 31
0.0
  0
LINE
  5
360
330
22
100
AcDbEntity
  8
0
  6
Continuous
 62
     7
100
AcDbLine
 10
-384.6084289550781
 20
56.67293167114258
 30
0.0
 11
-379.3881225585938
 21
61.89324569702147
 31
0.0
  0
LINE
  5
361
330
22
100
AcDbEntity
  8
0
  6
Continuous
 62
     7
100
AcDbLine
 10
-326.4610900878906
 20
114.8202819824219
 30
0.0
 11
-300.8881225585938
 21
140.3932495117188
 31
0.0
  0
LINE
  5
362
330
22
100
AcDbEntity
  8
0
  6
Continuous
 62
     7
100
AcDbLine
 10
-384.6993103027344
 20
59.41047286987305
 30
0.0
 11
-379.3881225585938
 21
64.72167205810547
 31
0.0
  0
LINE
  5
363
330
22
100
AcDbEntity
  8
0
  6
Continuous
 62
     7
100
AcDbLine
 10
-333.1531982421875
 20
110.9565734863281
 30
0.0
 11
-322.2250061035156
 21
121.8847808837891
 31
0.0
  0
LINE
  5
364
330
22
100
AcDbEntity
  8
0
  6
Continuous
 62
     7
100
AcDbLine
 10
-317.8881225585938
 20
126.2216720581055
 30
0.0
 11
-312.9317321777344
 21
131.1780548095702
 31
0.0
  0
LINE
  5
365
330
22
100
AcDbEntity
  8
0
  6
Continuous
 62
     7
100
AcDbLine
 10
-312.9317321777344
 20
131.1780548095702
 30
0.0
 11
-300.8881225585938
 21
143.2216796875
 31
0.0
  0
LINE
  5
366
330
22
100
AcDbEntity
  8
0
  6
Continuous
 62
     7
100
AcDbLine
 10
-293.5249633789063
 20
150.5848388671875
 30
0.0
 11
-290.8881225585938
 21
153.2216796875
 31
0.0
  0
LINE
  5
367
330
22
100
AcDbEntity
  8
0
  6
Continuous
 62
     7
100
AcDbLine
 10
-384.7901916503906
 20
62.14801788330078
 30
0.0
 11
-379.3881225585938
 21
67.55010223388672
 31
0.0
  0
LINE
  5
368
330
22
100
AcDbEntity
  8
0
  6
Continuous
 62
     7
100
AcDbLine
 10
-339.8453369140625
 20
107.0928726196289
 30
0.0
 11
-328.9171447753906
 21
118.0210800170898
 31
0.0
  0
LINE
  5
369
330
22
100
AcDbEntity
  8
0
  6
Continuous
 62
     7
100
AcDbLine
 10
-317.8881225585938
 20
129.0500946044922
 30
0.0
 11
-313.2675476074219
 21
133.670654296875
 31
0.0
  0
LINE
  5
36A
330
22
100
AcDbEntity
  8
0
  6
Continuous
 62
     7
100
AcDbLine
 10
-311.1817321777344
 20
135.7564849853516
 30
0.0
 11
-300.8881225585938
 21
146.0500946044922
 31
0.0
  0
LINE
  5
36B
330
22
100
AcDbEntity
  8
0
  6
Continuous
 62
     7
100
AcDbLine
 10
-296.3533630371094
 20
150.5848388671875
 30
0.0
 11
-292.3533630371094
 21
154.5848388671875
 31
0.0
  0
LINE
  5
36C
330
22
100
AcDbEntity
  8
0
  6
Continuous
 62
     7
100
AcDbLine
 10
-384.8810729980469
 20
64.88555908203125
 30
0.0
 11
-379.3881225585938
 21
70.37853240966796
 31
0.0
  0
LINE
  5
36D
330
22
100
AcDbEntity
  8
0
  6
Continuous
 62
     7
100
AcDbLine
 10
-346.5374755859375
 20
103.2291717529297
 30
0.0
 11
-335.6092834472656
 21
114.1573715209961
 31
0.0
  0
LINE
  5
36E
330
22
100
AcDbEntity
  8
0
  6
Continuous
 62
     7
100
AcDbLine
 10
-317.8881225585938
 20
131.8785247802734
 30
0.0
 11
-314.6817321777344
 21
135.0848999023438
 31
0.0
  0
LINE
  5
36F
330
22
100
AcDbEntity
  8
0
  6
Continuous
 62
     7
100
AcDbLine
 10
-310.9317321777344
 20
138.8348999023438
 30
0.0
 11
-300.8881225585938
 21
148.8785247802734
 31
0.0
  0
LINE
  5
370
330
22
100
AcDbEntity
  8
0
  6
Continuous
 62
     7
100
AcDbLine
 10
-299.1817932128906
 20
150.5848388671875
 30
0.0
 11
-295.1817932128906
 21
154.5848388671875
 31
0.0
  0
LINE
  5
371
330
22
100
AcDbEntity
  8
0
  6
Continuous
 62
     7
100
AcDbLine
 10
-384.9719543457031
 20
67.62310791015625
 30
0.0
 11
-379.3881225585938
 21
73.20695495605469
 31
0.0
  0
LINE
  5
372
330
22
100
AcDbEntity
  8
0
  6
Continuous
 62
     7
100
AcDbLine
 10
-353.2296142578125
 20
99.36547088623049
 30
0.0
 11
-342.3013916015625
 21
110.2936706542969
 31
0.0
  0
LINE
  5
373
330
22
100
AcDbEntity
  8
0
  6
Continuous
 62
     7
100
AcDbLine
 10
-317.8881225585938
 20
134.7069549560547
 30
0.0
 11
-314.9317321777344
 21
137.663330078125
 31
0.0
  0
LINE
  5
374
330
22
100
AcDbEntity
  8
0
  6
Continuous
 62
     7
100
AcDbLine
 10
-310.9317321777344
 20
141.663330078125
 30
0.0
 11
-298.0102233886719
 21
154.5848388671875
 31
0.0
  0
LINE
  5
375
330
22
100
AcDbEntity
  8
0
  6
Continuous
 62
     7
100
AcDbLine
 10
-385.0628356933594
 20
70.36064910888672
 30
0.0
 11
-379.3881225585938
 21
76.03538513183593
 31
0.0
  0
LINE
  5
376
330
22
100
AcDbEntity
  8
0
  6
Continuous
 62
     7
100
AcDbLine
 10
-359.9217224121094
 20
95.50176239013671
 30
0.0
 11
-348.9935302734375
 21
106.4299697875977
 31
0.0
  0
LINE
  5
377
330
22
100
AcDbEntity
  8
0
  6
Continuous
 62
     7
100
AcDbLine
 10
-317.8881225585938
 20
137.5353851318359
 30
0.0
 11
-314.9317321777344
 21
140.4917602539063
 31
0.0
  0
LINE
  5
378
330
22
100
AcDbEntity
  8
0
  6
Continuous
 62
     7
100
AcDbLine
 10
-310.9317321777344
 20
144.4917602539063
 30
0.0
 11
-308.3386535644531
 21
147.0848388671875
 31
0.0
  0
LINE
  5
379
330
22
100
AcDbEntity
  8
0
  6
Continuous
 62
     7
100
AcDbLine
 10
-305.8881225585938
 20
149.5353851318359
 30
0.0
 11
-300.8386535644531
 21
154.5848388671875
 31
0.0
  0
LINE
  5
37A
330
22
100
AcDbEntity
  8
0
  6
Continuous
 62
     7
100
AcDbLine
 10
-385.1537475585938
 20
73.09819030761719
 30
0.0
 11
-379.3881225585938
 21
78.86380767822266
 31
0.0
  0
LINE
  5
37B
330
22
100
AcDbEntity
  8
0
  6
Continuous
 62
     7
100
AcDbLine
 10
-366.6138610839844
 20
91.63806152343751
 30
0.0
 11
-355.6856689453125
 21
102.5662612915039
 31
0.0
  0
LINE
  5
37C
330
22
100
AcDbEntity
  8
0
  6
Continuous
 62
     7
100
AcDbLine
 10
-317.8881225585938
 20
140.3638153076172
 30
0.0
 11
-314.9317321777344
 21
143.3201904296875
 31
0.0
  0
LINE
  5
37D
330
22
100
AcDbEntity
  8
0
  6
Continuous
 62
     7
100
AcDbLine
 10
-305.8881225585938
 20
152.3638153076172
 30
0.0
 11
-303.6670837402344
 21
154.5848388671875
 31
0.0
  0
LINE
  5
37E
330
22
100
AcDbEntity
  8
0
  6
Continuous
 62
     7
100
AcDbLine
 10
-385.24462890625
 20
75.83573913574219
 30
0.0
 11
-379.3541259765625
 21
81.72623443603516
 31
0.0
  0
LINE
  5
37F
330
22
100
AcDbEntity
  8
0
  6
Continuous
 62
     7
100
AcDbLine
 10
-373.3059997558594
 20
87.77436065673828
 30
0.0
 11
-362.3778076171875
 21
98.7025604248047
 31
0.0
  0
LINE
  5
380
330
22
100
AcDbEntity
  8
0
  6
Continuous
 62
     7
100
AcDbLine
 10
-317.8881225585938
 20
143.1922302246094
 30
0.0
 11
-314.9317321777344
 21
146.1486206054688
 31
0.0
  0
LINE
  5
381
330
22
100
AcDbEntity
  8
0
  6
Continuous
 62
     7
100
AcDbLine
 10
-385.3355102539063
 20
78.57328033447266
 30
0.0
 11
-369.0699157714844
 21
94.83885955810547
 31
0.0
  0
LINE
  5
382
330
22
100
AcDbEntity
  8
0
  6
Continuous
 62
     7
100
AcDbLine
 10
-317.8881225585938
 20
146.0206604003906
 30
0.0
 11
-316.8239440917969
 21
147.0848388671875
 31
0.0
  0
LINE
  5
383
330
22
100
AcDbEntity
  8
0
  6
Continuous
 62
     7
100
AcDbLine
 10
-386.1804809570313
 20
80.55670928955079
 30
0.0
 11
-375.7620544433594
 21
90.97515106201171
 31
0.0
  0
LINE
  5
384
330
22
100
AcDbEntity
  8
0
  6
Continuous
 62
     7
100
AcDbLine
 10
-388.0338439941406
 20
81.53179931640625
 30
0.0
 11
-382.4541931152344
 21
87.11145019531249
 31
0.0
  0
LINE
  5
385
330
22
100
AcDbEntity
  8
0
  6
Continuous
 62
     7
100
AcDbLine
 10
-580.8881225585937
 20
132.4715881347656
 30
0.0
 11
-580.8881225585937
 21
150.5848388671875
 31
0.0
  0
LINE
  5
386
330
22
100
AcDbEntity
  8
0
  6
Continuous
 62
     7
100
AcDbLine
 10
-590.8881225585937
 20
153.5848388671875
 30
0.0
 11
-590.8881225585937
 21
151.5848388671875
 31
0.0
  0
LINE
  5
387
330
22
100
AcDbEntity
  8
0
  6
Continuous
 62
     7
100
AcDbLine
 10
-435.8881225585938
 20
147.0848388671875
 30
0.0
 11
-435.8881225585938
 21
124.620735168457
 31
0.0
  0
LINE
  5
388
330
22
100
AcDbEntity
  8
0
  6
Continuous
 62
     7
100
AcDbLine
 10
-468.9251098632813
 20
49.5848388671875
 30
0.0
 11
-468.9251098632813
 21
83.01475524902343
 31
0.0
  0
LINE
  5
389
330
22
100
AcDbEntity
  8
0
  6
Continuous
 62
     7
100
AcDbLine
 10
-502.3881225585937
 20
81.37609100341796
 30
0.0
 11
-502.3881225585937
 21
49.5848388671875
 31
0.0
  0
LINE
  5
38A
330
22
100
AcDbEntity
  8
0
  6
Continuous
 62
     7
100
AcDbLine
 10
-503.3881225585938
 20
49.5848388671875
 30
0.0
 11
-503.3881225585938
 21
82.73657989501954
 31
0.0
  0
LINE
  5
38B
330
22
100
AcDbEntity
  8
0
  6
Continuous
 62
     7
100
AcDbLine
 10
-503.3881225585938
 20
49.5848388671875
 30
0.0
 11
-504.3881225585938
 21
49.5848388671875
 31
0.0
  0
LINE
  5
38C
330
22
100
AcDbEntity
  8
0
  6
Continuous
 62
     7
100
AcDbLine
 10
-504.3881225585938
 20
49.5848388671875
 30
0.0
 11
-505.3881225585937
 21
50.5848388671875
 31
0.0
  0
LINE
  5
38D
330
22
100
AcDbEntity
  8
0
  6
Continuous
 62
     7
100
AcDbLine
 10
-501.6118774414063
 20
50.5848388671875
 30
0.0
 11
-475.1334533691406
 21
50.5848388671875
 31
0.0
  0
LINE
  5
38E
330
22
100
AcDbEntity
  8
0
  6
Continuous
 62
     7
100
AcDbLine
 10
-474.6379699707031
 20
49.5848388671875
 30
0.0
 11
-474.6379699707031
 21
84.40091705322265
 31
0.0
  0
LINE
  5
38F
330
22
100
AcDbEntity
  8
0
  6
Continuous
 62
     7
100
AcDbLine
 10
-476.6658935546875
 20
83.01475524902343
 30
0.0
 11
-502.5567321777343
 21
83.01475524902343
 31
0.0
  0
LINE
  5
390
330
22
100
AcDbEntity
  8
0
  6
Continuous
 62
     7
100
AcDbLine
 10
-505.3881225585937
 20
50.5848388671875
 30
0.0
 11
-505.3881225585937
 21
85.99489593505859
 31
0.0
  0
LINE
  5
391
330
22
100
AcDbEntity
  8
0
  6
Continuous
 62
     7
100
AcDbLine
 10
-468.5286560058593
 20
50.5848388671875
 30
0.0
 11
-440.8881225585938
 21
50.5848388671875
 31
0.0
  0
LINE
  5
392
330
22
100
AcDbEntity
  8
0
  6
Continuous
 62
     7
100
AcDbLine
 10
-467.2789306640624
 20
83.01475524902343
 30
0.0
 11
-440.8881225585938
 21
83.01475524902343
 31
0.0
  0
LINE
  5
393
330
22
100
AcDbEntity
  8
0
  6
Continuous
 62
     7
100
AcDbLine
 10
-503.3881225585938
 20
49.5848388671875
 30
0.0
 11
-440.8881225585938
 21
49.5848388671875
 31
0.0
  0
LINE
  5
394
330
22
100
AcDbEntity
  8
0
  6
Continuous
 62
     7
100
AcDbLine
 10
-505.3881225585937
 20
85.99489593505859
 30
0.0
 11
-440.8881225585938
 21
85.99489593505859
 31
0.0
  0
LINE
  5
395
330
22
100
AcDbEntity
  8
0
  6
Continuous
 62
     7
100
AcDbLine
 10
-315.1817321777344
 20
147.0848388671875
 30
0.0
 11
-315.1817321777344
 21
151.8348388671875
 31
0.0
  0
LINE
  5
396
330
22
100
AcDbEntity
  8
0
  6
Continuous
 62
     7
100
AcDbLine
 10
-310.6817321777344
 20
147.0848388671875
 30
0.0
 11
-310.6817321777344
 21
151.8348388671875
 31
0.0
  0
LINE
  5
397
330
22
100
AcDbEntity
  8
0
  6
Continuous
 62
     7
100
AcDbLine
 10
-315.1817321777344
 20
151.8348388671875
 30
0.0
 11
-314.9317321777344
 21
151.5848388671875
 31
0.0
  0
LINE
  5
398
330
22
100
AcDbEntity
  8
0
  6
Continuous
 62
     7
100
AcDbLine
 10
-310.6817321777344
 20
151.8348388671875
 30
0.0
 11
-310.9317321777344
 21
151.5848388671875
 31
0.0
  0
LINE
  5
399
330
22
100
AcDbEntity
  8
0
  6
Continuous
 62
     7
100
AcDbLine
 10
-314.9317321777344
 20
151.5848388671875
 30
0.0
 11
-310.9317321777344
 21
151.5848388671875
 31
0.0
  0
LINE
  5
39A
330
22
100
AcDbEntity
  8
0
  6
Continuous
 62
     7
100
AcDbLine
 10
-314.9317321777344
 20
151.5848388671875
 30
0.0
 11
-314.9317321777344
 21
139.6953125
 31
0.0
  0
LINE
  5
39B
330
22
100
AcDbEntity
  8
0
  6
Continuous
 62
     7
100
AcDbLine
 10
-310.9317321777344
 20
151.5848388671875
 30
0.0
 11
-310.9317321777344
 21
139.6953125
 31
0.0
  0
LINE
  5
39C
330
22
100
AcDbEntity
  8
0
  6
Continuous
 62
     7
100
AcDbLine
 10
-308.4317321777344
 20
154.0848388671875
 30
0.0
 11
-310.6817321777344
 21
151.8348388671875
 31
0.0
  0
LINE
  5
39D
330
22
100
AcDbEntity
  8
0
  6
Continuous
 62
     7
100
AcDbLine
 10
-317.4317321777344
 20
154.0848388671875
 30
0.0
 11
-315.1817321777344
 21
151.8348388671875
 31
0.0
  0
LINE
  5
39E
330
22
100
AcDbEntity
  8
0
  6
Continuous
 62
     7
100
AcDbLine
 10
-317.8881225585938
 20
147.0848388671875
 30
0.0
 11
-317.8881225585938
 21
147.5848388671875
 31
0.0
  0
LINE
  5
39F
330
22
100
AcDbEntity
  8
0
  6
Continuous
 62
     7
100
AcDbLine
 10
-386.8881225585938
 20
81.26432800292969
 30
0.0
 11
-385.3746032714844
 21
79.75080871582031
 31
0.0
  0
LINE
  5
3A0
330
22
100
AcDbEntity
  8
0
  6
Continuous
 62
     7
100
AcDbLine
 10
-385.9003601074219
 20
51.11207962036132
 30
0.0
 11
-384.3731079101563
 21
49.5848388671875
 31
0.0
  0
LINE
  5
3A1
330
22
100
AcDbEntity
  8
0
  6
Continuous
 62
     7
100
AcDbLine
 10
-440.8881225585938
 20
49.5848388671875
 30
0.0
 11
-380.3881225585938
 21
49.5848388671875
 31
0.0
  0
LINE
  5
3A2
330
22
100
AcDbEntity
  8
0
  6
Continuous
 62
     7
100
AcDbLine
 10
-379.3881225585938
 20
50.5848388671875
 30
0.0
 11
-379.3881225585938
 21
81.37609100341796
 31
0.0
  0
LINE
  5
3A3
330
22
100
AcDbEntity
  8
0
  6
Continuous
 62
     7
100
AcDbLine
 10
-385.9003601074219
 20
51.11207962036132
 30
0.0
 11
-386.9054870605469
 21
81.26432800292969
 31
0.0
  0
LINE
  5
3A4
330
22
100
AcDbEntity
  8
0
  6
Continuous
 62
     7
100
AcDbLine
 10
-384.3731079101563
 20
49.5848388671875
 30
0.0
 11
-385.3746032714844
 21
79.75080871582031
 31
0.0
  0
LINE
  5
3A5
330
22
100
AcDbEntity
  8
0
  6
Continuous
 62
     7
100
AcDbLine
 10
-380.3881225585938
 20
49.5848388671875
 30
0.0
 11
-379.3881225585938
 21
50.5848388671875
 31
0.0
  0
LINE
  5
3A6
330
22
100
AcDbEntity
  8
0
  6
Continuous
 62
     7
100
AcDbLine
 10
-388.3881225585938
 20
83.10814666748047
 30
0.0
 11
-388.3881225585938
 21
82.26432800292968
 31
0.0
  0
LINE
  5
3A7
330
22
100
AcDbEntity
  8
0
  6
Continuous
 62
     7
100
AcDbLine
 10
-387.3881225585938
 20
81.26432800292969
 30
0.0
 11
-386.8881225585938
 21
81.26432800292969
 31
0.0
  0
LINE
  5
3A8
330
22
100
AcDbEntity
  8
0
  6
Continuous
 62
     7
100
AcDbLine
 10
-312.9317321777344
 20
133.3348388671875
 30
0.0
 11
-311.1817321777344
 21
135.0848388671875
 31
0.0
  0
LINE
  5
3A9
330
22
100
AcDbEntity
  8
0
  6
Continuous
 62
     7
100
AcDbLine
 10
-314.6817321777344
 20
135.0848388671875
 30
0.0
 11
-312.9317321777344
 21
133.3348388671875
 31
0.0
  0
LINE
  5
3AA
330
22
100
AcDbEntity
  8
0
  6
Continuous
 62
     7
100
AcDbLine
 10
-314.6817321777344
 20
147.0848388671875
 30
0.0
 11
-314.6817321777344
 21
135.0848388671875
 31
0.0
  0
LINE
  5
3AB
330
22
100
AcDbEntity
  8
0
  6
Continuous
 62
     7
100
AcDbLine
 10
-311.1817321777344
 20
147.0848388671875
 30
0.0
 11
-311.1817321777344
 21
135.0848388671875
 31
0.0
  0
LINE
  5
3AC
330
22
100
AcDbEntity
  8
0
  6
Continuous
 62
     7
100
AcDbLine
 10
-317.8881225585938
 20
147.0848388671875
 30
0.0
 11
-317.8881225585938
 21
126.120735168457
 31
0.0
  0
LINE
  5
3AD
330
22
100
AcDbEntity
  8
0
  6
Continuous
 62
     7
100
AcDbLine
 10
-314.9317321777344
 20
147.0848388671875
 30
0.0
 11
-314.9317321777344
 21
137.0848388671875
 31
0.0
  0
LINE
  5
3AE
330
22
100
AcDbEntity
  8
0
  6
Continuous
 62
     7
100
AcDbLine
 10
-310.9317321777344
 20
147.0848388671875
 30
0.0
 11
-310.9317321777344
 21
137.0848388671875
 31
0.0
  0
LINE
  5
3AF
330
22
100
AcDbEntity
  8
0
  6
Continuous
 62
     7
100
AcDbLine
 10
-314.9317321777344
 20
137.0848388671875
 30
0.0
 11
-310.9317321777344
 21
137.0848388671875
 31
0.0
  0
LINE
  5
3B0
330
22
100
AcDbEntity
  8
0
  6
Continuous
 62
     7
100
AcDbLine
 10
-300.8881225585938
 20
132.4715881347656
 30
0.0
 11
-300.8881225585938
 21
149.5848388671875
 31
0.0
  0
LINE
  5
3B1
330
22
100
AcDbEntity
  8
0
  6
Continuous
 62
     7
100
AcDbLine
 10
-305.8881225585938
 20
154.5848388671875
 30
0.0
 11
-305.8881225585938
 21
148.0848388671875
 31
0.0
  0
LINE
  5
3B2
330
22
100
AcDbEntity
  8
0
  6
Continuous
 62
     7
100
AcDbLine
 10
-290.8881225585938
 20
153.5848388671875
 30
0.0
 11
-290.8881225585938
 21
151.5848388671875
 31
0.0
  0
LINE
  5
3B3
330
22
100
AcDbEntity
  8
0
  6
Continuous
 62
     7
100
AcDbLine
 10
-299.8881225585938
 20
150.5848388671875
 30
0.0
 11
-291.8881225585938
 21
150.5848388671875
 31
0.0
  0
LINE
  5
3B4
330
22
100
AcDbEntity
  8
0
  6
CENTER
 62
     7
100
AcDbLine
 10
-312.9317321777344
 20
157.7537689208984
 30
0.0
 11
-312.9317321777344
 21
130.369384765625
 31
0.0
  0
ARC
  5
3B5
330
22
100
AcDbEntity
  8
0
  6
Continuous
 62
     7
100
AcDbCircle
 10
-585.8881225585937
 20
228.1767425537109
 30
0.0
 40
5.0
100
AcDbArc
 50
180.0000000000004
 51
270.0000000000005
  0
ARC
  5
3B6
330
22
100
AcDbEntity
  8
0
  6
Continuous
 62
     7
100
AcDbCircle
 10
-295.8881225585938
 20
228.1767425537109
 30
0.0
 40
5.0
100
AcDbArc
 50
270.0000000000005
 51
0.0
  0
ARC
  5
3B7
330
22
100
AcDbEntity
  8
0
  6
Continuous
 62
     7
100
AcDbCircle
 10
-399.3881225585938
 20
353.6767272949219
 30
0.0
 40
2.5
100
AcDbArc
 50
180.0000000000004
 51
0.0
  0
ARC
  5
3B8
330
22
100
AcDbEntity
  8
0
  6
Continuous
 62
     7
100
AcDbCircle
 10
-399.3881225585938
 20
311.6767272949219
 30
0.0
 40
2.5
100
AcDbArc
 50
180.0000000000004
 51
0.0
  0
ARC
  5
3B9
330
22
100
AcDbEntity
  8
0
  6
Continuous
 62
     7
100
AcDbCircle
 10
-399.3881225585938
 20
382.6767272949219
 30
0.0
 40
2.5
100
AcDbArc
 50
180.0000000000004
 51
0.0
  0
ARC
  5
3BA
330
22
100
AcDbEntity
  8
0
  6
Continuous
 62
     7
100
AcDbCircle
 10
-399.3881225585938
 20
392.3518676757813
 30
0.0
 40
2.5
100
AcDbArc
 50
0.0
 51
180.0000000000004
  0
ARC
  5
3BB
330
22
100
AcDbEntity
  8
0
  6
Continuous
 62
     7
100
AcDbCircle
 10
-399.3881225585938
 20
403.3518676757813
 30
0.0
 40
2.5
100
AcDbArc
 50
180.0000000000004
 51
0.0
  0
ARC
  5
3BC
330
22
100
AcDbEntity
  8
0
  6
Continuous
 62
     7
100
AcDbCircle
 10
-399.3881225585938
 20
476.6767272949218
 30
0.0
 40
2.5
100
AcDbArc
 50
0.0
 51
180.0000000000004
  0
ARC
  5
3BD
330
22
100
AcDbEntity
  8
0
  6
Continuous
 62
     7
100
AcDbCircle
 10
-399.3881225585938
 20
434.6767272949218
 30
0.0
 40
2.5
100
AcDbArc
 50
0.0
 51
180.0000000000004
  0
ARC
  5
3BE
330
22
100
AcDbEntity
  8
0
  6
Continuous
 62
     7
100
AcDbCircle
 10
-399.3881225585938
 20
445.6767272949218
 30
0.0
 40
2.5
100
AcDbArc
 50
180.0000000000004
 51
0.0
  0
ARC
  5
3BF
330
22
100
AcDbEntity
  8
0
  6
Continuous
 62
     7
100
AcDbCircle
 10
-399.3881225585938
 20
497.6767272949218
 30
0.0
 40
2.5
100
AcDbArc
 50
0.0
 51
180.0000000000004
  0
ARC
  5
3C0
330
22
100
AcDbEntity
  8
0
  6
Continuous
 62
     7
100
AcDbCircle
 10
-399.3881225585938
 20
487.6767272949218
 30
0.0
 40
2.5
100
AcDbArc
 50
180.0000000000004
 51
0.0
  0
ARC
  5
3C1
330
22
100
AcDbEntity
  8
0
  6
Continuous
 62
     7
100
AcDbCircle
 10
-399.3881225585938
 20
248.6767425537109
 30
0.0
 40
2.5
100
AcDbArc
 50
180.0000000000004
 51
0.0
  0
ARC
  5
3C2
330
22
100
AcDbEntity
  8
0
  6
Continuous
 62
     7
100
AcDbCircle
 10
-399.3881225585938
 20
258.6767272949219
 30
0.0
 40
2.5
100
AcDbArc
 50
0.0
 51
180.0000000000004
  0
ARC
  5
3C3
330
22
100
AcDbEntity
  8
0
  6
Continuous
 62
     7
100
AcDbCircle
 10
-399.3881225585938
 20
300.6767272949219
 30
0.0
 40
2.5
100
AcDbArc
 50
0.0
 51
180.0000000000004
  0
ARC
  5
3C4
330
22
100
AcDbEntity
  8
0
  6
Continuous
 62
     7
100
AcDbCircle
 10
-399.3881225585938
 20
269.676727294922
 30
0.0
 40
2.5
100
AcDbArc
 50
180.0000000000004
 51
0.0
  0
ARC
  5
3C5
330
22
100
AcDbEntity
  8
0
  6
Continuous
 62
     7
100
AcDbCircle
 10
-399.3881225585938
 20
363.6767272949219
 30
0.0
 40
2.5
100
AcDbArc
 50
0.0
 51
180.0000000000004
  0
ARC
  5
3C6
330
22
100
AcDbEntity
  8
0
  6
Continuous
 62
     7
100
AcDbCircle
 10
-399.3881225585938
 20
342.6767272949219
 30
0.0
 40
2.5
100
AcDbArc
 50
0.0
 51
180.0000000000004
  0
ARC
  5
3C7
330
22
100
AcDbEntity
  8
0
  6
Continuous
 62
     7
100
AcDbCircle
 10
-542.3881225585938
 20
403.3518676757813
 30
0.0
 40
2.5
100
AcDbArc
 50
180.0000000000004
 51
0.0
  0
ARC
  5
3C8
330
22
100
AcDbEntity
  8
0
  6
Continuous
 62
     7
100
AcDbCircle
 10
-562.3881225585939
 20
403.3518676757813
 30
0.0
 40
2.5
100
AcDbArc
 50
180.0000000000004
 51
0.0
  0
ARC
  5
3C9
330
22
100
AcDbEntity
  8
0
  6
Continuous
 62
     7
100
AcDbCircle
 10
-522.3881225585938
 20
403.3518676757813
 30
0.0
 40
2.5
100
AcDbArc
 50
180.0000000000004
 51
0.0
  0
ARC
  5
3CA
330
22
100
AcDbEntity
  8
0
  6
Continuous
 62
     7
100
AcDbCircle
 10
-462.3881225585938
 20
403.3518676757813
 30
0.0
 40
2.5
100
AcDbArc
 50
180.0000000000004
 51
0.0
  0
ARC
  5
3CB
330
22
100
AcDbEntity
  8
0
  6
Continuous
 62
     7
100
AcDbCircle
 10
-379.3881225585938
 20
403.3518676757813
 30
0.0
 40
2.5
100
AcDbArc
 50
180.0000000000004
 51
0.0
  0
ARC
  5
3CC
330
22
100
AcDbEntity
  8
0
  6
Continuous
 62
     7
100
AcDbCircle
 10
-319.3881225585938
 20
403.3518676757813
 30
0.0
 40
2.5
100
AcDbArc
 50
180.0000000000004
 51
0.0
  0
ARC
  5
3CD
330
22
100
AcDbEntity
  8
0
  6
Continuous
 62
     7
100
AcDbCircle
 10
-419.3881225585938
 20
403.3518676757813
 30
0.0
 40
2.5
100
AcDbArc
 50
180.0000000000004
 51
0.0
  0
ARC
  5
3CE
330
22
100
AcDbEntity
  8
0
  6
Continuous
 62
     7
100
AcDbCircle
 10
-482.3881225585938
 20
403.3518676757813
 30
0.0
 40
2.5
100
AcDbArc
 50
180.0000000000004
 51
0.0
  0
ARC
  5
3CF
330
22
100
AcDbEntity
  8
0
  6
Continuous
 62
     7
100
AcDbCircle
 10
-502.3881225585937
 20
403.3518676757813
 30
0.0
 40
2.5
100
AcDbArc
 50
180.0000000000004
 51
0.0
  0
ARC
  5
3D0
330
22
100
AcDbEntity
  8
0
  6
Continuous
 62
     7
100
AcDbCircle
 10
-339.3881225585938
 20
403.3518676757813
 30
0.0
 40
2.5
100
AcDbArc
 50
180.0000000000004
 51
0.0
  0
ARC
  5
3D1
330
22
100
AcDbEntity
  8
0
  6
Continuous
 62
     7
100
AcDbCircle
 10
-359.3881225585938
 20
403.3518676757813
 30
0.0
 40
2.5
100
AcDbArc
 50
180.0000000000004
 51
0.0
  0
ARC
  5
3D2
330
22
100
AcDbEntity
  8
0
  6
Continuous
 62
     7
100
AcDbCircle
 10
-522.3881225585938
 20
248.6767425537109
 30
0.0
 40
2.5
100
AcDbArc
 50
180.0000000000004
 51
0.0
  0
ARC
  5
3D3
330
22
100
AcDbEntity
  8
0
  6
Continuous
 62
     7
100
AcDbCircle
 10
-522.3881225585938
 20
300.6767272949219
 30
0.0
 40
2.5
100
AcDbArc
 50
0.0
 51
180.0000000000004
  0
ARC
  5
3D4
330
22
100
AcDbEntity
  8
0
  6
Continuous
 62
     7
100
AcDbCircle
 10
-522.3881225585938
 20
269.676727294922
 30
0.0
 40
2.5
100
AcDbArc
 50
180.0000000000004
 51
0.0
  0
ARC
  5
3D5
330
22
100
AcDbEntity
  8
0
  6
Continuous
 62
     7
100
AcDbCircle
 10
-522.3881225585938
 20
258.6767272949219
 30
0.0
 40
2.5
100
AcDbArc
 50
0.0
 51
180.0000000000004
  0
ARC
  5
3D6
330
22
100
AcDbEntity
  8
0
  6
Continuous
 62
     7
100
AcDbCircle
 10
-522.3881225585938
 20
311.6767272949219
 30
0.0
 40
2.5
100
AcDbArc
 50
180.0000000000004
 51
0.0
  0
ARC
  5
3D7
330
22
100
AcDbEntity
  8
0
  6
Continuous
 62
     7
100
AcDbCircle
 10
-522.3881225585938
 20
343.0015869140625
 30
0.0
 40
2.5
100
AcDbArc
 50
0.0
 51
180.0000000000004
  0
ARC
  5
3D8
330
22
100
AcDbEntity
  8
0
  6
Continuous
 62
     7
100
AcDbCircle
 10
-522.3881225585938
 20
354.0015869140625
 30
0.0
 40
2.5
100
AcDbArc
 50
180.0000000000004
 51
0.0
  0
ARC
  5
3D9
330
22
100
AcDbEntity
  8
0
  6
Continuous
 62
     7
100
AcDbCircle
 10
-522.3881225585938
 20
363.6767272949219
 30
0.0
 40
2.5
100
AcDbArc
 50
0.0
 51
180.0000000000004
  0
ARC
  5
3DA
330
22
100
AcDbEntity
  8
0
  6
Continuous
 62
     7
100
AcDbCircle
 10
-522.3881225585938
 20
382.6767272949219
 30
0.0
 40
2.5
100
AcDbArc
 50
180.0000000000004
 51
0.0
  0
ARC
  5
3DB
330
22
100
AcDbEntity
  8
0
  6
Continuous
 62
     7
100
AcDbCircle
 10
-522.3881225585938
 20
392.3518676757813
 30
0.0
 40
2.5
100
AcDbArc
 50
0.0
 51
180.0000000000004
  0
ARC
  5
3DC
330
22
100
AcDbEntity
  8
0
  6
Continuous
 62
     7
100
AcDbCircle
 10
-522.3881225585938
 20
497.6767272949218
 30
0.0
 40
2.5
100
AcDbArc
 50
0.0
 51
180.0000000000004
  0
ARC
  5
3DD
330
22
100
AcDbEntity
  8
0
  6
Continuous
 62
     7
100
AcDbCircle
 10
-522.3881225585938
 20
476.6767272949218
 30
0.0
 40
2.5
100
AcDbArc
 50
0.0
 51
180.0000000000004
  0
ARC
  5
3DE
330
22
100
AcDbEntity
  8
0
  6
Continuous
 62
     7
100
AcDbCircle
 10
-522.3881225585938
 20
445.6767272949218
 30
0.0
 40
2.5
100
AcDbArc
 50
180.0000000000004
 51
0.0
  0
ARC
  5
3DF
330
22
100
AcDbEntity
  8
0
  6
Continuous
 62
     7
100
AcDbCircle
 10
-522.3881225585938
 20
434.6767272949218
 30
0.0
 40
2.5
100
AcDbArc
 50
0.0
 51
180.0000000000004
  0
ARC
  5
3E0
330
22
100
AcDbEntity
  8
0
  6
Continuous
 62
     7
100
AcDbCircle
 10
-522.3881225585938
 20
487.6767272949218
 30
0.0
 40
2.5
100
AcDbArc
 50
180.0000000000004
 51
0.0
  0
ARC
  5
3E1
330
22
100
AcDbEntity
  8
0
  6
Continuous
 62
     7
100
AcDbCircle
 10
-502.3881225585937
 20
487.6767272949218
 30
0.0
 40
2.5
100
AcDbArc
 50
180.0000000000004
 51
0.0
  0
ARC
  5
3E2
330
22
100
AcDbEntity
  8
0
  6
Continuous
 62
     7
100
AcDbCircle
 10
-482.3881225585938
 20
487.6767272949218
 30
0.0
 40
2.5
100
AcDbArc
 50
180.0000000000004
 51
0.0
  0
ARC
  5
3E3
330
22
100
AcDbEntity
  8
0
  6
Continuous
 62
     7
100
AcDbCircle
 10
-462.3881225585938
 20
487.6767272949218
 30
0.0
 40
2.5
100
AcDbArc
 50
180.0000000000004
 51
0.0
  0
ARC
  5
3E4
330
22
100
AcDbEntity
  8
0
  6
Continuous
 62
     7
100
AcDbCircle
 10
-562.3881225585939
 20
487.6767272949218
 30
0.0
 40
2.5
100
AcDbArc
 50
180.0000000000004
 51
0.0
  0
ARC
  5
3E5
330
22
100
AcDbEntity
  8
0
  6
Continuous
 62
     7
100
AcDbCircle
 10
-542.3881225585938
 20
487.6767272949218
 30
0.0
 40
2.5
100
AcDbArc
 50
180.0000000000004
 51
0.0
  0
ARC
  5
3E6
330
22
100
AcDbEntity
  8
0
  6
Continuous
 62
     7
100
AcDbCircle
 10
-419.3881225585938
 20
487.6767272949218
 30
0.0
 40
2.5
100
AcDbArc
 50
180.0000000000004
 51
0.0
  0
ARC
  5
3E7
330
22
100
AcDbEntity
  8
0
  6
Continuous
 62
     7
100
AcDbCircle
 10
-319.3881225585938
 20
487.6767272949218
 30
0.0
 40
2.5
100
AcDbArc
 50
180.0000000000004
 51
0.0
  0
ARC
  5
3E8
330
22
100
AcDbEntity
  8
0
  6
Continuous
 62
     7
100
AcDbCircle
 10
-359.3881225585938
 20
487.6767272949218
 30
0.0
 40
2.5
100
AcDbArc
 50
180.0000000000004
 51
0.0
  0
ARC
  5
3E9
330
22
100
AcDbEntity
  8
0
  6
Continuous
 62
     7
100
AcDbCircle
 10
-379.3881225585938
 20
487.6767272949218
 30
0.0
 40
2.5
100
AcDbArc
 50
180.0000000000004
 51
0.0
  0
ARC
  5
3EA
330
22
100
AcDbEntity
  8
0
  6
Continuous
 62
     7
100
AcDbCircle
 10
-339.3881225585938
 20
487.6767272949218
 30
0.0
 40
2.5
100
AcDbArc
 50
180.0000000000004
 51
0.0
  0
ARC
  5
3EB
330
22
100
AcDbEntity
  8
0
  6
Continuous
 62
     7
100
AcDbCircle
 10
-532.3881225585938
 20
279.6767272949219
 30
0.0
 40
2.5
100
AcDbArc
 50
0.0
 51
180.0000000000004
  0
ARC
  5
3EC
330
22
100
AcDbEntity
  8
0
  6
Continuous
 62
     7
100
AcDbCircle
 10
-532.3881225585938
 20
290.6767272949219
 30
0.0
 40
2.5
100
AcDbArc
 50
180.0000000000004
 51
0.0
  0
ARC
  5
3ED
330
22
100
AcDbEntity
  8
0
  6
Continuous
 62
     7
100
AcDbCircle
 10
-532.3881225585938
 20
248.6767425537109
 30
0.0
 40
2.5
100
AcDbArc
 50
180.0000000000004
 51
0.0
  0
ARC
  5
3EE
330
22
100
AcDbEntity
  8
0
  6
DASHED
 62
     7
100
AcDbCircle
 10
-570.3881225585937
 20
252.1767425537109
 30
0.0
 40
2.0
100
AcDbArc
 50
180.0000000000004
 51
270.0000000000005
  0
ARC
  5
3EF
330
22
100
AcDbEntity
  8
0
  6
Continuous
 62
     7
100
AcDbCircle
 10
-562.3881225585939
 20
253.6767425537109
 30
0.0
 40
2.5
100
AcDbArc
 50
180.0000000000004
 51
0.0
  0
CIRCLE
  5
3F0
330
22
100
AcDbEntity
  8
0
  6
Continuous
 62
     7
100
AcDbCircle
 10
-568.8881225585937
 20
245.1767425537109
 30
0.0
 40
4.75
  0
CIRCLE
  5
3F1
330
22
100
AcDbEntity
  8
0
  6
Continuous
 62
     7
100
AcDbCircle
 10
-568.8881225585937
 20
245.1767425537109
 30
0.0
 40
4.5
  0
CIRCLE
  5
3F2
330
22
100
AcDbEntity
  8
0
  6
Continuous
 62
     7
100
AcDbCircle
 10
-568.8881225585937
 20
245.1767425537109
 30
0.0
 40
4.5
  0
ARC
  5
3F3
330
22
100
AcDbEntity
  8
0
  6
Continuous
 62
     7
100
AcDbCircle
 10
-562.3881225585939
 20
311.6767272949219
 30
0.0
 40
2.5
100
AcDbArc
 50
180.0000000000004
 51
0.0
  0
ARC
  5
3F4
330
22
100
AcDbEntity
  8
0
  6
Continuous
 62
     7
100
AcDbCircle
 10
-542.3881225585938
 20
311.6767272949219
 30
0.0
 40
2.5
100
AcDbArc
 50
180.0000000000004
 51
0.0
  0
ARC
  5
3F5
330
22
100
AcDbEntity
  8
0
  6
Continuous
 62
     7
100
AcDbCircle
 10
-562.3881225585939
 20
300.6767272949219
 30
0.0
 40
2.5
100
AcDbArc
 50
0.0
 51
180.0000000000004
  0
ARC
  5
3F6
330
22
100
AcDbEntity
  8
0
  6
Continuous
 62
     7
100
AcDbCircle
 10
-562.3881225585939
 20
269.676727294922
 30
0.0
 40
2.5
100
AcDbArc
 50
180.0000000000004
 51
0.0
  0
ARC
  5
3F7
330
22
100
AcDbEntity
  8
0
  6
Continuous
 62
     7
100
AcDbCircle
 10
-575.3881225585937
 20
238.6767425537109
 30
0.0
 40
1.0
100
AcDbArc
 50
180.0000000000004
 51
270.0000000000005
  0
ARC
  5
3F8
330
22
100
AcDbEntity
  8
0
  6
Continuous
 62
     7
100
AcDbCircle
 10
-573.3881225585937
 20
240.6767425537109
 30
0.0
 40
2.0
100
AcDbArc
 50
180.0000000000004
 51
270.0000000000005
  0
ARC
  5
3F9
330
22
100
AcDbEntity
  8
0
  6
DASHED
 62
     7
100
AcDbCircle
 10
-570.3881225585937
 20
380.1767272949219
 30
0.0
 40
2.0
100
AcDbArc
 50
180.0000000000004
 51
270.0000000000005
  0
ARC
  5
3FA
330
22
100
AcDbEntity
  8
0
  6
Continuous
 62
     7
100
AcDbCircle
 10
-562.3881225585939
 20
382.6767272949219
 30
0.0
 40
2.5
100
AcDbArc
 50
180.0000000000004
 51
0.0
  0
ARC
  5
3FB
330
22
100
AcDbEntity
  8
0
  6
Continuous
 62
     7
100
AcDbCircle
 10
-542.3881225585938
 20
382.6767272949219
 30
0.0
 40
2.5
100
AcDbArc
 50
180.0000000000004
 51
0.0
  0
ARC
  5
3FC
330
22
100
AcDbEntity
  8
0
  6
Continuous
 62
     7
100
AcDbCircle
 10
-542.3881225585938
 20
392.3518676757813
 30
0.0
 40
2.5
100
AcDbArc
 50
0.0
 51
180.0000000000004
  0
ARC
  5
3FD
330
22
100
AcDbEntity
  8
0
  6
Continuous
 62
     7
100
AcDbCircle
 10
-562.3881225585939
 20
392.3518676757813
 30
0.0
 40
2.5
100
AcDbArc
 50
0.0
 51
180.0000000000004
  0
ARC
  5
3FE
330
22
100
AcDbEntity
  8
0
  6
DASHED
 62
     7
100
AcDbCircle
 10
-561.8881225585938
 20
243.6767425537109
 30
0.0
 40
2.0
100
AcDbArc
 50
180.0000000000004
 51
270.0000000000005
  0
ARC
  5
3FF
330
22
100
AcDbEntity
  8
0
  6
DASHED
 62
     7
100
AcDbCircle
 10
-568.8881225585937
 20
245.1767425537109
 30
0.0
 40
5.0
100
AcDbArc
 50
0.0
 51
90.00000000000019
  0
ARC
  5
400
330
22
100
AcDbEntity
  8
0
  6
Continuous
 62
     7
100
AcDbCircle
 10
-552.3881225585938
 20
248.6767425537109
 30
0.0
 40
2.5
100
AcDbArc
 50
180.0000000000004
 51
0.0
  0
ARC
  5
401
330
22
100
AcDbEntity
  8
0
  6
Continuous
 62
     7
100
AcDbCircle
 10
-552.3881225585938
 20
290.6767272949219
 30
0.0
 40
2.5
100
AcDbArc
 50
180.0000000000004
 51
0.0
  0
ARC
  5
402
330
22
100
AcDbEntity
  8
0
  6
Continuous
 62
     7
100
AcDbCircle
 10
-542.3881225585938
 20
248.6767425537109
 30
0.0
 40
2.5
100
AcDbArc
 50
180.0000000000004
 51
0.0
  0
ARC
  5
403
330
22
100
AcDbEntity
  8
0
  6
Continuous
 62
     7
100
AcDbCircle
 10
-552.3881225585938
 20
279.6767272949219
 30
0.0
 40
2.5
100
AcDbArc
 50
0.0
 51
180.0000000000004
  0
ARC
  5
404
330
22
100
AcDbEntity
  8
0
  6
Continuous
 62
     7
100
AcDbCircle
 10
-542.3881225585938
 20
258.6767272949219
 30
0.0
 40
2.5
100
AcDbArc
 50
0.0
 51
180.0000000000004
  0
ARC
  5
405
330
22
100
AcDbEntity
  8
0
  6
Continuous
 62
     7
100
AcDbCircle
 10
-542.3881225585938
 20
269.676727294922
 30
0.0
 40
2.5
100
AcDbArc
 50
180.0000000000004
 51
0.0
  0
ARC
  5
406
330
22
100
AcDbEntity
  8
0
  6
Continuous
 62
     7
100
AcDbCircle
 10
-562.3881225585939
 20
258.6767272949219
 30
0.0
 40
2.5
100
AcDbArc
 50
0.0
 51
180.0000000000004
  0
ARC
  5
407
330
22
100
AcDbEntity
  8
0
  6
Continuous
 62
     7
100
AcDbCircle
 10
-542.3881225585938
 20
300.6767272949219
 30
0.0
 40
2.5
100
AcDbArc
 50
0.0
 51
180.0000000000004
  0
CIRCLE
  5
408
330
22
100
AcDbEntity
  8
0
  6
Continuous
 62
     7
100
AcDbCircle
 10
-568.6077880859374
 20
373.2022705078125
 30
0.0
 40
4.75
  0
CIRCLE
  5
409
330
22
100
AcDbEntity
  8
0
  6
Continuous
 62
     7
100
AcDbCircle
 10
-568.6077880859374
 20
373.2022705078125
 30
0.0
 40
4.5
  0
ARC
  5
40A
330
22
100
AcDbEntity
  8
0
  6
Continuous
 62
     7
100
AcDbCircle
 10
-552.3881225585938
 20
382.6767272949219
 30
0.0
 40
2.5
100
AcDbArc
 50
180.0000000000004
 51
0.0
  0
ARC
  5
40B
330
22
100
AcDbEntity
  8
0
  6
Continuous
 62
     7
100
AcDbCircle
 10
-532.3881225585938
 20
382.6767272949219
 30
0.0
 40
2.5
100
AcDbArc
 50
180.0000000000004
 51
0.0
  0
ARC
  5
40C
330
22
100
AcDbEntity
  8
0
  6
Continuous
 62
     7
100
AcDbCircle
 10
-532.3881225585938
 20
332.6767272949219
 30
0.0
 40
2.5
100
AcDbArc
 50
180.0000000000004
 51
0.0
  0
ARC
  5
40D
330
22
100
AcDbEntity
  8
0
  6
Continuous
 62
     7
100
AcDbCircle
 10
-532.3881225585938
 20
321.6767272949219
 30
0.0
 40
2.5
100
AcDbArc
 50
0.0
 51
180.0000000000004
  0
ARC
  5
40E
330
22
100
AcDbEntity
  8
0
  6
Continuous
 62
     7
100
AcDbCircle
 10
-532.3881225585938
 20
363.6767272949219
 30
0.0
 40
2.5
100
AcDbArc
 50
0.0
 51
180.0000000000004
  0
ARC
  5
40F
330
22
100
AcDbEntity
  8
0
  6
DASHED
 62
     7
100
AcDbCircle
 10
-570.3881225585937
 20
366.1767272949219
 30
0.0
 40
2.0
100
AcDbArc
 50
90.00000000000019
 51
180.0000000000004
  0
ARC
  5
410
330
22
100
AcDbEntity
  8
0
  6
Continuous
 62
     7
100
AcDbCircle
 10
-552.3881225585938
 20
332.6767272949219
 30
0.0
 40
2.5
100
AcDbArc
 50
180.0000000000004
 51
0.0
  0
ARC
  5
411
330
22
100
AcDbEntity
  8
0
  6
Continuous
 62
     7
100
AcDbCircle
 10
-562.3881225585939
 20
343.0015869140625
 30
0.0
 40
2.5
100
AcDbArc
 50
0.0
 51
180.0000000000004
  0
ARC
  5
412
330
22
100
AcDbEntity
  8
0
  6
Continuous
 62
     7
100
AcDbCircle
 10
-542.3881225585938
 20
343.0015869140625
 30
0.0
 40
2.5
100
AcDbArc
 50
0.0
 51
180.0000000000004
  0
ARC
  5
413
330
22
100
AcDbEntity
  8
0
  6
DASHED
 62
     7
100
AcDbCircle
 10
-568.6077880859374
 20
373.1767272949219
 30
0.0
 40
5.0
100
AcDbArc
 50
29.99993043599933
 51
90.00000000000019
  0
ARC
  5
414
330
22
100
AcDbEntity
  8
0
  6
Continuous
 62
     7
100
AcDbCircle
 10
-482.3881225585938
 20
248.6767425537109
 30
0.0
 40
2.5
100
AcDbArc
 50
180.0000000000004
 51
0.0
  0
ARC
  5
415
330
22
100
AcDbEntity
  8
0
  6
Continuous
 62
     7
100
AcDbCircle
 10
-482.3881225585938
 20
300.6767272949219
 30
0.0
 40
2.5
100
AcDbArc
 50
0.0
 51
180.0000000000004
  0
ARC
  5
416
330
22
100
AcDbEntity
  8
0
  6
Continuous
 62
     7
100
AcDbCircle
 10
-502.3881225585937
 20
248.6767425537109
 30
0.0
 40
2.5
100
AcDbArc
 50
180.0000000000004
 51
0.0
  0
ARC
  5
417
330
22
100
AcDbEntity
  8
0
  6
Continuous
 62
     7
100
AcDbCircle
 10
-462.3881225585938
 20
311.6767272949219
 30
0.0
 40
2.5
100
AcDbArc
 50
180.0000000000004
 51
0.0
  0
ARC
  5
418
330
22
100
AcDbEntity
  8
0
  6
Continuous
 62
     7
100
AcDbCircle
 10
-462.3881225585938
 20
258.6767272949219
 30
0.0
 40
2.5
100
AcDbArc
 50
0.0
 51
180.0000000000004
  0
ARC
  5
419
330
22
100
AcDbEntity
  8
0
  6
Continuous
 62
     7
100
AcDbCircle
 10
-462.3881225585938
 20
269.676727294922
 30
0.0
 40
2.5
100
AcDbArc
 50
180.0000000000004
 51
0.0
  0
ARC
  5
41A
330
22
100
AcDbEntity
  8
0
  6
Continuous
 62
     7
100
AcDbCircle
 10
-462.3881225585938
 20
248.6767425537109
 30
0.0
 40
2.5
100
AcDbArc
 50
180.0000000000004
 51
0.0
  0
ARC
  5
41B
330
22
100
AcDbEntity
  8
0
  6
Continuous
 62
     7
100
AcDbCircle
 10
-462.3881225585938
 20
300.6767272949219
 30
0.0
 40
2.5
100
AcDbArc
 50
0.0
 51
180.0000000000004
  0
ARC
  5
41C
330
22
100
AcDbEntity
  8
0
  6
Continuous
 62
     7
100
AcDbCircle
 10
-562.3881225585939
 20
363.6767272949219
 30
0.0
 40
2.5
100
AcDbArc
 50
0.0
 51
180.0000000000004
  0
ARC
  5
41D
330
22
100
AcDbEntity
  8
0
  6
Continuous
 62
     7
100
AcDbCircle
 10
-552.3881225585938
 20
363.6767272949219
 30
0.0
 40
2.5
100
AcDbArc
 50
0.0
 51
180.0000000000004
  0
ARC
  5
41E
330
22
100
AcDbEntity
  8
0
  6
Continuous
 62
     7
100
AcDbCircle
 10
-542.3881225585938
 20
363.6767272949219
 30
0.0
 40
2.5
100
AcDbArc
 50
0.0
 51
180.0000000000004
  0
ARC
  5
41F
330
22
100
AcDbEntity
  8
0
  6
Continuous
 62
     7
100
AcDbCircle
 10
-552.3881225585938
 20
321.6767272949219
 30
0.0
 40
2.5
100
AcDbArc
 50
0.0
 51
180.0000000000004
  0
ARC
  5
420
330
22
100
AcDbEntity
  8
0
  6
Continuous
 62
     7
100
AcDbCircle
 10
-562.3881225585939
 20
354.0015869140625
 30
0.0
 40
2.5
100
AcDbArc
 50
180.0000000000004
 51
0.0
  0
ARC
  5
421
330
22
100
AcDbEntity
  8
0
  6
Continuous
 62
     7
100
AcDbCircle
 10
-542.3881225585938
 20
354.0015869140625
 30
0.0
 40
2.5
100
AcDbArc
 50
180.0000000000004
 51
0.0
  0
ARC
  5
422
330
22
100
AcDbEntity
  8
0
  6
DASHED
 62
     7
100
AcDbCircle
 10
-568.6077880859374
 20
373.1767272949219
 30
0.0
 40
5.0
100
AcDbArc
 50
270.0000000000005
 51
330.0000695640014
  0
ARC
  5
423
330
22
100
AcDbEntity
  8
0
  6
Continuous
 62
     7
100
AcDbCircle
 10
-472.3881225585937
 20
279.6767272949219
 30
0.0
 40
2.5
100
AcDbArc
 50
0.0
 51
180.0000000000004
  0
ARC
  5
424
330
22
100
AcDbEntity
  8
0
  6
Continuous
 62
     7
100
AcDbCircle
 10
-482.3881225585938
 20
269.676727294922
 30
0.0
 40
2.5
100
AcDbArc
 50
180.0000000000004
 51
0.0
  0
ARC
  5
425
330
22
100
AcDbEntity
  8
0
  6
Continuous
 62
     7
100
AcDbCircle
 10
-482.3881225585938
 20
258.6767272949219
 30
0.0
 40
2.5
100
AcDbArc
 50
0.0
 51
180.0000000000004
  0
ARC
  5
426
330
22
100
AcDbEntity
  8
0
  6
Continuous
 62
     7
100
AcDbCircle
 10
-492.3881225585938
 20
290.6767272949219
 30
0.0
 40
2.5
100
AcDbArc
 50
180.0000000000004
 51
0.0
  0
ARC
  5
427
330
22
100
AcDbEntity
  8
0
  6
Continuous
 62
     7
100
AcDbCircle
 10
-492.3881225585938
 20
279.6767272949219
 30
0.0
 40
2.5
100
AcDbArc
 50
0.0
 51
180.0000000000004
  0
ARC
  5
428
330
22
100
AcDbEntity
  8
0
  6
Continuous
 62
     7
100
AcDbCircle
 10
-512.3881225585939
 20
279.6767272949219
 30
0.0
 40
2.5
100
AcDbArc
 50
0.0
 51
180.0000000000004
  0
ARC
  5
429
330
22
100
AcDbEntity
  8
0
  6
Continuous
 62
     7
100
AcDbCircle
 10
-502.3881225585937
 20
269.676727294922
 30
0.0
 40
2.5
100
AcDbArc
 50
180.0000000000004
 51
0.0
  0
ARC
  5
42A
330
22
100
AcDbEntity
  8
0
  6
Continuous
 62
     7
100
AcDbCircle
 10
-492.3881225585938
 20
248.6767425537109
 30
0.0
 40
2.5
100
AcDbArc
 50
180.0000000000004
 51
0.0
  0
ARC
  5
42B
330
22
100
AcDbEntity
  8
0
  6
Continuous
 62
     7
100
AcDbCircle
 10
-512.3881225585939
 20
248.6767425537109
 30
0.0
 40
2.5
100
AcDbArc
 50
180.0000000000004
 51
0.0
  0
ARC
  5
42C
330
22
100
AcDbEntity
  8
0
  6
Continuous
 62
     7
100
AcDbCircle
 10
-472.3881225585937
 20
290.6767272949219
 30
0.0
 40
2.5
100
AcDbArc
 50
180.0000000000004
 51
0.0
  0
ARC
  5
42D
330
22
100
AcDbEntity
  8
0
  6
Continuous
 62
     7
100
AcDbCircle
 10
-472.3881225585937
 20
248.6767425537109
 30
0.0
 40
2.5
100
AcDbArc
 50
180.0000000000004
 51
0.0
  0
ARC
  5
42E
330
22
100
AcDbEntity
  8
0
  6
Continuous
 62
     7
100
AcDbCircle
 10
-502.3881225585937
 20
311.6767272949219
 30
0.0
 40
2.5
100
AcDbArc
 50
180.0000000000004
 51
0.0
  0
ARC
  5
42F
330
22
100
AcDbEntity
  8
0
  6
Continuous
 62
     7
100
AcDbCircle
 10
-482.3881225585938
 20
311.6767272949219
 30
0.0
 40
2.5
100
AcDbArc
 50
180.0000000000004
 51
0.0
  0
ARC
  5
430
330
22
100
AcDbEntity
  8
0
  6
Continuous
 62
     7
100
AcDbCircle
 10
-502.3881225585937
 20
300.6767272949219
 30
0.0
 40
2.5
100
AcDbArc
 50
0.0
 51
180.0000000000004
  0
ARC
  5
431
330
22
100
AcDbEntity
  8
0
  6
Continuous
 62
     7
100
AcDbCircle
 10
-502.3881225585937
 20
258.6767272949219
 30
0.0
 40
2.5
100
AcDbArc
 50
0.0
 51
180.0000000000004
  0
CIRCLE
  5
432
330
22
100
AcDbEntity
  8
0
  6
Continuous
 62
     7
100
AcDbCircle
 10
-440.8881225585938
 20
245.1767425537109
 30
0.0
 40
4.5
  0
CIRCLE
  5
433
330
22
100
AcDbEntity
  8
0
  6
Continuous
 62
     7
100
AcDbCircle
 10
-440.8881225585938
 20
245.1767425537109
 30
0.0
 40
4.75
  0
ARC
  5
434
330
22
100
AcDbEntity
  8
0
  6
Continuous
 62
     7
100
AcDbCircle
 10
-512.3881225585939
 20
290.6767272949219
 30
0.0
 40
2.5
100
AcDbArc
 50
180.0000000000004
 51
0.0
  0
ARC
  5
435
330
22
100
AcDbEntity
  8
0
  6
Continuous
 62
     7
100
AcDbCircle
 10
-409.3881225585938
 20
279.6767272949219
 30
0.0
 40
2.5
100
AcDbArc
 50
0.0
 51
180.0000000000004
  0
ARC
  5
436
330
22
100
AcDbEntity
  8
0
  6
Continuous
 62
     7
100
AcDbCircle
 10
-409.3881225585938
 20
290.6767272949219
 30
0.0
 40
2.5
100
AcDbArc
 50
180.0000000000004
 51
0.0
  0
ARC
  5
437
330
22
100
AcDbEntity
  8
0
  6
Continuous
 62
     7
100
AcDbCircle
 10
-409.3881225585938
 20
248.6767425537109
 30
0.0
 40
2.5
100
AcDbArc
 50
180.0000000000004
 51
0.0
  0
ARC
  5
438
330
22
100
AcDbEntity
  8
0
  6
DASHED
 62
     7
100
AcDbCircle
 10
-447.8881225585937
 20
243.6767425537109
 30
0.0
 40
2.0
100
AcDbArc
 50
270.0000000000005
 51
0.0
  0
ARC
  5
439
330
22
100
AcDbEntity
  8
0
  6
Continuous
 62
     7
100
AcDbCircle
 10
-452.3881225585937
 20
290.6767272949219
 30
0.0
 40
2.5
100
AcDbArc
 50
180.0000000000004
 51
0.0
  0
ARC
  5
43A
330
22
100
AcDbEntity
  8
0
  6
Continuous
 62
     7
100
AcDbCircle
 10
-452.3881225585937
 20
279.6767272949219
 30
0.0
 40
2.5
100
AcDbArc
 50
0.0
 51
180.0000000000004
  0
ARC
  5
43B
330
22
100
AcDbEntity
  8
0
  6
DASHED
 62
     7
100
AcDbCircle
 10
-440.8881225585938
 20
245.1767425537109
 30
0.0
 40
5.0
100
AcDbArc
 50
120.0000178622841
 51
180.0000000000004
  0
ARC
  5
43C
330
22
100
AcDbEntity
  8
0
  6
Continuous
 62
     7
100
AcDbCircle
 10
-452.3881225585937
 20
248.6767425537109
 30
0.0
 40
2.5
100
AcDbArc
 50
180.0000000000004
 51
0.0
  0
ARC
  5
43D
330
22
100
AcDbEntity
  8
0
  6
Continuous
 62
     7
100
AcDbCircle
 10
-462.3881225585938
 20
354.0015869140625
 30
0.0
 40
2.5
100
AcDbArc
 50
180.0000000000004
 51
0.0
  0
ARC
  5
43E
330
22
100
AcDbEntity
  8
0
  6
Continuous
 62
     7
100
AcDbCircle
 10
-462.3881225585938
 20
343.0015869140625
 30
0.0
 40
2.5
100
AcDbArc
 50
0.0
 51
180.0000000000004
  0
ARC
  5
43F
330
22
100
AcDbEntity
  8
0
  6
Continuous
 62
     7
100
AcDbCircle
 10
-462.3881225585938
 20
363.6767272949219
 30
0.0
 40
2.5
100
AcDbArc
 50
0.0
 51
180.0000000000004
  0
ARC
  5
440
330
22
100
AcDbEntity
  8
0
  6
DASHED
 62
     7
100
AcDbCircle
 10
-440.8881225585938
 20
245.1767425537109
 30
0.0
 40
5.0
100
AcDbArc
 50
0.0
 51
59.99998213771593
  0
ARC
  5
441
330
22
100
AcDbEntity
  8
0
  6
DASHED
 62
     7
100
AcDbCircle
 10
-433.8881225585938
 20
243.6767425537109
 30
0.0
 40
2.0
100
AcDbArc
 50
180.0000000000004
 51
270.0000000000005
  0
ARC
  5
442
330
22
100
AcDbEntity
  8
0
  6
Continuous
 62
     7
100
AcDbCircle
 10
-419.3881225585938
 20
248.6767425537109
 30
0.0
 40
2.5
100
AcDbArc
 50
180.0000000000004
 51
0.0
  0
ARC
  5
443
330
22
100
AcDbEntity
  8
0
  6
Continuous
 62
     7
100
AcDbCircle
 10
-419.3881225585938
 20
311.6767272949219
 30
0.0
 40
2.5
100
AcDbArc
 50
180.0000000000004
 51
0.0
  0
ARC
  5
444
330
22
100
AcDbEntity
  8
0
  6
Continuous
 62
     7
100
AcDbCircle
 10
-429.3881225585938
 20
279.6767272949219
 30
0.0
 40
2.5
100
AcDbArc
 50
0.0
 51
180.0000000000004
  0
ARC
  5
445
330
22
100
AcDbEntity
  8
0
  6
Continuous
 62
     7
100
AcDbCircle
 10
-429.3881225585938
 20
248.6767425537109
 30
0.0
 40
2.5
100
AcDbArc
 50
180.0000000000004
 51
0.0
  0
ARC
  5
446
330
22
100
AcDbEntity
  8
0
  6
Continuous
 62
     7
100
AcDbCircle
 10
-429.3881225585938
 20
290.6767272949219
 30
0.0
 40
2.5
100
AcDbArc
 50
180.0000000000004
 51
0.0
  0
ARC
  5
447
330
22
100
AcDbEntity
  8
0
  6
Continuous
 62
     7
100
AcDbCircle
 10
-419.3881225585938
 20
269.676727294922
 30
0.0
 40
2.5
100
AcDbArc
 50
180.0000000000004
 51
0.0
  0
ARC
  5
448
330
22
100
AcDbEntity
  8
0
  6
Continuous
 62
     7
100
AcDbCircle
 10
-419.3881225585938
 20
258.6767272949219
 30
0.0
 40
2.5
100
AcDbArc
 50
0.0
 51
180.0000000000004
  0
ARC
  5
449
330
22
100
AcDbEntity
  8
0
  6
Continuous
 62
     7
100
AcDbCircle
 10
-419.3881225585938
 20
300.6767272949219
 30
0.0
 40
2.5
100
AcDbArc
 50
0.0
 51
180.0000000000004
  0
ARC
  5
44A
330
22
100
AcDbEntity
  8
0
  6
Continuous
 62
     7
100
AcDbCircle
 10
-482.3881225585938
 20
354.0015869140625
 30
0.0
 40
2.5
100
AcDbArc
 50
180.0000000000004
 51
0.0
  0
ARC
  5
44B
330
22
100
AcDbEntity
  8
0
  6
Continuous
 62
     7
100
AcDbCircle
 10
-472.3881225585937
 20
363.6767272949219
 30
0.0
 40
2.5
100
AcDbArc
 50
0.0
 51
180.0000000000004
  0
ARC
  5
44C
330
22
100
AcDbEntity
  8
0
  6
Continuous
 62
     7
100
AcDbCircle
 10
-482.3881225585938
 20
343.0015869140625
 30
0.0
 40
2.5
100
AcDbArc
 50
0.0
 51
180.0000000000004
  0
ARC
  5
44D
330
22
100
AcDbEntity
  8
0
  6
Continuous
 62
     7
100
AcDbCircle
 10
-472.3881225585937
 20
382.6767272949219
 30
0.0
 40
2.5
100
AcDbArc
 50
180.0000000000004
 51
0.0
  0
ARC
  5
44E
330
22
100
AcDbEntity
  8
0
  6
Continuous
 62
     7
100
AcDbCircle
 10
-492.3881225585938
 20
382.6767272949219
 30
0.0
 40
2.5
100
AcDbArc
 50
180.0000000000004
 51
0.0
  0
ARC
  5
44F
330
22
100
AcDbEntity
  8
0
  6
Continuous
 62
     7
100
AcDbCircle
 10
-502.3881225585937
 20
382.6767272949219
 30
0.0
 40
2.5
100
AcDbArc
 50
180.0000000000004
 51
0.0
  0
ARC
  5
450
330
22
100
AcDbEntity
  8
0
  6
Continuous
 62
     7
100
AcDbCircle
 10
-482.3881225585938
 20
382.6767272949219
 30
0.0
 40
2.5
100
AcDbArc
 50
180.0000000000004
 51
0.0
  0
ARC
  5
451
330
22
100
AcDbEntity
  8
0
  6
Continuous
 62
     7
100
AcDbCircle
 10
-512.3881225585939
 20
382.6767272949219
 30
0.0
 40
2.5
100
AcDbArc
 50
180.0000000000004
 51
0.0
  0
ARC
  5
452
330
22
100
AcDbEntity
  8
0
  6
Continuous
 62
     7
100
AcDbCircle
 10
-419.3881225585938
 20
392.3518676757813
 30
0.0
 40
2.5
100
AcDbArc
 50
0.0
 51
180.0000000000004
  0
ARC
  5
453
330
22
100
AcDbEntity
  8
0
  6
Continuous
 62
     7
100
AcDbCircle
 10
-502.3881225585937
 20
392.3518676757813
 30
0.0
 40
2.5
100
AcDbArc
 50
0.0
 51
180.0000000000004
  0
ARC
  5
454
330
22
100
AcDbEntity
  8
0
  6
Continuous
 62
     7
100
AcDbCircle
 10
-482.3881225585938
 20
392.3518676757813
 30
0.0
 40
2.5
100
AcDbArc
 50
0.0
 51
180.0000000000004
  0
ARC
  5
455
330
22
100
AcDbEntity
  8
0
  6
Continuous
 62
     7
100
AcDbCircle
 10
-462.3881225585938
 20
392.3518676757813
 30
0.0
 40
2.5
100
AcDbArc
 50
0.0
 51
180.0000000000004
  0
ARC
  5
456
330
22
100
AcDbEntity
  8
0
  6
Continuous
 62
     7
100
AcDbCircle
 10
-462.3881225585938
 20
382.6767272949219
 30
0.0
 40
2.5
100
AcDbArc
 50
180.0000000000004
 51
0.0
  0
ARC
  5
457
330
22
100
AcDbEntity
  8
0
  6
DASHED
 62
     7
100
AcDbCircle
 10
-445.3881225585938
 20
368.6767272949219
 30
0.0
 40
2.0
100
AcDbArc
 50
0.0
 51
90.00000000000019
  0
ARC
  5
458
330
22
100
AcDbEntity
  8
0
  6
Continuous
 62
     7
100
AcDbCircle
 10
-452.3881225585937
 20
382.6767272949219
 30
0.0
 40
2.5
100
AcDbArc
 50
180.0000000000004
 51
0.0
  0
ARC
  5
459
330
22
100
AcDbEntity
  8
0
  6
DASHED
 62
     7
100
AcDbCircle
 10
-445.3881225585938
 20
377.6767272949219
 30
0.0
 40
2.0
100
AcDbArc
 50
270.0000000000005
 51
0.0
  0
ARC
  5
45A
330
22
100
AcDbEntity
  8
0
  6
Continuous
 62
     7
100
AcDbCircle
 10
-472.3881225585937
 20
321.6767272949219
 30
0.0
 40
2.5
100
AcDbArc
 50
0.0
 51
180.0000000000004
  0
ARC
  5
45B
330
22
100
AcDbEntity
  8
0
  6
Continuous
 62
     7
100
AcDbCircle
 10
-492.3881225585938
 20
332.6767272949219
 30
0.0
 40
2.5
100
AcDbArc
 50
180.0000000000004
 51
0.0
  0
ARC
  5
45C
330
22
100
AcDbEntity
  8
0
  6
Continuous
 62
     7
100
AcDbCircle
 10
-512.3881225585939
 20
321.6767272949219
 30
0.0
 40
2.5
100
AcDbArc
 50
0.0
 51
180.0000000000004
  0
ARC
  5
45D
330
22
100
AcDbEntity
  8
0
  6
Continuous
 62
     7
100
AcDbCircle
 10
-482.3881225585938
 20
363.6767272949219
 30
0.0
 40
2.5
100
AcDbArc
 50
0.0
 51
180.0000000000004
  0
ARC
  5
45E
330
22
100
AcDbEntity
  8
0
  6
Continuous
 62
     7
100
AcDbCircle
 10
-512.3881225585939
 20
363.6767272949219
 30
0.0
 40
2.5
100
AcDbArc
 50
0.0
 51
180.0000000000004
  0
ARC
  5
45F
330
22
100
AcDbEntity
  8
0
  6
Continuous
 62
     7
100
AcDbCircle
 10
-512.3881225585939
 20
332.6767272949219
 30
0.0
 40
2.5
100
AcDbArc
 50
180.0000000000004
 51
0.0
  0
ARC
  5
460
330
22
100
AcDbEntity
  8
0
  6
Continuous
 62
     7
100
AcDbCircle
 10
-492.3881225585938
 20
321.6767272949219
 30
0.0
 40
2.5
100
AcDbArc
 50
0.0
 51
180.0000000000004
  0
ARC
  5
461
330
22
100
AcDbEntity
  8
0
  6
Continuous
 62
     7
100
AcDbCircle
 10
-492.3881225585938
 20
363.6767272949219
 30
0.0
 40
2.5
100
AcDbArc
 50
0.0
 51
180.0000000000004
  0
ARC
  5
462
330
22
100
AcDbEntity
  8
0
  6
Continuous
 62
     7
100
AcDbCircle
 10
-502.3881225585937
 20
363.6767272949219
 30
0.0
 40
2.5
100
AcDbArc
 50
0.0
 51
180.0000000000004
  0
ARC
  5
463
330
22
100
AcDbEntity
  8
0
  6
Continuous
 62
     7
100
AcDbCircle
 10
-502.3881225585937
 20
343.0015869140625
 30
0.0
 40
2.5
100
AcDbArc
 50
0.0
 51
180.0000000000004
  0
ARC
  5
464
330
22
100
AcDbEntity
  8
0
  6
Continuous
 62
     7
100
AcDbCircle
 10
-502.3881225585937
 20
354.0015869140625
 30
0.0
 40
2.5
100
AcDbArc
 50
180.0000000000004
 51
0.0
  0
ARC
  5
465
330
22
100
AcDbEntity
  8
0
  6
Continuous
 62
     7
100
AcDbCircle
 10
-472.3881225585937
 20
332.6767272949219
 30
0.0
 40
2.5
100
AcDbArc
 50
180.0000000000004
 51
0.0
  0
ARC
  5
466
330
22
100
AcDbEntity
  8
0
  6
Continuous
 62
     7
100
AcDbCircle
 10
-532.3881225585938
 20
413.6767272949218
 30
0.0
 40
2.5
100
AcDbArc
 50
0.0
 51
180.0000000000004
  0
ARC
  5
467
330
22
100
AcDbEntity
  8
0
  6
DASHED
 62
     7
100
AcDbCircle
 10
-436.3881225585938
 20
368.6767272949219
 30
0.0
 40
2.0
100
AcDbArc
 50
90.00000000000019
 51
180.0000000000004
  0
ARC
  5
468
330
22
100
AcDbEntity
  8
0
  6
Continuous
 62
     7
100
AcDbCircle
 10
-419.3881225585938
 20
342.6767272949219
 30
0.0
 40
2.5
100
AcDbArc
 50
0.0
 51
180.0000000000004
  0
ARC
  5
469
330
22
100
AcDbEntity
  8
0
  6
Continuous
 62
     7
100
AcDbCircle
 10
-419.3881225585938
 20
353.6767272949219
 30
0.0
 40
2.5
100
AcDbArc
 50
180.0000000000004
 51
0.0
  0
ARC
  5
46A
330
22
100
AcDbEntity
  8
0
  6
Continuous
 62
     7
100
AcDbCircle
 10
-429.3881225585938
 20
363.6767272949219
 30
0.0
 40
2.5
100
AcDbArc
 50
0.0
 51
180.0000000000004
  0
ARC
  5
46B
330
22
100
AcDbEntity
  8
0
  6
Continuous
 62
     7
100
AcDbCircle
 10
-429.3881225585938
 20
332.6767272949219
 30
0.0
 40
2.5
100
AcDbArc
 50
180.0000000000004
 51
0.0
  0
ARC
  5
46C
330
22
100
AcDbEntity
  8
0
  6
Continuous
 62
     7
100
AcDbCircle
 10
-429.3881225585938
 20
321.6767272949219
 30
0.0
 40
2.5
100
AcDbArc
 50
0.0
 51
180.0000000000004
  0
ARC
  5
46D
330
22
100
AcDbEntity
  8
0
  6
Continuous
 62
     7
100
AcDbCircle
 10
-419.3881225585938
 20
363.6767272949219
 30
0.0
 40
2.5
100
AcDbArc
 50
0.0
 51
180.0000000000004
  0
ARC
  5
46E
330
22
100
AcDbEntity
  8
0
  6
DASHED
 62
     7
100
AcDbCircle
 10
-436.3881225585938
 20
377.6767272949219
 30
0.0
 40
2.0
100
AcDbArc
 50
180.0000000000004
 51
270.0000000000005
  0
ARC
  5
46F
330
22
100
AcDbEntity
  8
0
  6
Continuous
 62
     7
100
AcDbCircle
 10
-409.3881225585938
 20
321.6767272949219
 30
0.0
 40
2.5
100
AcDbArc
 50
0.0
 51
180.0000000000004
  0
ARC
  5
470
330
22
100
AcDbEntity
  8
0
  6
Continuous
 62
     7
100
AcDbCircle
 10
-409.3881225585938
 20
363.6767272949219
 30
0.0
 40
2.5
100
AcDbArc
 50
0.0
 51
180.0000000000004
  0
ARC
  5
471
330
22
100
AcDbEntity
  8
0
  6
Continuous
 62
     7
100
AcDbCircle
 10
-409.3881225585938
 20
332.6767272949219
 30
0.0
 40
2.5
100
AcDbArc
 50
180.0000000000004
 51
0.0
  0
ARC
  5
472
330
22
100
AcDbEntity
  8
0
  6
Continuous
 62
     7
100
AcDbCircle
 10
-409.3881225585938
 20
382.6767272949219
 30
0.0
 40
2.5
100
AcDbArc
 50
180.0000000000004
 51
0.0
  0
ARC
  5
473
330
22
100
AcDbEntity
  8
0
  6
Continuous
 62
     7
100
AcDbCircle
 10
-429.3881225585938
 20
382.6767272949219
 30
0.0
 40
2.5
100
AcDbArc
 50
180.0000000000004
 51
0.0
  0
ARC
  5
474
330
22
100
AcDbEntity
  8
0
  6
Continuous
 62
     7
100
AcDbCircle
 10
-419.3881225585938
 20
382.6767272949219
 30
0.0
 40
2.5
100
AcDbArc
 50
180.0000000000004
 51
0.0
  0
ARC
  5
475
330
22
100
AcDbEntity
  8
0
  6
Continuous
 62
     7
100
AcDbCircle
 10
-452.3881225585937
 20
332.6767272949219
 30
0.0
 40
2.5
100
AcDbArc
 50
180.0000000000004
 51
0.0
  0
ARC
  5
476
330
22
100
AcDbEntity
  8
0
  6
Continuous
 62
     7
100
AcDbCircle
 10
-452.3881225585937
 20
321.6767272949219
 30
0.0
 40
2.5
100
AcDbArc
 50
0.0
 51
180.0000000000004
  0
ARC
  5
477
330
22
100
AcDbEntity
  8
0
  6
Continuous
 62
     7
100
AcDbCircle
 10
-452.3881225585937
 20
363.6767272949219
 30
0.0
 40
2.5
100
AcDbArc
 50
0.0
 51
180.0000000000004
  0
ARC
  5
478
330
22
100
AcDbEntity
  8
0
  6
Continuous
 62
     7
100
AcDbCircle
 10
-532.3881225585938
 20
497.6767272949218
 30
0.0
 40
2.5
100
AcDbArc
 50
0.0
 51
180.0000000000004
  0
ARC
  5
479
330
22
100
AcDbEntity
  8
0
  6
Continuous
 62
     7
100
AcDbCircle
 10
-562.3881225585939
 20
476.6767272949218
 30
0.0
 40
2.5
100
AcDbArc
 50
0.0
 51
180.0000000000004
  0
ARC
  5
47A
330
22
100
AcDbEntity
  8
0
  6
Continuous
 62
     7
100
AcDbCircle
 10
-562.3881225585939
 20
434.6767272949218
 30
0.0
 40
2.5
100
AcDbArc
 50
0.0
 51
180.0000000000004
  0
ARC
  5
47B
330
22
100
AcDbEntity
  8
0
  6
Continuous
 62
     7
100
AcDbCircle
 10
-562.3881225585939
 20
445.6767272949218
 30
0.0
 40
2.5
100
AcDbArc
 50
180.0000000000004
 51
0.0
  0
ARC
  5
47C
330
22
100
AcDbEntity
  8
0
  6
Continuous
 62
     7
100
AcDbCircle
 10
-542.3881225585938
 20
476.6767272949218
 30
0.0
 40
2.5
100
AcDbArc
 50
0.0
 51
180.0000000000004
  0
ARC
  5
47D
330
22
100
AcDbEntity
  8
0
  6
Continuous
 62
     7
100
AcDbCircle
 10
-552.3881225585938
 20
466.6767272949218
 30
0.0
 40
2.5
100
AcDbArc
 50
180.0000000000004
 51
0.0
  0
ARC
  5
47E
330
22
100
AcDbEntity
  8
0
  6
Continuous
 62
     7
100
AcDbCircle
 10
-552.3881225585938
 20
455.6767272949218
 30
0.0
 40
2.5
100
AcDbArc
 50
0.0
 51
180.0000000000004
  0
ARC
  5
47F
330
22
100
AcDbEntity
  8
0
  6
Continuous
 62
     7
100
AcDbCircle
 10
-542.3881225585938
 20
434.6767272949218
 30
0.0
 40
2.5
100
AcDbArc
 50
0.0
 51
180.0000000000004
  0
ARC
  5
480
330
22
100
AcDbEntity
  8
0
  6
Continuous
 62
     7
100
AcDbCircle
 10
-542.3881225585938
 20
445.6767272949218
 30
0.0
 40
2.5
100
AcDbArc
 50
180.0000000000004
 51
0.0
  0
ARC
  5
481
330
22
100
AcDbEntity
  8
0
  6
Continuous
 62
     7
100
AcDbCircle
 10
-532.3881225585938
 20
455.6767272949218
 30
0.0
 40
2.5
100
AcDbArc
 50
0.0
 51
180.0000000000004
  0
ARC
  5
482
330
22
100
AcDbEntity
  8
0
  6
Continuous
 62
     7
100
AcDbCircle
 10
-532.3881225585938
 20
466.6767272949218
 30
0.0
 40
2.5
100
AcDbArc
 50
180.0000000000004
 51
0.0
  0
ARC
  5
483
330
22
100
AcDbEntity
  8
0
  6
Continuous
 62
     7
100
AcDbCircle
 10
-552.3881225585938
 20
413.6767272949218
 30
0.0
 40
2.5
100
AcDbArc
 50
0.0
 51
180.0000000000004
  0
ARC
  5
484
330
22
100
AcDbEntity
  8
0
  6
Continuous
 62
     7
100
AcDbCircle
 10
-552.3881225585938
 20
424.6767272949218
 30
0.0
 40
2.5
100
AcDbArc
 50
180.0000000000004
 51
0.0
  0
ARC
  5
485
330
22
100
AcDbEntity
  8
0
  6
Continuous
 62
     7
100
AcDbCircle
 10
-532.3881225585938
 20
424.6767272949218
 30
0.0
 40
2.5
100
AcDbArc
 50
180.0000000000004
 51
0.0
  0
ARC
  5
486
330
22
100
AcDbEntity
  8
0
  6
DASHED
 62
     7
100
AcDbCircle
 10
-570.3881225585937
 20
494.1767272949219
 30
0.0
 40
2.0
100
AcDbArc
 50
90.00000000000019
 51
180.0000000000004
  0
CIRCLE
  5
487
330
22
100
AcDbEntity
  8
0
  6
Continuous
 62
     7
100
AcDbCircle
 10
-568.8881225585937
 20
501.2022705078124
 30
0.0
 40
4.5
  0
CIRCLE
  5
488
330
22
100
AcDbEntity
  8
0
  6
Continuous
 62
     7
100
AcDbCircle
 10
-568.8881225585937
 20
501.2022705078124
 30
0.0
 40
4.75
  0
ARC
  5
489
330
22
100
AcDbEntity
  8
0
  6
Continuous
 62
     7
100
AcDbCircle
 10
-472.3881225585937
 20
424.6767272949218
 30
0.0
 40
2.5
100
AcDbArc
 50
180.0000000000004
 51
0.0
  0
ARC
  5
48A
330
22
100
AcDbEntity
  8
0
  6
Continuous
 62
     7
100
AcDbCircle
 10
-492.3881225585938
 20
424.6767272949218
 30
0.0
 40
2.5
100
AcDbArc
 50
180.0000000000004
 51
0.0
  0
ARC
  5
48B
330
22
100
AcDbEntity
  8
0
  6
Continuous
 62
     7
100
AcDbCircle
 10
-472.3881225585937
 20
413.6767272949218
 30
0.0
 40
2.5
100
AcDbArc
 50
0.0
 51
180.0000000000004
  0
ARC
  5
48C
330
22
100
AcDbEntity
  8
0
  6
Continuous
 62
     7
100
AcDbCircle
 10
-512.3881225585939
 20
413.6767272949218
 30
0.0
 40
2.5
100
AcDbArc
 50
0.0
 51
180.0000000000004
  0
ARC
  5
48D
330
22
100
AcDbEntity
  8
0
  6
Continuous
 62
     7
100
AcDbCircle
 10
-512.3881225585939
 20
424.6767272949218
 30
0.0
 40
2.5
100
AcDbArc
 50
180.0000000000004
 51
0.0
  0
ARC
  5
48E
330
22
100
AcDbEntity
  8
0
  6
Continuous
 62
     7
100
AcDbCircle
 10
-492.3881225585938
 20
413.6767272949218
 30
0.0
 40
2.5
100
AcDbArc
 50
0.0
 51
180.0000000000004
  0
ARC
  5
48F
330
22
100
AcDbEntity
  8
0
  6
DASHED
 62
     7
100
AcDbCircle
 10
-568.8881225585937
 20
501.1767272949218
 30
0.0
 40
5.0
100
AcDbArc
 50
270.0000000000005
 51
0.0
  0
ARC
  5
490
330
22
100
AcDbEntity
  8
0
  6
Continuous
 62
     7
100
AcDbCircle
 10
-575.3881225585937
 20
507.6767272949219
 30
0.0
 40
1.0
100
AcDbArc
 50
90.00000000000019
 51
180.0000000000004
  0
ARC
  5
491
330
22
100
AcDbEntity
  8
0
  6
Continuous
 62
     7
100
AcDbCircle
 10
-585.8881225585937
 20
518.1767578125
 30
0.0
 40
5.0
100
AcDbArc
 50
90.00000000000019
 51
180.0000000000004
  0
ARC
  5
492
330
22
100
AcDbEntity
  8
0
  6
Continuous
 62
     7
100
AcDbCircle
 10
-562.3881225585939
 20
492.6767272949218
 30
0.0
 40
2.5
100
AcDbArc
 50
0.0
 51
180.0000000000004
  0
ARC
  5
493
330
22
100
AcDbEntity
  8
0
  6
Continuous
 62
     7
100
AcDbCircle
 10
-542.3881225585938
 20
497.6767272949218
 30
0.0
 40
2.5
100
AcDbArc
 50
0.0
 51
180.0000000000004
  0
ARC
  5
494
330
22
100
AcDbEntity
  8
0
  6
Continuous
 62
     7
100
AcDbCircle
 10
-552.3881225585938
 20
497.6767272949218
 30
0.0
 40
2.5
100
AcDbArc
 50
0.0
 51
180.0000000000004
  0
ARC
  5
495
330
22
100
AcDbEntity
  8
0
  6
Continuous
 62
     7
100
AcDbCircle
 10
-573.3881225585937
 20
505.6767272949218
 30
0.0
 40
2.0
100
AcDbArc
 50
90.00000000000019
 51
180.0000000000004
  0
ARC
  5
496
330
22
100
AcDbEntity
  8
0
  6
DASHED
 62
     7
100
AcDbCircle
 10
-561.8881225585938
 20
502.6767272949219
 30
0.0
 40
2.0
100
AcDbArc
 50
90.00000000000019
 51
180.0000000000004
  0
ARC
  5
497
330
22
100
AcDbEntity
  8
0
  6
Continuous
 62
     7
100
AcDbCircle
 10
-482.3881225585938
 20
434.6767272949218
 30
0.0
 40
2.5
100
AcDbArc
 50
0.0
 51
180.0000000000004
  0
ARC
  5
498
330
22
100
AcDbEntity
  8
0
  6
Continuous
 62
     7
100
AcDbCircle
 10
-482.3881225585938
 20
476.6767272949218
 30
0.0
 40
2.5
100
AcDbArc
 50
0.0
 51
180.0000000000004
  0
ARC
  5
499
330
22
100
AcDbEntity
  8
0
  6
Continuous
 62
     7
100
AcDbCircle
 10
-472.3881225585937
 20
466.6767272949218
 30
0.0
 40
2.5
100
AcDbArc
 50
180.0000000000004
 51
0.0
  0
ARC
  5
49A
330
22
100
AcDbEntity
  8
0
  6
Continuous
 62
     7
100
AcDbCircle
 10
-502.3881225585937
 20
445.6767272949218
 30
0.0
 40
2.5
100
AcDbArc
 50
180.0000000000004
 51
0.0
  0
ARC
  5
49B
330
22
100
AcDbEntity
  8
0
  6
Continuous
 62
     7
100
AcDbCircle
 10
-482.3881225585938
 20
445.6767272949218
 30
0.0
 40
2.5
100
AcDbArc
 50
180.0000000000004
 51
0.0
  0
ARC
  5
49C
330
22
100
AcDbEntity
  8
0
  6
Continuous
 62
     7
100
AcDbCircle
 10
-502.3881225585937
 20
434.6767272949218
 30
0.0
 40
2.5
100
AcDbArc
 50
0.0
 51
180.0000000000004
  0
ARC
  5
49D
330
22
100
AcDbEntity
  8
0
  6
Continuous
 62
     7
100
AcDbCircle
 10
-472.3881225585937
 20
455.6767272949218
 30
0.0
 40
2.5
100
AcDbArc
 50
0.0
 51
180.0000000000004
  0
ARC
  5
49E
330
22
100
AcDbEntity
  8
0
  6
Continuous
 62
     7
100
AcDbCircle
 10
-512.3881225585939
 20
466.6767272949218
 30
0.0
 40
2.5
100
AcDbArc
 50
180.0000000000004
 51
0.0
  0
ARC
  5
49F
330
22
100
AcDbEntity
  8
0
  6
Continuous
 62
     7
100
AcDbCircle
 10
-492.3881225585938
 20
455.6767272949218
 30
0.0
 40
2.5
100
AcDbArc
 50
0.0
 51
180.0000000000004
  0
ARC
  5
4A0
330
22
100
AcDbEntity
  8
0
  6
Continuous
 62
     7
100
AcDbCircle
 10
-462.3881225585938
 20
445.6767272949218
 30
0.0
 40
2.5
100
AcDbArc
 50
180.0000000000004
 51
0.0
  0
ARC
  5
4A1
330
22
100
AcDbEntity
  8
0
  6
Continuous
 62
     7
100
AcDbCircle
 10
-462.3881225585938
 20
476.6767272949218
 30
0.0
 40
2.5
100
AcDbArc
 50
0.0
 51
180.0000000000004
  0
ARC
  5
4A2
330
22
100
AcDbEntity
  8
0
  6
Continuous
 62
     7
100
AcDbCircle
 10
-462.3881225585938
 20
434.6767272949218
 30
0.0
 40
2.5
100
AcDbArc
 50
0.0
 51
180.0000000000004
  0
ARC
  5
4A3
330
22
100
AcDbEntity
  8
0
  6
Continuous
 62
     7
100
AcDbCircle
 10
-429.3881225585938
 20
413.6767272949218
 30
0.0
 40
2.5
100
AcDbArc
 50
0.0
 51
180.0000000000004
  0
ARC
  5
4A4
330
22
100
AcDbEntity
  8
0
  6
Continuous
 62
     7
100
AcDbCircle
 10
-429.3881225585938
 20
424.6767272949218
 30
0.0
 40
2.5
100
AcDbArc
 50
180.0000000000004
 51
0.0
  0
ARC
  5
4A5
330
22
100
AcDbEntity
  8
0
  6
Continuous
 62
     7
100
AcDbCircle
 10
-409.3881225585938
 20
413.6767272949218
 30
0.0
 40
2.5
100
AcDbArc
 50
0.0
 51
180.0000000000004
  0
ARC
  5
4A6
330
22
100
AcDbEntity
  8
0
  6
Continuous
 62
     7
100
AcDbCircle
 10
-409.3881225585938
 20
424.6767272949218
 30
0.0
 40
2.5
100
AcDbArc
 50
180.0000000000004
 51
0.0
  0
ARC
  5
4A7
330
22
100
AcDbEntity
  8
0
  6
Continuous
 62
     7
100
AcDbCircle
 10
-452.3881225585937
 20
424.6767272949218
 30
0.0
 40
2.5
100
AcDbArc
 50
180.0000000000004
 51
0.0
  0
ARC
  5
4A8
330
22
100
AcDbEntity
  8
0
  6
Continuous
 62
     7
100
AcDbCircle
 10
-452.3881225585937
 20
413.6767272949218
 30
0.0
 40
2.5
100
AcDbArc
 50
0.0
 51
180.0000000000004
  0
ARC
  5
4A9
330
22
100
AcDbEntity
  8
0
  6
Continuous
 62
     7
100
AcDbCircle
 10
-419.3881225585938
 20
476.6767272949218
 30
0.0
 40
2.5
100
AcDbArc
 50
0.0
 51
180.0000000000004
  0
ARC
  5
4AA
330
22
100
AcDbEntity
  8
0
  6
Continuous
 62
     7
100
AcDbCircle
 10
-429.3881225585938
 20
466.6767272949218
 30
0.0
 40
2.5
100
AcDbArc
 50
180.0000000000004
 51
0.0
  0
ARC
  5
4AB
330
22
100
AcDbEntity
  8
0
  6
Continuous
 62
     7
100
AcDbCircle
 10
-429.3881225585938
 20
455.6767272949218
 30
0.0
 40
2.5
100
AcDbArc
 50
0.0
 51
180.0000000000004
  0
ARC
  5
4AC
330
22
100
AcDbEntity
  8
0
  6
Continuous
 62
     7
100
AcDbCircle
 10
-419.3881225585938
 20
445.6767272949218
 30
0.0
 40
2.5
100
AcDbArc
 50
180.0000000000004
 51
0.0
  0
ARC
  5
4AD
330
22
100
AcDbEntity
  8
0
  6
Continuous
 62
     7
100
AcDbCircle
 10
-419.3881225585938
 20
434.6767272949218
 30
0.0
 40
2.5
100
AcDbArc
 50
0.0
 51
180.0000000000004
  0
ARC
  5
4AE
330
22
100
AcDbEntity
  8
0
  6
Continuous
 62
     7
100
AcDbCircle
 10
-409.3881225585938
 20
455.6767272949218
 30
0.0
 40
2.5
100
AcDbArc
 50
0.0
 51
180.0000000000004
  0
ARC
  5
4AF
330
22
100
AcDbEntity
  8
0
  6
Continuous
 62
     7
100
AcDbCircle
 10
-409.3881225585938
 20
466.6767272949218
 30
0.0
 40
2.5
100
AcDbArc
 50
180.0000000000004
 51
0.0
  0
ARC
  5
4B0
330
22
100
AcDbEntity
  8
0
  6
Continuous
 62
     7
100
AcDbCircle
 10
-452.3881225585937
 20
455.6767272949218
 30
0.0
 40
2.5
100
AcDbArc
 50
0.0
 51
180.0000000000004
  0
ARC
  5
4B1
330
22
100
AcDbEntity
  8
0
  6
Continuous
 62
     7
100
AcDbCircle
 10
-452.3881225585937
 20
466.6767272949218
 30
0.0
 40
2.5
100
AcDbArc
 50
180.0000000000004
 51
0.0
  0
ARC
  5
4B2
330
22
100
AcDbEntity
  8
0
  6
Continuous
 62
     7
100
AcDbCircle
 10
-492.3881225585938
 20
466.6767272949218
 30
0.0
 40
2.5
100
AcDbArc
 50
180.0000000000004
 51
0.0
  0
ARC
  5
4B3
330
22
100
AcDbEntity
  8
0
  6
Continuous
 62
     7
100
AcDbCircle
 10
-502.3881225585937
 20
476.6767272949218
 30
0.0
 40
2.5
100
AcDbArc
 50
0.0
 51
180.0000000000004
  0
ARC
  5
4B4
330
22
100
AcDbEntity
  8
0
  6
Continuous
 62
     7
100
AcDbCircle
 10
-512.3881225585939
 20
455.6767272949218
 30
0.0
 40
2.5
100
AcDbArc
 50
0.0
 51
180.0000000000004
  0
ARC
  5
4B5
330
22
100
AcDbEntity
  8
0
  6
Continuous
 62
     7
100
AcDbCircle
 10
-512.3881225585939
 20
497.6767272949218
 30
0.0
 40
2.5
100
AcDbArc
 50
0.0
 51
180.0000000000004
  0
ARC
  5
4B6
330
22
100
AcDbEntity
  8
0
  6
Continuous
 62
     7
100
AcDbCircle
 10
-502.3881225585937
 20
497.6767272949218
 30
0.0
 40
2.5
100
AcDbArc
 50
0.0
 51
180.0000000000004
  0
ARC
  5
4B7
330
22
100
AcDbEntity
  8
0
  6
Continuous
 62
     7
100
AcDbCircle
 10
-472.3881225585937
 20
497.6767272949218
 30
0.0
 40
2.5
100
AcDbArc
 50
0.0
 51
180.0000000000004
  0
ARC
  5
4B8
330
22
100
AcDbEntity
  8
0
  6
Continuous
 62
     7
100
AcDbCircle
 10
-492.3881225585938
 20
497.6767272949218
 30
0.0
 40
2.5
100
AcDbArc
 50
0.0
 51
180.0000000000004
  0
ARC
  5
4B9
330
22
100
AcDbEntity
  8
0
  6
Continuous
 62
     7
100
AcDbCircle
 10
-482.3881225585938
 20
497.6767272949218
 30
0.0
 40
2.5
100
AcDbArc
 50
0.0
 51
180.0000000000004
  0
ARC
  5
4BA
330
22
100
AcDbEntity
  8
0
  6
Continuous
 62
     7
100
AcDbCircle
 10
-462.3881225585938
 20
497.6767272949218
 30
0.0
 40
2.5
100
AcDbArc
 50
0.0
 51
180.0000000000004
  0
ARC
  5
4BB
330
22
100
AcDbEntity
  8
0
  6
DASHED
 62
     7
100
AcDbCircle
 10
-440.8881225585938
 20
501.1767272949218
 30
0.0
 40
5.0
100
AcDbArc
 50
300.0001052890317
 51
0.0
  0
ARC
  5
4BC
330
22
100
AcDbEntity
  8
0
  6
Continuous
 62
     7
100
AcDbCircle
 10
-429.3881225585938
 20
497.6767272949218
 30
0.0
 40
2.5
100
AcDbArc
 50
0.0
 51
180.0000000000004
  0
ARC
  5
4BD
330
22
100
AcDbEntity
  8
0
  6
Continuous
 62
     7
100
AcDbCircle
 10
-419.3881225585938
 20
497.6767272949218
 30
0.0
 40
2.5
100
AcDbArc
 50
0.0
 51
180.0000000000004
  0
ARC
  5
4BE
330
22
100
AcDbEntity
  8
0
  6
Continuous
 62
     7
100
AcDbCircle
 10
-409.3881225585938
 20
497.6767272949218
 30
0.0
 40
2.5
100
AcDbArc
 50
0.0
 51
180.0000000000004
  0
CIRCLE
  5
4BF
330
22
100
AcDbEntity
  8
0
  6
Continuous
 62
     7
100
AcDbCircle
 10
-440.8881225585938
 20
501.1767272949218
 30
0.0
 40
4.75
  0
CIRCLE
  5
4C0
330
22
100
AcDbEntity
  8
0
  6
Continuous
 62
     7
100
AcDbCircle
 10
-440.8881225585938
 20
501.1767272949218
 30
0.0
 40
4.5
  0
ARC
  5
4C1
330
22
100
AcDbEntity
  8
0
  6
DASHED
 62
     7
100
AcDbCircle
 10
-447.8881225585937
 20
502.6767272949219
 30
0.0
 40
2.0
100
AcDbArc
 50
0.0
 51
90.00000000000019
  0
ARC
  5
4C2
330
22
100
AcDbEntity
  8
0
  6
DASHED
 62
     7
100
AcDbCircle
 10
-440.8881225585938
 20
501.1767272949218
 30
0.0
 40
5.0
100
AcDbArc
 50
180.0000000000004
 51
239.9998947109698
  0
ARC
  5
4C3
330
22
100
AcDbEntity
  8
0
  6
Continuous
 62
     7
100
AcDbCircle
 10
-452.3881225585937
 20
497.6767272949218
 30
0.0
 40
2.5
100
AcDbArc
 50
0.0
 51
180.0000000000004
  0
ARC
  5
4C4
330
22
100
AcDbEntity
  8
0
  6
Continuous
 62
     7
100
AcDbCircle
 10
-349.3881225585938
 20
248.6767425537109
 30
0.0
 40
2.5
100
AcDbArc
 50
180.0000000000004
 51
0.0
  0
ARC
  5
4C5
330
22
100
AcDbEntity
  8
0
  6
Continuous
 62
     7
100
AcDbCircle
 10
-359.3881225585938
 20
258.6767272949219
 30
0.0
 40
2.5
100
AcDbArc
 50
0.0
 51
180.0000000000004
  0
ARC
  5
4C6
330
22
100
AcDbEntity
  8
0
  6
Continuous
 62
     7
100
AcDbCircle
 10
-359.3881225585938
 20
269.676727294922
 30
0.0
 40
2.5
100
AcDbArc
 50
180.0000000000004
 51
0.0
  0
ARC
  5
4C7
330
22
100
AcDbEntity
  8
0
  6
Continuous
 62
     7
100
AcDbCircle
 10
-379.3881225585938
 20
311.6767272949219
 30
0.0
 40
2.5
100
AcDbArc
 50
180.0000000000004
 51
0.0
  0
ARC
  5
4C8
330
22
100
AcDbEntity
  8
0
  6
Continuous
 62
     7
100
AcDbCircle
 10
-359.3881225585938
 20
311.6767272949219
 30
0.0
 40
2.5
100
AcDbArc
 50
180.0000000000004
 51
0.0
  0
ARC
  5
4C9
330
22
100
AcDbEntity
  8
0
  6
Continuous
 62
     7
100
AcDbCircle
 10
-379.3881225585938
 20
248.6767425537109
 30
0.0
 40
2.5
100
AcDbArc
 50
180.0000000000004
 51
0.0
  0
ARC
  5
4CA
330
22
100
AcDbEntity
  8
0
  6
Continuous
 62
     7
100
AcDbCircle
 10
-379.3881225585938
 20
300.6767272949219
 30
0.0
 40
2.5
100
AcDbArc
 50
0.0
 51
180.0000000000004
  0
ARC
  5
4CB
330
22
100
AcDbEntity
  8
0
  6
Continuous
 62
     7
100
AcDbCircle
 10
-379.3881225585938
 20
269.676727294922
 30
0.0
 40
2.5
100
AcDbArc
 50
180.0000000000004
 51
0.0
  0
ARC
  5
4CC
330
22
100
AcDbEntity
  8
0
  6
Continuous
 62
     7
100
AcDbCircle
 10
-379.3881225585938
 20
258.6767272949219
 30
0.0
 40
2.5
100
AcDbArc
 50
0.0
 51
180.0000000000004
  0
ARC
  5
4CD
330
22
100
AcDbEntity
  8
0
  6
Continuous
 62
     7
100
AcDbCircle
 10
-389.3881225585938
 20
290.6767272949219
 30
0.0
 40
2.5
100
AcDbArc
 50
180.0000000000004
 51
0.0
  0
ARC
  5
4CE
330
22
100
AcDbEntity
  8
0
  6
Continuous
 62
     7
100
AcDbCircle
 10
-339.3881225585938
 20
258.6767272949219
 30
0.0
 40
2.5
100
AcDbArc
 50
0.0
 51
180.0000000000004
  0
ARC
  5
4CF
330
22
100
AcDbEntity
  8
0
  6
Continuous
 62
     7
100
AcDbCircle
 10
-339.3881225585938
 20
248.6767425537109
 30
0.0
 40
2.5
100
AcDbArc
 50
180.0000000000004
 51
0.0
  0
ARC
  5
4D0
330
22
100
AcDbEntity
  8
0
  6
Continuous
 62
     7
100
AcDbCircle
 10
-339.3881225585938
 20
300.6767272949219
 30
0.0
 40
2.5
100
AcDbArc
 50
0.0
 51
180.0000000000004
  0
ARC
  5
4D1
330
22
100
AcDbEntity
  8
0
  6
Continuous
 62
     7
100
AcDbCircle
 10
-339.3881225585938
 20
269.676727294922
 30
0.0
 40
2.5
100
AcDbArc
 50
180.0000000000004
 51
0.0
  0
ARC
  5
4D2
330
22
100
AcDbEntity
  8
0
  6
Continuous
 62
     7
100
AcDbCircle
 10
-339.3881225585938
 20
311.6767272949219
 30
0.0
 40
2.5
100
AcDbArc
 50
180.0000000000004
 51
0.0
  0
ARC
  5
4D3
330
22
100
AcDbEntity
  8
0
  6
DASHED
 62
     7
100
AcDbCircle
 10
-433.8881225585938
 20
502.6767272949219
 30
0.0
 40
2.0
100
AcDbArc
 50
90.00000000000019
 51
180.0000000000004
  0
ARC
  5
4D4
330
22
100
AcDbEntity
  8
0
  6
Continuous
 62
     7
100
AcDbCircle
 10
-329.3881225585938
 20
290.6767272949219
 30
0.0
 40
2.5
100
AcDbArc
 50
180.0000000000004
 51
0.0
  0
ARC
  5
4D5
330
22
100
AcDbEntity
  8
0
  6
Continuous
 62
     7
100
AcDbCircle
 10
-319.3881225585938
 20
269.676727294922
 30
0.0
 40
2.5
100
AcDbArc
 50
180.0000000000004
 51
0.0
  0
ARC
  5
4D6
330
22
100
AcDbEntity
  8
0
  6
Continuous
 62
     7
100
AcDbCircle
 10
-319.3881225585938
 20
258.6767272949219
 30
0.0
 40
2.5
100
AcDbArc
 50
0.0
 51
180.0000000000004
  0
ARC
  5
4D7
330
22
100
AcDbEntity
  8
0
  6
Continuous
 62
     7
100
AcDbCircle
 10
-319.3881225585938
 20
300.6767272949219
 30
0.0
 40
2.5
100
AcDbArc
 50
0.0
 51
180.0000000000004
  0
ARC
  5
4D8
330
22
100
AcDbEntity
  8
0
  6
Continuous
 62
     7
100
AcDbCircle
 10
-359.3881225585938
 20
300.6767272949219
 30
0.0
 40
2.5
100
AcDbArc
 50
0.0
 51
180.0000000000004
  0
ARC
  5
4D9
330
22
100
AcDbEntity
  8
0
  6
Continuous
 62
     7
100
AcDbCircle
 10
-369.3881225585938
 20
290.6767272949219
 30
0.0
 40
2.5
100
AcDbArc
 50
180.0000000000004
 51
0.0
  0
ARC
  5
4DA
330
22
100
AcDbEntity
  8
0
  6
Continuous
 62
     7
100
AcDbCircle
 10
-329.3881225585938
 20
248.6767425537109
 30
0.0
 40
2.5
100
AcDbArc
 50
180.0000000000004
 51
0.0
  0
ARC
  5
4DB
330
22
100
AcDbEntity
  8
0
  6
Continuous
 62
     7
100
AcDbCircle
 10
-389.3881225585938
 20
248.6767425537109
 30
0.0
 40
2.5
100
AcDbArc
 50
180.0000000000004
 51
0.0
  0
ARC
  5
4DC
330
22
100
AcDbEntity
  8
0
  6
Continuous
 62
     7
100
AcDbCircle
 10
-349.3881225585938
 20
290.6767272949219
 30
0.0
 40
2.5
100
AcDbArc
 50
180.0000000000004
 51
0.0
  0
ARC
  5
4DD
330
22
100
AcDbEntity
  8
0
  6
Continuous
 62
     7
100
AcDbCircle
 10
-349.3881225585938
 20
279.6767272949219
 30
0.0
 40
2.5
100
AcDbArc
 50
0.0
 51
180.0000000000004
  0
ARC
  5
4DE
330
22
100
AcDbEntity
  8
0
  6
Continuous
 62
     7
100
AcDbCircle
 10
-389.3881225585938
 20
279.6767272949219
 30
0.0
 40
2.5
100
AcDbArc
 50
0.0
 51
180.0000000000004
  0
ARC
  5
4DF
330
22
100
AcDbEntity
  8
0
  6
Continuous
 62
     7
100
AcDbCircle
 10
-369.3881225585938
 20
279.6767272949219
 30
0.0
 40
2.5
100
AcDbArc
 50
0.0
 51
180.0000000000004
  0
ARC
  5
4E0
330
22
100
AcDbEntity
  8
0
  6
Continuous
 62
     7
100
AcDbCircle
 10
-369.3881225585938
 20
248.6767425537109
 30
0.0
 40
2.5
100
AcDbArc
 50
180.0000000000004
 51
0.0
  0
ARC
  5
4E1
330
22
100
AcDbEntity
  8
0
  6
Continuous
 62
     7
100
AcDbCircle
 10
-359.3881225585938
 20
248.6767425537109
 30
0.0
 40
2.5
100
AcDbArc
 50
180.0000000000004
 51
0.0
  0
ARC
  5
4E2
330
22
100
AcDbEntity
  8
0
  6
Continuous
 62
     7
100
AcDbCircle
 10
-308.3881225585938
 20
240.6767425537109
 30
0.0
 40
2.0
100
AcDbArc
 50
270.0000000000005
 51
0.0
  0
ARC
  5
4E3
330
22
100
AcDbEntity
  8
0
  6
Continuous
 62
     7
100
AcDbCircle
 10
-329.3881225585938
 20
279.6767272949219
 30
0.0
 40
2.5
100
AcDbArc
 50
0.0
 51
180.0000000000004
  0
ARC
  5
4E4
330
22
100
AcDbEntity
  8
0
  6
DASHED
 62
     7
100
AcDbCircle
 10
-312.8881225585938
 20
245.1767425537109
 30
0.0
 40
5.0
100
AcDbArc
 50
90.00000000000019
 51
180.0000000000004
  0
ARC
  5
4E5
330
22
100
AcDbEntity
  8
0
  6
DASHED
 62
     7
100
AcDbCircle
 10
-319.8881225585938
 20
243.6767425537109
 30
0.0
 40
2.0
100
AcDbArc
 50
270.0000000000005
 51
0.0
  0
ARC
  5
4E6
330
22
100
AcDbEntity
  8
0
  6
DASHED
 62
     7
100
AcDbCircle
 10
-311.3881225585938
 20
252.1767425537109
 30
0.0
 40
2.0
100
AcDbArc
 50
270.0000000000005
 51
0.0
  0
ARC
  5
4E7
330
22
100
AcDbEntity
  8
0
  6
Continuous
 62
     7
100
AcDbCircle
 10
-306.3881225585938
 20
238.6767425537109
 30
0.0
 40
1.0
100
AcDbArc
 50
270.0000000000005
 51
0.0
  0
CIRCLE
  5
4E8
330
22
100
AcDbEntity
  8
0
  6
Continuous
 62
     7
100
AcDbCircle
 10
-312.8881225585938
 20
245.1767425537109
 30
0.0
 40
4.5
  0
CIRCLE
  5
4E9
330
22
100
AcDbEntity
  8
0
  6
Continuous
 62
     7
100
AcDbCircle
 10
-312.8881225585938
 20
245.1767425537109
 30
0.0
 40
4.75
  0
ARC
  5
4EA
330
22
100
AcDbEntity
  8
0
  6
Continuous
 62
     7
100
AcDbCircle
 10
-319.3881225585938
 20
311.6767272949219
 30
0.0
 40
2.5
100
AcDbArc
 50
180.0000000000004
 51
0.0
  0
ARC
  5
4EB
330
22
100
AcDbEntity
  8
0
  6
Continuous
 62
     7
100
AcDbCircle
 10
-319.3881225585938
 20
253.6767425537109
 30
0.0
 40
2.5
100
AcDbArc
 50
180.0000000000004
 51
0.0
  0
ARC
  5
4EC
330
22
100
AcDbEntity
  8
0
  6
Continuous
 62
     7
100
AcDbCircle
 10
-339.3881225585938
 20
382.6767272949219
 30
0.0
 40
2.5
100
AcDbArc
 50
180.0000000000004
 51
0.0
  0
ARC
  5
4ED
330
22
100
AcDbEntity
  8
0
  6
Continuous
 62
     7
100
AcDbCircle
 10
-389.3881225585938
 20
382.6767272949219
 30
0.0
 40
2.5
100
AcDbArc
 50
180.0000000000004
 51
0.0
  0
ARC
  5
4EE
330
22
100
AcDbEntity
  8
0
  6
Continuous
 62
     7
100
AcDbCircle
 10
-369.3881225585938
 20
382.6767272949219
 30
0.0
 40
2.5
100
AcDbArc
 50
180.0000000000004
 51
0.0
  0
ARC
  5
4EF
330
22
100
AcDbEntity
  8
0
  6
DASHED
 62
     7
100
AcDbCircle
 10
-311.3881225585938
 20
380.1767272949219
 30
0.0
 40
2.0
100
AcDbArc
 50
270.0000000000005
 51
0.0
  0
ARC
  5
4F0
330
22
100
AcDbEntity
  8
0
  6
Continuous
 62
     7
100
AcDbCircle
 10
-319.3881225585938
 20
382.6767272949219
 30
0.0
 40
2.5
100
AcDbArc
 50
180.0000000000004
 51
0.0
  0
ARC
  5
4F1
330
22
100
AcDbEntity
  8
0
  6
Continuous
 62
     7
100
AcDbCircle
 10
-329.3881225585938
 20
382.6767272949219
 30
0.0
 40
2.5
100
AcDbArc
 50
180.0000000000004
 51
0.0
  0
ARC
  5
4F2
330
22
100
AcDbEntity
  8
0
  6
Continuous
 62
     7
100
AcDbCircle
 10
-349.3881225585938
 20
382.6767272949219
 30
0.0
 40
2.5
100
AcDbArc
 50
180.0000000000004
 51
0.0
  0
ARC
  5
4F3
330
22
100
AcDbEntity
  8
0
  6
Continuous
 62
     7
100
AcDbCircle
 10
-379.3881225585938
 20
382.6767272949219
 30
0.0
 40
2.5
100
AcDbArc
 50
180.0000000000004
 51
0.0
  0
ARC
  5
4F4
330
22
100
AcDbEntity
  8
0
  6
Continuous
 62
     7
100
AcDbCircle
 10
-359.3881225585938
 20
382.6767272949219
 30
0.0
 40
2.5
100
AcDbArc
 50
180.0000000000004
 51
0.0
  0
ARC
  5
4F5
330
22
100
AcDbEntity
  8
0
  6
Continuous
 62
     7
100
AcDbCircle
 10
-339.3881225585938
 20
353.6767272949219
 30
0.0
 40
2.5
100
AcDbArc
 50
180.0000000000004
 51
0.0
  0
ARC
  5
4F6
330
22
100
AcDbEntity
  8
0
  6
Continuous
 62
     7
100
AcDbCircle
 10
-339.3881225585938
 20
392.3518676757813
 30
0.0
 40
2.5
100
AcDbArc
 50
0.0
 51
180.0000000000004
  0
ARC
  5
4F7
330
22
100
AcDbEntity
  8
0
  6
Continuous
 62
     7
100
AcDbCircle
 10
-379.3881225585938
 20
392.3518676757813
 30
0.0
 40
2.5
100
AcDbArc
 50
0.0
 51
180.0000000000004
  0
ARC
  5
4F8
330
22
100
AcDbEntity
  8
0
  6
Continuous
 62
     7
100
AcDbCircle
 10
-359.3881225585938
 20
392.3518676757813
 30
0.0
 40
2.5
100
AcDbArc
 50
0.0
 51
180.0000000000004
  0
ARC
  5
4F9
330
22
100
AcDbEntity
  8
0
  6
Continuous
 62
     7
100
AcDbCircle
 10
-319.3881225585938
 20
392.3518676757813
 30
0.0
 40
2.5
100
AcDbArc
 50
0.0
 51
180.0000000000004
  0
ARC
  5
4FA
330
22
100
AcDbEntity
  8
0
  6
Continuous
 62
     7
100
AcDbCircle
 10
-349.3881225585938
 20
363.6767272949219
 30
0.0
 40
2.5
100
AcDbArc
 50
0.0
 51
180.0000000000004
  0
ARC
  5
4FB
330
22
100
AcDbEntity
  8
0
  6
Continuous
 62
     7
100
AcDbCircle
 10
-359.3881225585938
 20
342.6767272949219
 30
0.0
 40
2.5
100
AcDbArc
 50
0.0
 51
180.0000000000004
  0
ARC
  5
4FC
330
22
100
AcDbEntity
  8
0
  6
Continuous
 62
     7
100
AcDbCircle
 10
-369.3881225585938
 20
332.6767272949219
 30
0.0
 40
2.5
100
AcDbArc
 50
180.0000000000004
 51
0.0
  0
ARC
  5
4FD
330
22
100
AcDbEntity
  8
0
  6
Continuous
 62
     7
100
AcDbCircle
 10
-379.3881225585938
 20
363.6767272949219
 30
0.0
 40
2.5
100
AcDbArc
 50
0.0
 51
180.0000000000004
  0
ARC
  5
4FE
330
22
100
AcDbEntity
  8
0
  6
Continuous
 62
     7
100
AcDbCircle
 10
-379.3881225585938
 20
342.6767272949219
 30
0.0
 40
2.5
100
AcDbArc
 50
0.0
 51
180.0000000000004
  0
ARC
  5
4FF
330
22
100
AcDbEntity
  8
0
  6
Continuous
 62
     7
100
AcDbCircle
 10
-359.3881225585938
 20
353.6767272949219
 30
0.0
 40
2.5
100
AcDbArc
 50
180.0000000000004
 51
0.0
  0
ARC
  5
500
330
22
100
AcDbEntity
  8
0
  6
Continuous
 62
     7
100
AcDbCircle
 10
-329.3881225585938
 20
332.6767272949219
 30
0.0
 40
2.5
100
AcDbArc
 50
180.0000000000004
 51
0.0
  0
ARC
  5
501
330
22
100
AcDbEntity
  8
0
  6
Continuous
 62
     7
100
AcDbCircle
 10
-329.3881225585938
 20
363.6767272949219
 30
0.0
 40
2.5
100
AcDbArc
 50
0.0
 51
180.0000000000004
  0
ARC
  5
502
330
22
100
AcDbEntity
  8
0
  6
Continuous
 62
     7
100
AcDbCircle
 10
-329.3881225585938
 20
321.6767272949219
 30
0.0
 40
2.5
100
AcDbArc
 50
0.0
 51
180.0000000000004
  0
ARC
  5
503
330
22
100
AcDbEntity
  8
0
  6
Continuous
 62
     7
100
AcDbCircle
 10
-389.3881225585938
 20
332.6767272949219
 30
0.0
 40
2.5
100
AcDbArc
 50
180.0000000000004
 51
0.0
  0
ARC
  5
504
330
22
100
AcDbEntity
  8
0
  6
Continuous
 62
     7
100
AcDbCircle
 10
-349.3881225585938
 20
332.6767272949219
 30
0.0
 40
2.5
100
AcDbArc
 50
180.0000000000004
 51
0.0
  0
ARC
  5
505
330
22
100
AcDbEntity
  8
0
  6
Continuous
 62
     7
100
AcDbCircle
 10
-369.3881225585938
 20
321.6767272949219
 30
0.0
 40
2.5
100
AcDbArc
 50
0.0
 51
180.0000000000004
  0
ARC
  5
506
330
22
100
AcDbEntity
  8
0
  6
Continuous
 62
     7
100
AcDbCircle
 10
-349.3881225585938
 20
321.6767272949219
 30
0.0
 40
2.5
100
AcDbArc
 50
0.0
 51
180.0000000000004
  0
ARC
  5
507
330
22
100
AcDbEntity
  8
0
  6
Continuous
 62
     7
100
AcDbCircle
 10
-379.3881225585938
 20
353.6767272949219
 30
0.0
 40
2.5
100
AcDbArc
 50
180.0000000000004
 51
0.0
  0
ARC
  5
508
330
22
100
AcDbEntity
  8
0
  6
Continuous
 62
     7
100
AcDbCircle
 10
-339.3881225585938
 20
363.6767272949219
 30
0.0
 40
2.5
100
AcDbArc
 50
0.0
 51
180.0000000000004
  0
ARC
  5
509
330
22
100
AcDbEntity
  8
0
  6
Continuous
 62
     7
100
AcDbCircle
 10
-339.3881225585938
 20
342.6767272949219
 30
0.0
 40
2.5
100
AcDbArc
 50
0.0
 51
180.0000000000004
  0
ARC
  5
50A
330
22
100
AcDbEntity
  8
0
  6
Continuous
 62
     7
100
AcDbCircle
 10
-319.3881225585938
 20
363.6767272949219
 30
0.0
 40
2.5
100
AcDbArc
 50
0.0
 51
180.0000000000004
  0
ARC
  5
50B
330
22
100
AcDbEntity
  8
0
  6
DASHED
 62
     7
100
AcDbCircle
 10
-312.8881225585938
 20
373.1767272949219
 30
0.0
 40
5.0
100
AcDbArc
 50
90.00000000000019
 51
149.9998947109691
  0
CIRCLE
  5
50C
330
22
100
AcDbEntity
  8
0
  6
Continuous
 62
     7
100
AcDbCircle
 10
-312.8881225585938
 20
373.1767272949219
 30
0.0
 40
4.75
  0
CIRCLE
  5
50D
330
22
100
AcDbEntity
  8
0
  6
Continuous
 62
     7
100
AcDbCircle
 10
-312.8881225585938
 20
373.1767272949219
 30
0.0
 40
4.5
  0
ARC
  5
50E
330
22
100
AcDbEntity
  8
0
  6
Continuous
 62
     7
100
AcDbCircle
 10
-389.3881225585938
 20
321.6767272949219
 30
0.0
 40
2.5
100
AcDbArc
 50
0.0
 51
180.0000000000004
  0
ARC
  5
50F
330
22
100
AcDbEntity
  8
0
  6
Continuous
 62
     7
100
AcDbCircle
 10
-389.3881225585938
 20
363.6767272949219
 30
0.0
 40
2.5
100
AcDbArc
 50
0.0
 51
180.0000000000004
  0
ARC
  5
510
330
22
100
AcDbEntity
  8
0
  6
Continuous
 62
     7
100
AcDbCircle
 10
-359.3881225585938
 20
363.6767272949219
 30
0.0
 40
2.5
100
AcDbArc
 50
0.0
 51
180.0000000000004
  0
ARC
  5
511
330
22
100
AcDbEntity
  8
0
  6
Continuous
 62
     7
100
AcDbCircle
 10
-369.3881225585938
 20
363.6767272949219
 30
0.0
 40
2.5
100
AcDbArc
 50
0.0
 51
180.0000000000004
  0
ARC
  5
512
330
22
100
AcDbEntity
  8
0
  6
DASHED
 62
     7
100
AcDbCircle
 10
-311.3881225585938
 20
366.1767272949219
 30
0.0
 40
2.0
100
AcDbArc
 50
0.0
 51
90.00000000000019
  0
ARC
  5
513
330
22
100
AcDbEntity
  8
0
  6
Continuous
 62
     7
100
AcDbCircle
 10
-319.3881225585938
 20
353.6767272949219
 30
0.0
 40
2.5
100
AcDbArc
 50
180.0000000000004
 51
0.0
  0
ARC
  5
514
330
22
100
AcDbEntity
  8
0
  6
Continuous
 62
     7
100
AcDbCircle
 10
-319.3881225585938
 20
342.6767272949219
 30
0.0
 40
2.5
100
AcDbArc
 50
0.0
 51
180.0000000000004
  0
ARC
  5
515
330
22
100
AcDbEntity
  8
0
  6
Continuous
 62
     7
100
AcDbCircle
 10
-379.3881225585938
 20
445.6767272949218
 30
0.0
 40
2.5
100
AcDbArc
 50
180.0000000000004
 51
0.0
  0
ARC
  5
516
330
22
100
AcDbEntity
  8
0
  6
Continuous
 62
     7
100
AcDbCircle
 10
-389.3881225585938
 20
455.6767272949218
 30
0.0
 40
2.5
100
AcDbArc
 50
0.0
 51
180.0000000000004
  0
ARC
  5
517
330
22
100
AcDbEntity
  8
0
  6
Continuous
 62
     7
100
AcDbCircle
 10
-389.3881225585938
 20
466.6767272949218
 30
0.0
 40
2.5
100
AcDbArc
 50
180.0000000000004
 51
0.0
  0
ARC
  5
518
330
22
100
AcDbEntity
  8
0
  6
Continuous
 62
     7
100
AcDbCircle
 10
-379.3881225585938
 20
434.6767272949218
 30
0.0
 40
2.5
100
AcDbArc
 50
0.0
 51
180.0000000000004
  0
ARC
  5
519
330
22
100
AcDbEntity
  8
0
  6
Continuous
 62
     7
100
AcDbCircle
 10
-379.3881225585938
 20
476.6767272949218
 30
0.0
 40
2.5
100
AcDbArc
 50
0.0
 51
180.0000000000004
  0
ARC
  5
51A
330
22
100
AcDbEntity
  8
0
  6
Continuous
 62
     7
100
AcDbCircle
 10
-359.3881225585938
 20
476.6767272949218
 30
0.0
 40
2.5
100
AcDbArc
 50
0.0
 51
180.0000000000004
  0
ARC
  5
51B
330
22
100
AcDbEntity
  8
0
  6
Continuous
 62
     7
100
AcDbCircle
 10
-339.3881225585938
 20
476.6767272949218
 30
0.0
 40
2.5
100
AcDbArc
 50
0.0
 51
180.0000000000004
  0
ARC
  5
51C
330
22
100
AcDbEntity
  8
0
  6
Continuous
 62
     7
100
AcDbCircle
 10
-339.3881225585938
 20
445.6767272949218
 30
0.0
 40
2.5
100
AcDbArc
 50
180.0000000000004
 51
0.0
  0
ARC
  5
51D
330
22
100
AcDbEntity
  8
0
  6
Continuous
 62
     7
100
AcDbCircle
 10
-339.3881225585938
 20
434.6767272949218
 30
0.0
 40
2.5
100
AcDbArc
 50
0.0
 51
180.0000000000004
  0
ARC
  5
51E
330
22
100
AcDbEntity
  8
0
  6
Continuous
 62
     7
100
AcDbCircle
 10
-329.3881225585938
 20
424.6767272949218
 30
0.0
 40
2.5
100
AcDbArc
 50
180.0000000000004
 51
0.0
  0
ARC
  5
51F
330
22
100
AcDbEntity
  8
0
  6
Continuous
 62
     7
100
AcDbCircle
 10
-329.3881225585938
 20
413.6767272949218
 30
0.0
 40
2.5
100
AcDbArc
 50
0.0
 51
180.0000000000004
  0
ARC
  5
520
330
22
100
AcDbEntity
  8
0
  6
Continuous
 62
     7
100
AcDbCircle
 10
-349.3881225585938
 20
413.6767272949218
 30
0.0
 40
2.5
100
AcDbArc
 50
0.0
 51
180.0000000000004
  0
ARC
  5
521
330
22
100
AcDbEntity
  8
0
  6
Continuous
 62
     7
100
AcDbCircle
 10
-349.3881225585938
 20
424.6767272949218
 30
0.0
 40
2.5
100
AcDbArc
 50
180.0000000000004
 51
0.0
  0
ARC
  5
522
330
22
100
AcDbEntity
  8
0
  6
Continuous
 62
     7
100
AcDbCircle
 10
-369.3881225585938
 20
424.6767272949218
 30
0.0
 40
2.5
100
AcDbArc
 50
180.0000000000004
 51
0.0
  0
ARC
  5
523
330
22
100
AcDbEntity
  8
0
  6
Continuous
 62
     7
100
AcDbCircle
 10
-389.3881225585938
 20
424.6767272949218
 30
0.0
 40
2.5
100
AcDbArc
 50
180.0000000000004
 51
0.0
  0
ARC
  5
524
330
22
100
AcDbEntity
  8
0
  6
Continuous
 62
     7
100
AcDbCircle
 10
-389.3881225585938
 20
413.6767272949218
 30
0.0
 40
2.5
100
AcDbArc
 50
0.0
 51
180.0000000000004
  0
ARC
  5
525
330
22
100
AcDbEntity
  8
0
  6
Continuous
 62
     7
100
AcDbCircle
 10
-369.3881225585938
 20
413.6767272949218
 30
0.0
 40
2.5
100
AcDbArc
 50
0.0
 51
180.0000000000004
  0
ARC
  5
526
330
22
100
AcDbEntity
  8
0
  6
DASHED
 62
     7
100
AcDbCircle
 10
-312.8881225585938
 20
373.1767272949219
 30
0.0
 40
5.0
100
AcDbArc
 50
210.0001052890316
 51
270.0000000000005
  0
ARC
  5
527
330
22
100
AcDbEntity
  8
0
  6
Continuous
 62
     7
100
AcDbCircle
 10
-349.3881225585938
 20
497.6767272949218
 30
0.0
 40
2.5
100
AcDbArc
 50
0.0
 51
180.0000000000004
  0
ARC
  5
528
330
22
100
AcDbEntity
  8
0
  6
Continuous
 62
     7
100
AcDbCircle
 10
-369.3881225585938
 20
497.6767272949218
 30
0.0
 40
2.5
100
AcDbArc
 50
0.0
 51
180.0000000000004
  0
ARC
  5
529
330
22
100
AcDbEntity
  8
0
  6
Continuous
 62
     7
100
AcDbCircle
 10
-359.3881225585938
 20
497.6767272949218
 30
0.0
 40
2.5
100
AcDbArc
 50
0.0
 51
180.0000000000004
  0
ARC
  5
52A
330
22
100
AcDbEntity
  8
0
  6
Continuous
 62
     7
100
AcDbCircle
 10
-339.3881225585938
 20
497.6767272949218
 30
0.0
 40
2.5
100
AcDbArc
 50
0.0
 51
180.0000000000004
  0
ARC
  5
52B
330
22
100
AcDbEntity
  8
0
  6
Continuous
 62
     7
100
AcDbCircle
 10
-329.3881225585938
 20
455.6767272949218
 30
0.0
 40
2.5
100
AcDbArc
 50
0.0
 51
180.0000000000004
  0
ARC
  5
52C
330
22
100
AcDbEntity
  8
0
  6
Continuous
 62
     7
100
AcDbCircle
 10
-329.3881225585938
 20
466.6767272949218
 30
0.0
 40
2.5
100
AcDbArc
 50
180.0000000000004
 51
0.0
  0
ARC
  5
52D
330
22
100
AcDbEntity
  8
0
  6
Continuous
 62
     7
100
AcDbCircle
 10
-349.3881225585938
 20
466.6767272949218
 30
0.0
 40
2.5
100
AcDbArc
 50
180.0000000000004
 51
0.0
  0
ARC
  5
52E
330
22
100
AcDbEntity
  8
0
  6
Continuous
 62
     7
100
AcDbCircle
 10
-369.3881225585938
 20
466.6767272949218
 30
0.0
 40
2.5
100
AcDbArc
 50
180.0000000000004
 51
0.0
  0
ARC
  5
52F
330
22
100
AcDbEntity
  8
0
  6
Continuous
 62
     7
100
AcDbCircle
 10
-319.3881225585938
 20
476.6767272949218
 30
0.0
 40
2.5
100
AcDbArc
 50
0.0
 51
180.0000000000004
  0
ARC
  5
530
330
22
100
AcDbEntity
  8
0
  6
Continuous
 62
     7
100
AcDbCircle
 10
-319.3881225585938
 20
445.6767272949218
 30
0.0
 40
2.5
100
AcDbArc
 50
180.0000000000004
 51
0.0
  0
ARC
  5
531
330
22
100
AcDbEntity
  8
0
  6
Continuous
 62
     7
100
AcDbCircle
 10
-319.3881225585938
 20
434.6767272949218
 30
0.0
 40
2.5
100
AcDbArc
 50
0.0
 51
180.0000000000004
  0
ARC
  5
532
330
22
100
AcDbEntity
  8
0
  6
Continuous
 62
     7
100
AcDbCircle
 10
-349.3881225585938
 20
455.6767272949218
 30
0.0
 40
2.5
100
AcDbArc
 50
0.0
 51
180.0000000000004
  0
ARC
  5
533
330
22
100
AcDbEntity
  8
0
  6
Continuous
 62
     7
100
AcDbCircle
 10
-369.3881225585938
 20
455.6767272949218
 30
0.0
 40
2.5
100
AcDbArc
 50
0.0
 51
180.0000000000004
  0
ARC
  5
534
330
22
100
AcDbEntity
  8
0
  6
Continuous
 62
     7
100
AcDbCircle
 10
-359.3881225585938
 20
434.6767272949218
 30
0.0
 40
2.5
100
AcDbArc
 50
0.0
 51
180.0000000000004
  0
ARC
  5
535
330
22
100
AcDbEntity
  8
0
  6
Continuous
 62
     7
100
AcDbCircle
 10
-359.3881225585938
 20
445.6767272949218
 30
0.0
 40
2.5
100
AcDbArc
 50
180.0000000000004
 51
0.0
  0
ARC
  5
536
330
22
100
AcDbEntity
  8
0
  6
DASHED
 62
     7
100
AcDbCircle
 10
-319.8881225585938
 20
502.6767272949219
 30
0.0
 40
2.0
100
AcDbArc
 50
0.0
 51
90.00000000000019
  0
ARC
  5
537
330
22
100
AcDbEntity
  8
0
  6
Continuous
 62
     7
100
AcDbCircle
 10
-306.3881225585938
 20
507.6767272949219
 30
0.0
 40
1.0
100
AcDbArc
 50
0.0
 51
90.00000000000019
  0
ARC
  5
538
330
22
100
AcDbEntity
  8
0
  6
Continuous
 62
     7
100
AcDbCircle
 10
-379.3881225585938
 20
497.6767272949218
 30
0.0
 40
2.5
100
AcDbArc
 50
0.0
 51
180.0000000000004
  0
CIRCLE
  5
539
330
22
100
AcDbEntity
  8
0
  6
Continuous
 62
     7
100
AcDbCircle
 10
-312.8881225585938
 20
501.1767272949218
 30
0.0
 40
4.5
  0
CIRCLE
  5
53A
330
22
100
AcDbEntity
  8
0
  6
Continuous
 62
     7
100
AcDbCircle
 10
-312.8881225585938
 20
501.1767272949218
 30
0.0
 40
4.75
  0
ARC
  5
53B
330
22
100
AcDbEntity
  8
0
  6
Continuous
 62
     7
100
AcDbCircle
 10
-319.3881225585938
 20
492.6767272949218
 30
0.0
 40
2.5
100
AcDbArc
 50
0.0
 51
180.0000000000004
  0
ARC
  5
53C
330
22
100
AcDbEntity
  8
0
  6
Continuous
 62
     7
100
AcDbCircle
 10
-329.3881225585938
 20
497.6767272949218
 30
0.0
 40
2.5
100
AcDbArc
 50
0.0
 51
180.0000000000004
  0
ARC
  5
53D
330
22
100
AcDbEntity
  8
0
  6
Continuous
 62
     7
100
AcDbCircle
 10
-389.3881225585938
 20
497.6767272949218
 30
0.0
 40
2.5
100
AcDbArc
 50
0.0
 51
180.0000000000004
  0
ARC
  5
53E
330
22
100
AcDbEntity
  8
0
  6
Continuous
 62
     7
100
AcDbCircle
 10
-295.8881225585938
 20
518.1767578125
 30
0.0
 40
5.0
100
AcDbArc
 50
0.0
 51
90.00000000000019
  0
ARC
  5
53F
330
22
100
AcDbEntity
  8
0
  6
Continuous
 62
     7
100
AcDbCircle
 10
-308.3881225585938
 20
505.6767272949218
 30
0.0
 40
2.0
100
AcDbArc
 50
0.0
 51
90.00000000000019
  0
ARC
  5
540
330
22
100
AcDbEntity
  8
0
  6
DASHED
 62
     7
100
AcDbCircle
 10
-311.3881225585938
 20
494.1767272949219
 30
0.0
 40
2.0
100
AcDbArc
 50
0.0
 51
90.00000000000019
  0
ARC
  5
541
330
22
100
AcDbEntity
  8
0
  6
DASHED
 62
     7
100
AcDbCircle
 10
-312.8881225585938
 20
501.1767272949218
 30
0.0
 40
5.0
100
AcDbArc
 50
180.0000000000004
 51
270.0000000000005
  0
ARC
  5
542
330
22
100
AcDbEntity
  8
0
  6
Continuous
 62
     7
100
AcDbCircle
 10
-575.8881225585937
 20
132.4715881347656
 30
0.0
 40
5.0
100
AcDbArc
 50
180.0000000000004
 51
239.9999821377166
  0
ARC
  5
543
330
22
100
AcDbEntity
  8
0
  6
Continuous
 62
     7
100
AcDbCircle
 10
-589.8881225585937
 20
151.5848388671875
 30
0.0
 40
1.0
100
AcDbArc
 50
180.0000000000004
 51
270.0000000000005
  0
ARC
  5
544
330
22
100
AcDbEntity
  8
0
  6
Continuous
 62
     7
100
AcDbCircle
 10
-589.8881225585937
 20
153.5848388671875
 30
0.0
 40
1.0
100
AcDbArc
 50
90.00000000000019
 51
180.0000000000004
  0
ARC
  5
545
330
22
100
AcDbEntity
  8
0
  6
Continuous
 62
     7
100
AcDbCircle
 10
-473.0273132324218
 20
49.01583862304688
 30
0.0
 40
1.708203315734863
100
AcDbArc
 50
113.2906589445077
 51
160.5431017157958
  0
ARC
  5
546
330
22
100
AcDbEntity
  8
0
  6
Continuous
 62
     7
100
AcDbCircle
 10
-507.3881225585938
 20
81.37609100341796
 30
0.0
 40
5.0
100
AcDbArc
 50
0.0
 51
60.00002585091607
  0
ARC
  5
547
330
22
100
AcDbEntity
  8
0
  6
Continuous
 62
     7
100
AcDbCircle
 10
-508.3256530761718
 20
81.94881439208984
 30
0.0
 40
5.0
100
AcDbArc
 50
9.064937697373572
 51
54.01965193787703
  0
ARC
  5
548
330
22
100
AcDbEntity
  8
0
  6
Continuous
 62
     7
100
AcDbCircle
 10
-473.19970703125
 20
41.07515335083007
 30
0.0
 40
9.522980690002439
100
AcDbArc
 50
63.32864237986896
 51
93.0278771188046
  0
ARC
  5
549
330
22
100
AcDbEntity
  8
0
  6
Continuous
 62
     7
100
AcDbCircle
 10
-387.3881225585938
 20
82.26432800292968
 30
0.0
 40
1.0
100
AcDbArc
 50
180.0000000000004
 51
270.0000000000005
  0
ARC
  5
54A
330
22
100
AcDbEntity
  8
0
  6
Continuous
 62
     7
100
AcDbCircle
 10
-374.3881225585938
 20
81.37609100341796
 30
0.0
 40
5.0
100
AcDbArc
 50
119.9999741490839
 51
180.0000000000004
  0
ARC
  5
54B
330
22
100
AcDbEntity
  8
0
  6
Continuous
 62
     7
100
AcDbCircle
 10
-387.3881225585938
 20
83.10814666748047
 30
0.0
 40
1.0
100
AcDbArc
 50
120.0001490025776
 51
180.0000000000004
  0
ARC
  5
54C
330
22
100
AcDbEntity
  8
0
  6
Continuous
 62
     7
100
AcDbCircle
 10
-320.8881225585938
 20
126.120735168457
 30
0.0
 40
3.0
100
AcDbArc
 50
300.0000032912053
 51
0.0
  0
ARC
  5
54D
330
22
100
AcDbEntity
  8
0
  6
Continuous
 62
     7
100
AcDbCircle
 10
-291.8881225585938
 20
153.5848388671875
 30
0.0
 40
1.0
100
AcDbArc
 50
0.0
 51
90.00000000000019
  0
ARC
  5
54E
330
22
100
AcDbEntity
  8
0
  6
Continuous
 62
     7
100
AcDbCircle
 10
-291.8881225585938
 20
151.5848388671875
 30
0.0
 40
1.0
100
AcDbArc
 50
270.0000000000005
 51
0.0
  0
ARC
  5
54F
330
22
100
AcDbEntity
  8
0
  6
Continuous
 62
     7
100
AcDbCircle
 10
-305.8881225585938
 20
132.4715881347656
 30
0.0
 40
5.0
100
AcDbArc
 50
300.0000178622848
 51
0.0
  0
ARC
  5
550
330
22
100
AcDbEntity
  8
0
  6
Continuous
 62
     7
100
AcDbCircle
 10
-306.8881225585938
 20
148.0848388671875
 30
0.0
 40
1.0
100
AcDbArc
 50
270.0000000000005
 51
0.0
  0
ARC
  5
551
330
22
100
AcDbEntity
  8
0
  6
Continuous
 62
     7
100
AcDbCircle
 10
-299.8881225585938
 20
149.5848388671875
 30
0.0
 40
1.0
100
AcDbArc
 50
90.00000000000019
 51
180.0000000000004
  0
LWPOLYLINE
  5
552
330
22
100
AcDbEntity
  8
0
  6
Continuous
 62
     7
100
AcDbPolyline
 90
       17
 70
     0
 43
0.0
 10
-468.9250926713301
 20
83.01475524899714
 42
0.0401679067373623
 10
-469.0962368094006
 20
83.42398752253387
 42
0.0401679067373623
 10
-469.336479495957
 20
83.82268932124434
 42
0.0401679067373623
 10
-469.6396387416331
 20
84.20060114330949
 42
0.0401679067373623
 10
-469.9979135712577
 20
84.54799846017575
 42
0.0401679067373623
 10
-470.4020847606436
 20
84.8559419507368
 42
0.0401679067373623
 10
-470.8417520681408
 20
85.11650753034649
 42
0.0401679067373623
 10
-471.3056018564508
 20
85.32299025549399
 42
0.0401679067373623
 10
-471.7816982181801
 20
85.47007685721212
 42
0.0401679067373623
 10
-472.2577901138173
 20
85.55398246354203
 42
0.0401679067373623
 10
-472.721626618774
 20
85.57254799287546
 42
0.0401679067373623
 10
-473.1612721674676
 20
85.5252957120229
 42
0.0401679067373623
 10
-473.5654136825028
 20
85.41344152937231
 42
0.0401679067373623
 10
-473.9236516858181
 20
85.23986370680791
 42
0.0401679067373623
 10
-474.2267679008507
 20
85.00902879550173
 42
0.0401679067373623
 10
-474.4669624597052
 20
84.7268767014189
 42
0.0401679067373623
 10
-474.638054611451
 20
84.40066783806107
 42
-1.0
  0
TEXT
  5
565
330
22
100
AcDbEntity
  8
0
  6
Continuous
 62
     7
100
AcDbText
 10
-213.7038354873657
 20
173.4703369140625
 30
0.0
 40
7.0
  1
ＤＬ－ＳＫ４－１００ＧＢ
 41
0.8436975379358987
100
AcDbText
  0
DIMENSION
  5
566
330
22
100
AcDbEntity
  8
0
  6
Continuous
 62
     7
100
AcDbDimension
  2
*D1
 10
-250.7546997070313
 20
523.1767578124999
 30
0.0
 11
-250.7546997070313
 21
373.1767272949219
 31
0.0
 71
     5
 42
-1.0
  3
DIMSTYLE1
100
AcDbAlignedDimension
 13
-295.8881225585938
 23
223.1767425537109
 33
0.0
 14
-295.8881225585938
 24
523.1767578124999
 34
0.0
 50
90.0
100
AcDbRotatedDimension
  0
DIMENSION
  5
567
330
22
100
AcDbEntity
  8
0
  6
Continuous
 62
     7
100
AcDbDimension
  2
*D2
 10
-290.8881225585938
 20
557.2726440429688
 30
0.0
 11
-440.8881225585938
 21
557.2726440429688
 31
0.0
 71
     5
 42
-1.0
  3
DIMSTYLE2
100
AcDbAlignedDimension
 13
-590.8881225585937
 23
518.1767578125
 33
0.0
 14
-290.8881225585938
 24
518.1767578125
 34
0.0
100
AcDbRotatedDimension
  0
DIMENSION
  5
568
330
22
100
AcDbEntity
  8
0
  6
Continuous
 62
     7
100
AcDbDimension
  2
*D3
 10
-305.3881225585938
 20
544.1240234374999
 30
0.0
 11
-440.8881225585938
 21
544.1240234374999
 31
0.0
 71
     5
 42
-1.0
  3
DIMSTYLE3
100
AcDbAlignedDimension
 13
-576.3881225585937
 23
507.6767272949219
 33
0.0
 14
-305.3881225585938
 24
507.6767272949219
 34
0.0
100
AcDbRotatedDimension
  0
DIMENSION
  5
569
330
22
100
AcDbEntity
  8
0
  6
Continuous
 62
     7
100
AcDbDimension
  2
*D4
 10
-264.8357543945313
 20
508.6767272949218
 30
0.0
 11
-264.8357543945313
 21
373.1767272949219
 31
0.0
 71
     5
 42
-1.0
  3
DIMSTYLE4
100
AcDbAlignedDimension
 13
-306.3881225585938
 23
237.6767425537109
 33
0.0
 14
-306.3881225585938
 24
508.6767272949218
 34
0.0
 50
90.0
100
AcDbRotatedDimension
  0
DIMENSION
  5
56A
330
22
100
AcDbEntity
  8
0
  6
Continuous
 62
     7
100
AcDbDimension
  2
*D5
 10
-264.8357543945313
 20
49.5848388671875
 30
0.0
 11
-264.8357543945313
 21
102.0848388671875
 31
0.0
 71
     5
 42
-1.0
  3
DIMSTYLE5
100
AcDbAlignedDimension
 13
-291.8881225585938
 23
154.5848388671875
 33
0.0
 14
-380.3881225585938
 24
49.5848388671875
 34
0.0
 50
90.0
100
AcDbRotatedDimension
  0
INSERT
  5
56B
330
22
100
AcDbEntity
  8
0
  6
Continuous
 62
     7
100
AcDbBlockReference
  2
KOZU0001
 10
-386.4029235839844
 20
66.18820190429689
 30
0.0
  0
ENDSEC
  0
SECTION
  2
OBJECTS
  0
DICTIONARY
  5
C
330
0
100
AcDbDictionary
281
     1
  3
ACAD_COLOR
350
1B
  3
ACAD_GROUP
350
D
  3
ACAD_LAYOUT
350
19
  3
ACAD_MATERIAL
350
1A
  3
ACAD_MLINESTYLE
350
16
  3
ACAD_PLOTSETTINGS
350
18
  3
ACAD_PLOTSTYLENAME
350
E
  3
ACAD_TABLESTYLE
350
1C
  3
AcDbVariableDictionary
350
577
  0
DICTIONARY
  5
1B
102
{ACAD_REACTORS
330
C
102
}
330
C
100
AcDbDictionary
281
     1
  0
DICTIONARY
  5
D
102
{ACAD_REACTORS
330
C
102
}
330
C
100
AcDbDictionary
281
     1
  0
DICTIONARY
  5
19
102
{ACAD_REACTORS
330
C
102
}
330
C
100
AcDbDictionary
281
     1
  3
Model
350
25
  3
レイアウト1
350
21
  0
DICTIONARY
  5
1A
102
{ACAD_REACTORS
330
C
102
}
330
C
100
AcDbDictionary
281
     1
  0
DICTIONARY
  5
16
102
{ACAD_REACTORS
330
C
102
}
330
C
100
AcDbDictionary
281
     1
  3
Standard
350
17
  0
DICTIONARY
  5
18
102
{ACAD_REACTORS
330
C
102
}
330
C
100
AcDbDictionary
281
     1
  0
ACDBDICTIONARYWDFLT
  5
E
102
{ACAD_REACTORS
330
C
102
}
330
C
100
AcDbDictionary
281
     1
  3
Normal
350
F
100
AcDbDictionaryWithDefault
340
F
  0
DICTIONARY
  5
1C
102
{ACAD_REACTORS
330
C
102
}
330
C
100
AcDbDictionary
281
     1
  3
Standard
350
1D
  0
DICTIONARY
  5
577
102
{ACAD_REACTORS
330
C
102
}
330
C
100
AcDbDictionary
281
     1
  3
CTABLESTYLE
350
578
  0
LAYOUT
  5
25
102
{ACAD_REACTORS
330
19
102
}
330
19
100
AcDbPlotSettings
  1

  2
PDF reDirect v2
  4
User120
  6

 40
3.174999952316284
 41
3.174999952316284
 42
3.17498779296875
 43
3.17498779296875
 44
594.0
 45
841.0
 46
0.0
 47
0.0
 48
0.0
 49
0.0
140
0.0
141
0.0
142
1.0
143
1.0
 70
 11952
 72
     1
 73
     1
 74
     2
  7
C:\Users\ck\AppData\Roaming\Autodesk\AutoCAD 2005\R16.1\jpn\Plot Styles\black.ctb
 75
    16
147
1.0
 76
     0
 77
     2
 78
   300
148
839.0
149
0.0
100
AcDbLayout
  1
Model
 70
     1
 71
     0
 10
0.0
 20
0.0
 11
12.0
 21
9.0
 12
0.0
 22
0.0
 32
0.0
 14
0.0
 24
0.0
 34
0.0
 15
0.0
 25
0.0
 35
0.0
146
0.0
 13
0.0
 23
0.0
 33
0.0
 16
1.0
 26
0.0
 36
0.0
 17
0.0
 27
1.0
 37
0.0
 76
     0
330
22
1001
ACAD_PSEXT
1000
PDF reDirect v2
1000
PDF reDirect Pro
1000
PDF_REDIRECT_PORT:
1000
PDF reDirect provided by EXP Systems
1070
     0
  0
LAYOUT
  5
21
102
{ACAD_REACTORS
330
19
102
}
330
19
100
AcDbPlotSettings
  1

  2
PDF reDirect v2
  4

  6

 40
0.0
 41
0.0
 42
0.0
 43
0.0
 44
0.0
 45
0.0
 46
0.0
 47
0.0
 48
0.0
 49
0.0
140
0.0
141
0.0
142
1.0
143
1.0
 70
   688
 72
     0
 73
     0
 74
     5
  7
C:\Users\ck\AppData\Roaming\Autodesk\AutoCAD 2005\R16.1\jpn\Plot Styles\black.ctb
 75
    16
147
1.0
 76
     0
 77
     2
 78
   300
148
0.0
149
0.0
100
AcDbLayout
  1
レイアウト1
 70
     1
 71
     1
 10
-839.0
 20
0.0
 11
0.0
 21
591.0
 12
0.0
 22
0.0
 32
0.0
 14
1.000000000000000E+20
 24
1.000000000000000E+20
 34
1.000000000000000E+20
 15
-1.000000000000000E+20
 25
-1.000000000000000E+20
 35
-1.000000000000000E+20
146
0.0
 13
0.0
 23
0.0
 33
0.0
 16
1.0
 26
0.0
 36
0.0
 17
0.0
 27
1.0
 37
0.0
 76
     0
330
1E
  0
MLINESTYLE
  5
17
102
{ACAD_REACTORS
330
16
102
}
330
16
100
AcDbMlineStyle
  2
STANDARD
 70
     0
  3

 62
   256
 51
90.0
 52
90.0
 71
     2
 49
0.5
 62
   256
  6
BYLAYER
 49
-0.5
 62
   256
  6
BYLAYER
  0
ACDBPLACEHOLDER
  5
F
102
{ACAD_REACTORS
330
E
102
}
330
E
  0
TABLESTYLE
  5
1D
102
{ACAD_REACTORS
330
1C
102
}
330
1C
100
AcDbTableStyle
  3
Standard
 70
     0
 71
     0
 40
0.06
 41
0.06
280
     0
281
     0
  7
STANDARD
140
0.18
170
     2
 62
     0
 63
     7
283
     0
274
    -2
284
     1
 64
     0
275
    -2
285
     1
 65
     0
276
    -2
286
     1
 66
     0
277
    -2
287
     1
 67
     0
278
    -2
288
     1
 68
     0
279
    -2
289
     1
 69
     0
  7
STANDARD
140
0.25
170
     5
 62
     0
 63
     7
283
     0
274
    -2
284
     1
 64
     0
275
    -2
285
     1
 65
     0
276
    -2
286
     1
 66
     0
277
    -2
287
     1
 67
     0
278
    -2
288
     1
 68
     0
279
    -2
289
     1
 69
     0
  7
STANDARD
140
0.18
170
     5
 62
     0
 63
     7
283
     0
274
    -2
284
     1
 64
     0
275
    -2
285
     1
 65
     0
276
    -2
286
     1
 66
     0
277
    -2
287
     1
 67
     0
278
    -2
288
     1
 68
     0
279
    -2
289
     1
 69
     0
  0
DICTIONARYVAR
  5
578
102
{ACAD_REACTORS
330
577
102
}
330
577
100
DictionaryVariables
280
     0
  1
STANDARD
  0
ENDSEC
  0
EOF
