  0
SECTION
  2
HEADER
  9
$ACADVER
  1
AC1018
  9
$ACADMAINTVER
 70
    39
  9
$DWGCODEPAGE
  3
ANSI_932
  9
$INSBASE
 10
0.0
 20
0.0
 30
0.0
  9
$EXTMIN
 10
-364.9713734709325
 20
4.427918174802243
 30
-0.0015258207003583
  9
$EXTMAX
 10
-104.7099905979237
 20
273.4506689990529
 30
0.0000000349246037
  9
$LIMMIN
 10
-423.0
 20
-2.0
  9
$LIMMAX
 10
-5.0
 20
293.0
  9
$ORTHOMODE
 70
     0
  9
$REGENMODE
 70
     1
  9
$FILLMODE
 70
     1
  9
$QTEXTMODE
 70
     0
  9
$MIRRTEXT
 70
     0
  9
$LTSCALE
 40
1.0
  9
$ATTMODE
 70
     1
  9
$TEXTSIZE
 40
0.2
  9
$TRACEWID
 40
0.05
  9
$TEXTSTYLE
  7
STANDARD
  9
$CLAYER
  8
0
  9
$CELTYPE
  6
CONTINUOUS
  9
$CECOLOR
 62
   256
  9
$CELTSCALE
 40
1.0
  9
$DISPSILH
 70
     0
  9
$DIMSCALE
 40
1.0
  9
$DIMASZ
 40
1.0
  9
$DIMEXO
 40
2.54
  9
$DIMDLI
 40
0.38
  9
$DIMRND
 40
0.0
  9
$DIMDLE
 40
0.0
  9
$DIMEXE
 40
2.54
  9
$DIMTP
 40
0.0
  9
$DIMTM
 40
0.0
  9
$DIMTXT
 40
3.0
  9
$DIMCEN
 40
0.09
  9
$DIMTSZ
 40
0.0
  9
$DIMTOL
 70
     0
  9
$DIMLIM
 70
     0
  9
$DIMTIH
 70
     0
  9
$DIMTOH
 70
     0
  9
$DIMSE1
 70
     0
  9
$DIMSE2
 70
     0
  9
$DIMTAD
 70
     1
  9
$DIMZIN
 70
     0
  9
$DIMBLK
  1

  9
$DIMASO
 70
     1
  9
$DIMSHO
 70
     0
  9
$DIMPOST
  1

  9
$DIMAPOST
  1

  9
$DIMALT
 70
     0
  9
$DIMALTD
 70
     2
  9
$DIMALTF
 40
25.4
  9
$DIMLFAC
 40
1.0
  9
$DIMTOFL
 70
     0
  9
$DIMTVP
 40
1.0
  9
$DIMTIX
 70
     0
  9
$DIMSOXD
 70
     0
  9
$DIMSAH
 70
     1
  9
$DIMBLK1
  1

  9
$DIMBLK2
  1

  9
$DIMSTYLE
  2
DIMSTYLE1
  9
$DIMCLRD
 70
     0
  9
$DIMCLRE
 70
     0
  9
$DIMCLRT
 70
     0
  9
$DIMTFAC
 40
1.0
  9
$DIMGAP
 40
1.5
  9
$DIMJUST
 70
     0
  9
$DIMSD1
 70
     0
  9
$DIMSD2
 70
     0
  9
$DIMTOLJ
 70
     1
  9
$DIMTZIN
 70
     0
  9
$DIMALTZ
 70
     0
  9
$DIMALTTZ
 70
     0
  9
$DIMUPT
 70
     0
  9
$DIMDEC
 70
     4
  9
$DIMTDEC
 70
     4
  9
$DIMALTU
 70
     2
  9
$DIMALTTD
 70
     2
  9
$DIMTXSTY
  7
STANDARD
  9
$DIMAUNIT
 70
     0
  9
$DIMADEC
 70
     0
  9
$DIMALTRND
 40
0.0
  9
$DIMAZIN
 70
     0
  9
$DIMDSEP
 70
    46
  9
$DIMATFIT
 70
     3
  9
$DIMFRAC
 70
     0
  9
$DIMLDRBLK
  1

  9
$DIMLUNIT
 70
     2
  9
$DIMLWD
 70
    -2
  9
$DIMLWE
 70
    -2
  9
$DIMTMOVE
 70
     0
  9
$LUNITS
 70
     2
  9
$LUPREC
 70
     4
  9
$SKETCHINC
 40
0.1
  9
$FILLETRAD
 40
0.0
  9
$AUNITS
 70
     0
  9
$AUPREC
 70
     0
  9
$MENU
  1
.
  9
$ELEVATION
 40
0.0
  9
$PELEVATION
 40
0.0
  9
$THICKNESS
 40
0.0
  9
$LIMCHECK
 70
     0
  9
$CHAMFERA
 40
0.0
  9
$CHAMFERB
 40
0.0
  9
$CHAMFERC
 40
0.0
  9
$CHAMFERD
 40
0.0
  9
$SKPOLY
 70
     0
  9
$TDCREATE
 40
2457842.895592674
  9
$TDUCREATE
 40
2457842.520592674
  9
$TDUPDATE
 40
2457842.896100058
  9
$TDUUPDATE
 40
2457842.521100058
  9
$TDINDWG
 40
0.0005086690
  9
$TDUSRTIMER
 40
0.0005086690
  9
$USRTIMER
 70
     1
  9
$ANGBASE
 50
0.0
  9
$ANGDIR
 70
     0
  9
$PDMODE
 70
     0
  9
$PDSIZE
 40
0.0
  9
$PLINEWID
 40
0.0
  9
$SPLFRAME
 70
     0
  9
$SPLINETYPE
 70
     6
  9
$SPLINESEGS
 70
     8
  9
$HANDSEED
  5
1D0
  9
$SURFTAB1
 70
     6
  9
$SURFTAB2
 70
     6
  9
$SURFTYPE
 70
     6
  9
$SURFU
 70
     6
  9
$SURFV
 70
     6
  9
$UCSBASE
  2

  9
$UCSNAME
  2

  9
$UCSORG
 10
0.0
 20
0.0
 30
0.0
  9
$UCSXDIR
 10
1.0
 20
0.0
 30
0.0
  9
$UCSYDIR
 10
0.0
 20
1.0
 30
0.0
  9
$UCSORTHOREF
  2

  9
$UCSORTHOVIEW
 70
     0
  9
$UCSORGTOP
 10
0.0
 20
0.0
 30
0.0
  9
$UCSORGBOTTOM
 10
0.0
 20
0.0
 30
0.0
  9
$UCSORGLEFT
 10
0.0
 20
0.0
 30
0.0
  9
$UCSORGRIGHT
 10
0.0
 20
0.0
 30
0.0
  9
$UCSORGFRONT
 10
0.0
 20
0.0
 30
0.0
  9
$UCSORGBACK
 10
0.0
 20
0.0
 30
0.0
  9
$PUCSBASE
  2

  9
$PUCSNAME
  2

  9
$PUCSORG
 10
0.0
 20
0.0
 30
0.0
  9
$PUCSXDIR
 10
1.0
 20
0.0
 30
0.0
  9
$PUCSYDIR
 10
0.0
 20
1.0
 30
0.0
  9
$PUCSORTHOREF
  2

  9
$PUCSORTHOVIEW
 70
     0
  9
$PUCSORGTOP
 10
0.0
 20
0.0
 30
0.0
  9
$PUCSORGBOTTOM
 10
0.0
 20
0.0
 30
0.0
  9
$PUCSORGLEFT
 10
0.0
 20
0.0
 30
0.0
  9
$PUCSORGRIGHT
 10
0.0
 20
0.0
 30
0.0
  9
$PUCSORGFRONT
 10
0.0
 20
0.0
 30
0.0
  9
$PUCSORGBACK
 10
0.0
 20
0.0
 30
0.0
  9
$USERI1
 70
     0
  9
$USERI2
 70
     0
  9
$USERI3
 70
     0
  9
$USERI4
 70
     0
  9
$USERI5
 70
     0
  9
$USERR1
 40
0.0
  9
$USERR2
 40
0.0
  9
$USERR3
 40
0.0
  9
$USERR4
 40
0.0
  9
$USERR5
 40
0.0
  9
$WORLDVIEW
 70
     1
  9
$SHADEDGE
 70
     3
  9
$SHADEDIF
 70
    70
  9
$TILEMODE
 70
     1
  9
$MAXACTVP
 70
    64
  9
$PINSBASE
 10
0.0
 20
0.0
 30
0.0
  9
$PLIMCHECK
 70
     0
  9
$PEXTMIN
 10
1.000000000000000E+20
 20
1.000000000000000E+20
 30
1.000000000000000E+20
  9
$PEXTMAX
 10
-1.000000000000000E+20
 20
-1.000000000000000E+20
 30
-1.000000000000000E+20
  9
$PLIMMIN
 10
-423.0
 20
-2.0
  9
$PLIMMAX
 10
-5.0
 20
293.0
  9
$UNITMODE
 70
     0
  9
$VISRETAIN
 70
     1
  9
$PLINEGEN
 70
     0
  9
$PSLTSCALE
 70
     1
  9
$TREEDEPTH
 70
  3020
  9
$CMLSTYLE
  2
Standard
  9
$CMLJUST
 70
     0
  9
$CMLSCALE
 40
1.0
  9
$PROXYGRAPHICS
 70
     1
  9
$MEASUREMENT
 70
     0
  9
$CELWEIGHT
370
    -1
  9
$ENDCAPS
280
     0
  9
$JOINSTYLE
280
     0
  9
$LWDISPLAY
290
     0
  9
$INSUNITS
 70
     0
  9
$HYPERLINKBASE
  1

  9
$STYLESHEET
  1

  9
$XEDIT
290
     1
  9
$CEPSNTYPE
380
     0
  9
$PSTYLEMODE
290
     1
  9
$FINGERPRINTGUID
  2
{43E8A19A-121E-4527-9442-A1E512D208B1}
  9
$VERSIONGUID
  2
{D49BF9B5-93B8-40FD-996D-99D07DCA31B4}
  9
$EXTNAMES
290
     1
  9
$PSVPSCALE
 40
0.0
  9
$OLESTARTUP
290
     0
  9
$SORTENTS
280
   127
  9
$INDEXCTL
280
     0
  9
$HIDETEXT
280
     0
  9
$XCLIPFRAME
290
     0
  9
$HALOGAP
280
     0
  9
$OBSCOLOR
 70
   257
  9
$OBSLTYPE
280
     0
  9
$INTERSECTIONDISPLAY
280
     0
  9
$INTERSECTIONCOLOR
 70
   257
  9
$DIMASSOC
280
     1
  9
$PROJECTNAME
  1

  0
ENDSEC
  0
SECTION
  2
CLASSES
  0
CLASS
  1
ACDBDICTIONARYWDFLT
  2
AcDbDictionaryWithDefault
  3
ObjectDBX Classes
 90
        0
 91
        1
280
     0
281
     0
  0
CLASS
  1
TABLESTYLE
  2
AcDbTableStyle
  3
ObjectDBX Classes
 90
     2047
 91
        1
280
     0
281
     0
  0
CLASS
  1
DICTIONARYVAR
  2
AcDbDictionaryVar
  3
ObjectDBX Classes
 90
        0
 91
        1
280
     0
281
     0
  0
ENDSEC
  0
SECTION
  2
TABLES
  0
TABLE
  2
VPORT
  5
8
330
0
100
AcDbSymbolTable
 70
     2
  0
VPORT
  5
1CF
330
8
100
AcDbSymbolTableRecord
100
AcDbViewportTableRecord
  2
*Active
 70
     0
 10
0.0
 20
0.0
 11
1.0
 21
1.0
 12
-214.0
 22
145.5
 13
0.0
 23
0.0
 14
1.0
 24
1.0
 15
0.0
 25
0.0
 16
0.0
 26
0.0
 36
1.0
 17
0.0
 27
0.0
 37
0.0
 40
297.3320158102766
 41
1.707124010554089
 42
50.0
 43
0.0
 44
0.0
 50
0.0
 51
0.0
 71
     0
 72
   100
 73
     1
 74
     1
 75
     0
 76
     0
 77
     0
 78
     0
281
     0
 65
     1
110
0.0
120
0.0
130
0.0
111
1.0
121
0.0
131
0.0
112
0.0
122
1.0
132
0.0
 79
     0
146
0.0
  0
ENDTAB
  0
TABLE
  2
LTYPE
  5
5
330
0
100
AcDbSymbolTable
 70
     6
  0
LTYPE
  5
13
330
5
100
AcDbSymbolTableRecord
100
AcDbLinetypeTableRecord
  2
ByBlock
 70
     0
  3

 72
    65
 73
     0
 40
0.0
  0
LTYPE
  5
14
330
5
100
AcDbSymbolTableRecord
100
AcDbLinetypeTableRecord
  2
ByLayer
 70
     0
  3

 72
    65
 73
     0
 40
0.0
  0
LTYPE
  5
15
330
5
100
AcDbSymbolTableRecord
100
AcDbLinetypeTableRecord
  2
CONTINUOUS
 70
     0
  3
Solid line
 72
    65
 73
     0
 40
0.0
  0
LTYPE
  5
26
330
5
100
AcDbSymbolTableRecord
100
AcDbLinetypeTableRecord
  2
DASHED
 70
     0
  3
__ __ __ __ __ __ __ __ __ __ __ __ __ __ __
 72
    65
 73
     2
 40
3.5
 49
2.0
 74
     0
 49
-1.5
 74
     0
  0
LTYPE
  5
27
330
5
100
AcDbSymbolTableRecord
100
AcDbLinetypeTableRecord
  2
CENTER
 70
     0
  3
____ _ ____ _ ____ _ ____ _ ____ _ ____ _ ____
 72
    65
 73
     4
 40
17.5
 49
13.0
 74
     0
 49
-1.5
 74
     0
 49
1.5
 74
     0
 49
-1.5
 74
     0
  0
LTYPE
  5
28
330
5
100
AcDbSymbolTableRecord
100
AcDbLinetypeTableRecord
  2
PHANTOM
 70
     0
  3
_____ _ _ _____ _ _ _____ _ _ _____ _ _ ____  
 72
    65
 73
     6
 40
15.5
 49
8.0
 74
     0
 49
-1.5
 74
     0
 49
1.5
 74
     0
 49
-1.5
 74
     0
 49
1.5
 74
     0
 49
-1.5
 74
     0
  0
LTYPE
  5
29
330
5
100
AcDbSymbolTableRecord
100
AcDbLinetypeTableRecord
  2
DOT
 70
     0
  3
. . . . . . . . . . . . . . . . . . . . . . . .
 72
    65
 73
     2
 40
0.25
 49
0.0
 74
     0
 49
-0.25
 74
     0
  0
LTYPE
  5
2A
330
5
100
AcDbSymbolTableRecord
100
AcDbLinetypeTableRecord
  2
HIDDEN
 70
     0
  3
__ __ __ __ __ __ __ __ __ __ __ __ __ __ __
 72
    65
 73
     2
 40
3.5
 49
2.0
 74
     0
 49
-1.5
 74
     0
  0
ENDTAB
  0
TABLE
  2
LAYER
  5
2
330
0
100
AcDbSymbolTable
 70
     3
  0
LAYER
  5
10
330
2
100
AcDbSymbolTableRecord
100
AcDbLayerTableRecord
  2
0
 70
     0
 62
     7
  6
CONTINUOUS
370
    -3
390
F
  0
LAYER
  5
2B
330
2
100
AcDbSymbolTableRecord
100
AcDbLayerTableRecord
  2
1
 70
     0
 62
     7
  6
CONTINUOUS
370
    -3
390
F
  0
LAYER
  5
2C
330
2
100
AcDbSymbolTableRecord
100
AcDbLayerTableRecord
  2
DEFPOINTS
 70
     0
 62
     7
  6
CONTINUOUS
290
     0
370
    -3
390
F
  0
ENDTAB
  0
TABLE
  2
STYLE
  5
3
330
0
100
AcDbSymbolTable
 70
     2
  0
STYLE
  5
11
330
3
100
AcDbSymbolTableRecord
100
AcDbTextStyleTableRecord
  2
STANDARD
 70
     0
 40
0.0
 41
1.0
 50
0.0
 71
     0
 42
0.2
  3

  4

1001
ACAD
1000
MS Gothic
1071
    32817
  0
ENDTAB
  0
TABLE
  2
VIEW
  5
6
330
0
100
AcDbSymbolTable
 70
     0
  0
ENDTAB
  0
TABLE
  2
UCS
  5
7
330
0
100
AcDbSymbolTable
 70
     0
  0
ENDTAB
  0
TABLE
  2
APPID
  5
9
330
0
100
AcDbSymbolTable
 70
     2
  0
APPID
  5
12
330
9
100
AcDbSymbolTableRecord
100
AcDbRegAppTableRecord
  2
ACAD
 70
     0
  0
APPID
  5
1C4
330
9
100
AcDbSymbolTableRecord
100
AcDbRegAppTableRecord
  2
ACAD_PSEXT
 70
     0
  0
ENDTAB
  0
TABLE
  2
DIMSTYLE
  5
A
330
0
100
AcDbSymbolTable
 70
     3
100
AcDbDimStyleTable
 71
     1
340
2D
  0
DIMSTYLE
105
2D
102
{ACAD_REACTORS
330
1BF
102
}
330
A
100
AcDbSymbolTableRecord
100
AcDbDimStyleTableRecord
  2
DIMSTYLE1
 70
     0
 41
1.0
 42
2.54
 44
2.54
 73
     0
 74
     0
 77
     1
140
3.0
145
1.0
147
1.5
172
     1
173
     1
279
     2
340
11
  0
DIMSTYLE
105
2E
102
{ACAD_REACTORS
330
1C1
102
}
330
A
100
AcDbSymbolTableRecord
100
AcDbDimStyleTableRecord
  2
DIMSTYLE2
 70
     0
 41
1.0
 42
2.54
 44
2.54
 73
     0
 74
     0
 75
     1
 76
     1
 77
     1
140
3.0
145
1.0
147
1.5
172
     1
173
     1
279
     2
340
11
  0
ENDTAB
  0
TABLE
  2
BLOCK_RECORD
  5
1
330
0
100
AcDbSymbolTable
 70
     5
  0
BLOCK_RECORD
  5
22
330
1
100
AcDbSymbolTableRecord
100
AcDbBlockTableRecord
  2
*Model_Space
340
25
  0
BLOCK_RECORD
  5
1E
330
1
100
AcDbSymbolTableRecord
100
AcDbBlockTableRecord
  2
*Paper_Space
340
21
  0
BLOCK_RECORD
  5
32
330
1
100
AcDbSymbolTableRecord
100
AcDbBlockTableRecord
  2
_OPEN30
340
0
102
{BLKREFS
331
3B
331
3C
331
46
331
47
102
}
  0
BLOCK_RECORD
  5
38
330
1
100
AcDbSymbolTableRecord
100
AcDbBlockTableRecord
  2
*D1
340
0
  0
BLOCK_RECORD
  5
42
330
1
100
AcDbSymbolTableRecord
100
AcDbBlockTableRecord
  2
*D2
340
0
  0
BLOCK_RECORD
  5
4C
330
1
100
AcDbSymbolTableRecord
100
AcDbBlockTableRecord
  2
KOZU0001
340
0
102
{BLKREFS
331
1C0
102
}
  0
ENDTAB
  0
ENDSEC
  0
SECTION
  2
BLOCKS
  0
BLOCK
  5
23
330
22
100
AcDbEntity
  8
0
100
AcDbBlockBegin
  2
*Model_Space
 70
     0
 10
0.0
 20
0.0
 30
0.0
  3
*Model_Space
  1

  0
ENDBLK
  5
24
330
22
100
AcDbEntity
  8
0
100
AcDbBlockEnd
  0
BLOCK
  5
1F
330
1E
100
AcDbEntity
 67
     1
  8
0
100
AcDbBlockBegin
  2
*Paper_Space
 70
     0
 10
0.0
 20
0.0
 30
0.0
  3
*Paper_Space
  1

  0
ENDBLK
  5
20
330
1E
100
AcDbEntity
 67
     1
  8
0
100
AcDbBlockEnd
  0
BLOCK
  5
33
330
32
100
AcDbEntity
  8
0
100
AcDbBlockBegin
  2
_OPEN30
 70
     0
 10
0.0
 20
0.0
 30
0.0
  3
_OPEN30
  1

  0
LINE
  5
34
330
32
100
AcDbEntity
  8
0
  6
ByBlock
 62
     0
100
AcDbLine
 10
0.0
 20
0.0
 30
0.0
 11
-2.999999999999993
 21
-1.000000000000017
 31
0.0
  0
LINE
  5
35
330
32
100
AcDbEntity
  8
0
  6
ByBlock
 62
     0
100
AcDbLine
 10
0.0
 20
0.0
 30
0.0
 11
-3.000000000000006
 21
0.9999999999999815
 31
0.0
  0
LINE
  5
36
330
32
100
AcDbEntity
  8
0
  6
ByBlock
 62
     0
100
AcDbLine
 10
0.0
 20
0.0
 30
0.0
 11
-3.0
 21
0.0
 31
0.0
  0
ENDBLK
  5
37
330
32
100
AcDbEntity
  8
0
100
AcDbBlockEnd
  0
BLOCK
  5
39
330
38
100
AcDbEntity
  8
0
100
AcDbBlockBegin
  2
*D1
 70
     1
 10
0.0
 20
0.0
 30
0.0
  3
*D1
  1

  0
LINE
  5
3A
330
38
100
AcDbEntity
  8
0
  6
Continuous
 62
     7
100
AcDbLine
 10
-283.5376586914063
 20
19.67573738098145
 30
0.0
 11
-283.5376586914063
 21
74.67573547363281
 31
0.0
  0
INSERT
  5
3B
330
38
100
AcDbEntity
  8
0
  6
Continuous
 62
     7
100
AcDbBlockReference
  2
_OPEN30
 10
-283.5376586914063
 20
16.67573738098145
 30
0.0
 50
270.0000000000005
  0
INSERT
  5
3C
330
38
100
AcDbEntity
  8
0
  6
Continuous
 62
     7
100
AcDbBlockReference
  2
_OPEN30
 10
-283.5376586914063
 20
77.67573547363281
 30
0.0
 50
90.00000000000019
  0
TEXT
  5
3D
330
38
100
AcDbEntity
  8
0
  6
Continuous
 62
     7
100
AcDbText
 10
-284.287658579068
 20
51.2651973038902
 30
0.0
 40
3.0
  1
61
 50
90.00000250447815
 41
1.186153870362501
100
AcDbText
  0
POINT
  5
3E
330
38
100
AcDbEntity
  8
DEFPOINTS
  6
Continuous
 62
     7
100
AcDbPoint
 10
-315.3678588867188
 20
16.67573738098145
 30
0.0
  0
POINT
  5
3F
330
38
100
AcDbEntity
  8
DEFPOINTS
  6
Continuous
 62
     7
100
AcDbPoint
 10
-357.8678588867188
 20
77.67573547363281
 30
0.0
  0
POINT
  5
40
330
38
100
AcDbEntity
  8
DEFPOINTS
  6
Continuous
 62
     7
100
AcDbPoint
 10
-283.5376586914063
 20
77.67573547363281
 30
0.0
  0
ENDBLK
  5
41
330
38
100
AcDbEntity
  8
0
100
AcDbBlockEnd
  0
BLOCK
  5
43
330
42
100
AcDbEntity
  8
0
100
AcDbBlockBegin
  2
*D2
 70
     1
 10
0.0
 20
0.0
 30
0.0
  3
*D2
  1

  0
LINE
  5
44
330
42
100
AcDbEntity
  8
0
  6
Continuous
 62
     7
100
AcDbLine
 10
-181.1405181884765
 20
208.7527313232422
 30
0.0
 11
-129.6059875488281
 21
225.17578125
 31
0.0
  0
LINE
  5
45
330
42
100
AcDbEntity
  8
0
  6
Continuous
 62
     7
100
AcDbLine
 10
-350.7368497785311
 20
154.7056597061686
 30
0.0
 11
-183.9988832536954
 21
207.8418256453939
 31
0.0
  0
INSERT
  5
46
330
42
100
AcDbEntity
  8
0
  6
Continuous
 62
     7
100
AcDbBlockReference
  2
_OPEN30
 10
-353.59521484375
 20
153.7947540283203
 30
0.0
 50
197.6760746629966
  0
INSERT
  5
47
330
42
100
AcDbEntity
  8
0
  6
Continuous
 62
     7
100
AcDbBlockReference
  2
_OPEN30
 10
-181.1405181884765
 20
208.7527313232422
 30
0.0
 50
17.67607466299585
  0
TEXT
  5
48
330
42
100
AcDbEntity
  8
0
  6
Continuous
 62
     7
100
AcDbText
 10
-160.454592794387
 20
216.125056136315
 30
0.0
 40
3.0
  1
%%C１８１（目皿受外径）
 50
17.69999980952846
 41
0.8440126077968535
100
AcDbText
  0
POINT
  5
49
330
42
100
AcDbEntity
  8
DEFPOINTS
  6
Continuous
 62
     7
100
AcDbPoint
 10
-353.59521484375
 20
153.7947540283203
 30
0.0
  0
POINT
  5
4A
330
42
100
AcDbEntity
  8
DEFPOINTS
  6
Continuous
 62
     7
100
AcDbPoint
 10
-181.1405181884765
 20
208.7527313232422
 30
0.0
  0
ENDBLK
  5
4B
330
42
100
AcDbEntity
  8
0
100
AcDbBlockEnd
  0
BLOCK
  5
4D
330
4C
100
AcDbEntity
  8
0
100
AcDbBlockBegin
  2
KOZU0001
 70
     0
 10
0.0
 20
0.0
 30
0.0
  3
KOZU0001
  1

  0
LINE
  5
4E
330
4C
100
AcDbEntity
  8
0
  6
Continuous
 62
     7
100
AcDbLine
 10
0.0
 20
0.0
 30
0.0
 11
-7.867111206054687
 21
-13.38288497924805
 31
0.0
  0
LINE
  5
4F
330
4C
100
AcDbEntity
  8
0
  6
Continuous
 62
     7
100
AcDbLine
 10
-7.867111206054687
 20
-13.38288497924805
 30
0.0
 11
-35.27401733398438
 21
-13.38288497924805
 31
0.0
  0
LINE
  5
50
330
4C
100
AcDbEntity
  8
0
  6
Continuous
 62
     7
100
AcDbLine
 10
0.0
 20
0.0
 30
0.0
 11
-0.6582376327178659
 21
-3.093011997854838
 31
0.0
  0
LINE
  5
51
330
4C
100
AcDbEntity
  8
0
  6
Continuous
 62
     7
100
AcDbLine
 10
0.0
 20
0.0
 30
0.0
 11
-2.382397304887196
 21
-2.079467018653152
 31
0.0
  0
TEXT
  5
52
330
4C
100
AcDbEntity
  8
0
  6
Continuous
 62
     7
100
AcDbText
 10
-33.55403220653534
 20
-12.63288497924805
 30
0.0
 40
3.0
  1
配管接続口
 41
0.8487395020950888
100
AcDbText
  0
TEXT
  5
53
330
4C
100
AcDbEntity
  8
0
  6
Continuous
 62
     7
100
AcDbText
 10
-33.55403220653534
 20
-17.89788497924805
 30
0.0
 40
3.0
  1
Ｒｃ３（８０Ａ）
 41
0.8454512278006642
100
AcDbText
  0
ENDBLK
  5
54
330
4C
100
AcDbEntity
  8
0
100
AcDbBlockEnd
  0
ENDSEC
  0
SECTION
  2
ENTITIES
  0
LINE
  5
55
330
22
100
AcDbEntity
  8
0
  6
Continuous
 62
     7
100
AcDbLine
 10
-237.3678588867188
 20
120.249153137207
 30
0.0
 11
-237.3678588867188
 21
133.2737426757812
 31
0.0
  0
LINE
  5
56
330
22
100
AcDbEntity
  8
0
  6
Continuous
 62
     7
100
AcDbLine
 10
-248.3678588867189
 20
115.9820861816406
 30
0.0
 11
-248.3678588867189
 21
155.7737426757813
 31
0.0
  0
LINE
  5
57
330
22
100
AcDbEntity
  8
0
  6
Continuous
 62
     7
100
AcDbLine
 10
-242.3678588867189
 20
118.0360870361328
 30
0.0
 11
-242.3678588867189
 21
155.7737426757813
 31
0.0
  0
LINE
  5
58
330
22
100
AcDbEntity
  8
0
  6
Continuous
 62
     7
100
AcDbLine
 10
-253.3678588867188
 20
114.7305221557617
 30
0.0
 11
-253.3678588867188
 21
133.2737426757812
 31
0.0
  0
LINE
  5
59
330
22
100
AcDbEntity
  8
0
  6
Continuous
 62
     7
100
AcDbLine
 10
-231.3678588867188
 20
123.5849151611328
 30
0.0
 11
-231.3678588867188
 21
133.2737426757812
 31
0.0
  0
LINE
  5
5A
330
22
100
AcDbEntity
  8
0
  6
Continuous
 62
     7
100
AcDbLine
 10
-226.3678588867188
 20
195.7737426757813
 30
0.0
 11
-226.3678588867188
 21
181.2737426757813
 31
0.0
  0
LINE
  5
5B
330
22
100
AcDbEntity
  8
0
  6
Continuous
 62
     7
100
AcDbLine
 10
-220.3678588867188
 20
133.2737426757812
 30
0.0
 11
-220.3678588867188
 21
155.7737426757813
 31
0.0
  0
LINE
  5
5C
330
22
100
AcDbEntity
  8
0
  6
Continuous
 62
     7
100
AcDbLine
 10
-226.3678588867188
 20
127.0243148803711
 30
0.0
 11
-226.3678588867188
 21
155.7737426757813
 31
0.0
  0
LINE
  5
5D
330
22
100
AcDbEntity
  8
0
  6
Continuous
 62
     7
100
AcDbLine
 10
-253.3678588867188
 20
144.2737426757813
 30
0.0
 11
-253.3678588867188
 21
173.2737426757813
 31
0.0
  0
LINE
  5
5E
330
22
100
AcDbEntity
  8
0
  6
Continuous
 62
     7
100
AcDbLine
 10
-253.3678588867188
 20
247.8169555664063
 30
0.0
 11
-253.3678588867188
 21
229.2737426757813
 31
0.0
  0
LINE
  5
5F
330
22
100
AcDbEntity
  8
0
  6
Continuous
 62
     7
100
AcDbLine
 10
-253.3678588867188
 20
218.2737426757813
 30
0.0
 11
-253.3678588867188
 21
189.2737426757813
 31
0.0
  0
LINE
  5
60
330
22
100
AcDbEntity
  8
0
  6
Continuous
 62
     7
100
AcDbLine
 10
-220.3678588867188
 20
133.2737426757812
 30
0.0
 11
-220.3678588867188
 21
132.1310882568359
 31
0.0
  0
LINE
  5
61
330
22
100
AcDbEntity
  8
0
  6
Continuous
 62
     7
100
AcDbLine
 10
-209.3678588867188
 20
216.7702178955078
 30
0.0
 11
-209.3678588867188
 21
189.2737426757813
 31
0.0
  0
LINE
  5
62
330
22
100
AcDbEntity
  8
0
  6
Continuous
 62
     7
100
AcDbLine
 10
-248.3678588867189
 20
166.7737426757813
 30
0.0
 11
-248.3678588867189
 21
181.2737426757813
 31
0.0
  0
LINE
  5
63
330
22
100
AcDbEntity
  8
0
  6
Continuous
 62
     7
100
AcDbLine
 10
-248.3678588867189
 20
195.7737426757813
 30
0.0
 11
-248.3678588867189
 21
181.2737426757813
 31
0.0
  0
LINE
  5
64
330
22
100
AcDbEntity
  8
0
  6
Continuous
 62
     7
100
AcDbLine
 10
-242.3678588867189
 20
166.7737426757813
 30
0.0
 11
-242.3678588867189
 21
181.2737426757813
 31
0.0
  0
LINE
  5
65
330
22
100
AcDbEntity
  8
0
  6
Continuous
 62
     7
100
AcDbLine
 10
-242.3678588867189
 20
195.7737426757813
 30
0.0
 11
-242.3678588867189
 21
181.2737426757813
 31
0.0
  0
LINE
  5
66
330
22
100
AcDbEntity
  8
0
  6
Continuous
 62
     7
100
AcDbLine
 10
-237.3678588867188
 20
144.2737426757813
 30
0.0
 11
-237.3678588867188
 21
173.2737426757813
 31
0.0
  0
LINE
  5
67
330
22
100
AcDbEntity
  8
0
  6
Continuous
 62
     7
100
AcDbLine
 10
-248.3678588867189
 20
246.5653839111328
 30
0.0
 11
-248.3678588867189
 21
206.7737426757813
 31
0.0
  0
LINE
  5
68
330
22
100
AcDbEntity
  8
0
  6
Continuous
 62
     7
100
AcDbLine
 10
-231.3678588867188
 20
238.9625549316406
 30
0.0
 11
-231.3678588867188
 21
229.2737426757813
 31
0.0
  0
LINE
  5
69
330
22
100
AcDbEntity
  8
0
  6
Continuous
 62
     7
100
AcDbLine
 10
-231.3678588867188
 20
218.2737426757813
 30
0.0
 11
-231.3678588867188
 21
189.2737426757813
 31
0.0
  0
LINE
  5
6A
330
22
100
AcDbEntity
  8
0
  6
Continuous
 62
     7
100
AcDbLine
 10
-237.3678588867188
 20
242.2983245849609
 30
0.0
 11
-237.3678588867188
 21
229.2737426757813
 31
0.0
  0
LINE
  5
6B
330
22
100
AcDbEntity
  8
0
  6
Continuous
 62
     7
100
AcDbLine
 10
-237.3678588867188
 20
218.2737426757813
 30
0.0
 11
-237.3678588867188
 21
189.2737426757813
 31
0.0
  0
LINE
  5
6C
330
22
100
AcDbEntity
  8
0
  6
Continuous
 62
     7
100
AcDbLine
 10
-215.3678588867188
 20
225.0915374755859
 30
0.0
 11
-215.3678588867188
 21
189.2737426757813
 31
0.0
  0
LINE
  5
6D
330
22
100
AcDbEntity
  8
0
  6
Continuous
 62
     7
100
AcDbLine
 10
-204.3678588867188
 20
195.7737426757813
 30
0.0
 11
-204.3678588867188
 21
181.2737426757813
 31
0.0
  0
LINE
  5
6E
330
22
100
AcDbEntity
  8
0
  6
Continuous
 62
     7
100
AcDbLine
 10
-204.3678588867188
 20
166.7737426757813
 30
0.0
 11
-204.3678588867188
 21
181.2737426757813
 31
0.0
  0
LINE
  5
6F
330
22
100
AcDbEntity
  8
0
  6
Continuous
 62
     7
100
AcDbLine
 10
-220.3678588867188
 20
166.7737426757813
 30
0.0
 11
-220.3678588867188
 21
181.2737426757813
 31
0.0
  0
LINE
  5
70
330
22
100
AcDbEntity
  8
0
  6
Continuous
 62
     7
100
AcDbLine
 10
-242.3678588867189
 20
244.5113830566406
 30
0.0
 11
-242.3678588867189
 21
206.7737426757813
 31
0.0
  0
LINE
  5
71
330
22
100
AcDbEntity
  8
0
  6
Continuous
 62
     7
100
AcDbLine
 10
-215.3678588867188
 20
137.4559326171875
 30
0.0
 11
-215.3678588867188
 21
173.2737426757813
 31
0.0
  0
LINE
  5
72
330
22
100
AcDbEntity
  8
0
  6
Continuous
 62
     7
100
AcDbLine
 10
-231.3678588867188
 20
144.2737426757813
 30
0.0
 11
-231.3678588867188
 21
173.2737426757813
 31
0.0
  0
LINE
  5
73
330
22
100
AcDbEntity
  8
0
  6
Continuous
 62
     7
100
AcDbLine
 10
-226.3678588867188
 20
235.5231628417969
 30
0.0
 11
-226.3678588867188
 21
206.7737426757813
 31
0.0
  0
LINE
  5
74
330
22
100
AcDbEntity
  8
0
  6
Continuous
 62
     7
100
AcDbLine
 10
-226.3678588867188
 20
166.7737426757813
 30
0.0
 11
-226.3678588867188
 21
181.2737426757813
 31
0.0
  0
LINE
  5
75
330
22
100
AcDbEntity
  8
0
  6
Continuous
 62
     7
100
AcDbLine
 10
-220.3678588867188
 20
230.4163818359375
 30
0.0
 11
-220.3678588867188
 21
229.1460113525391
 31
0.0
  0
LINE
  5
76
330
22
100
AcDbEntity
  8
0
  6
Continuous
 62
     7
100
AcDbLine
 10
-220.3678588867188
 20
195.7737426757813
 30
0.0
 11
-220.3678588867188
 21
181.2737426757813
 31
0.0
  0
LINE
  5
77
330
22
100
AcDbEntity
  8
0
  6
Continuous
 62
     7
100
AcDbLine
 10
-220.3678588867188
 20
229.2737426757813
 30
0.0
 11
-220.3678588867188
 21
206.7737426757813
 31
0.0
  0
LINE
  5
78
330
22
100
AcDbEntity
  8
0
  6
Continuous
 62
     7
100
AcDbLine
 10
-219.3678588867189
 20
16.67573738098145
 30
0.0
 11
-218.3678588867188
 21
17.67573738098145
 31
0.0
  0
LINE
  5
79
330
22
100
AcDbEntity
  8
0
  6
Continuous
 62
     7
100
AcDbLine
 10
-185.5863952636719
 20
61.15850067138672
 30
0.0
 11
-215.3215179443359
 21
48.53668975830078
 31
0.0
  0
LINE
  5
7A
330
22
100
AcDbEntity
  8
0
  6
Continuous
 62
     7
100
AcDbLine
 10
-176.9506072998047
 20
77.67573547363281
 30
0.0
 11
-176.8678588867188
 21
77.5929946899414
 31
0.0
  0
LINE
  5
7B
330
22
100
AcDbEntity
  8
0
  6
Continuous
 62
     7
100
AcDbLine
 10
-179.0719299316406
 20
77.67573547363281
 30
0.0
 11
-176.8678588867188
 21
75.47167205810547
 31
0.0
  0
LINE
  5
7C
330
22
100
AcDbEntity
  8
0
  6
Continuous
 62
     7
100
AcDbLine
 10
-179.7790374755859
 20
77.67573547363281
 30
0.0
 11
-176.8678588867188
 21
74.76456451416016
 31
0.0
  0
LINE
  5
7D
330
22
100
AcDbEntity
  8
0
  6
Continuous
 62
     7
100
AcDbLine
 10
-181.9003601074219
 20
77.67573547363281
 30
0.0
 11
-177.9003601074219
 21
73.67573547363281
 31
0.0
  0
LINE
  5
7E
330
22
100
AcDbEntity
  8
0
  6
Continuous
 62
     7
100
AcDbLine
 10
-182.6074523925781
 20
77.67573547363281
 30
0.0
 11
-178.6074523925781
 21
73.67573547363281
 31
0.0
  0
LINE
  5
7F
330
22
100
AcDbEntity
  8
0
  6
Continuous
 62
     7
100
AcDbLine
 10
-184.7287750244141
 20
77.67573547363281
 30
0.0
 11
-180.7287750244141
 21
73.67573547363281
 31
0.0
  0
LINE
  5
80
330
22
100
AcDbEntity
  8
0
  6
Continuous
 62
     7
100
AcDbLine
 10
-185.4358825683594
 20
77.67573547363281
 30
0.0
 11
-181.4358825683594
 21
73.67573547363281
 31
0.0
  0
LINE
  5
81
330
22
100
AcDbEntity
  8
0
  6
Continuous
 62
     7
100
AcDbLine
 10
-187.5572052001953
 20
77.67573547363281
 30
0.0
 11
-183.5572052001953
 21
73.67573547363281
 31
0.0
  0
LINE
  5
82
330
22
100
AcDbEntity
  8
0
  6
Continuous
 62
     7
100
AcDbLine
 10
-188.2643127441406
 20
77.67573547363281
 30
0.0
 11
-184.2643127441406
 21
73.67573547363281
 31
0.0
  0
LINE
  5
83
330
22
100
AcDbEntity
  8
0
  6
Continuous
 62
     7
100
AcDbLine
 10
-188.3678588867188
 20
75.657958984375
 30
0.0
 11
-184.3678588867188
 21
71.657958984375
 31
0.0
  0
LINE
  5
84
330
22
100
AcDbEntity
  8
0
  6
Continuous
 62
     7
100
AcDbLine
 10
-188.3678588867188
 20
74.95085906982422
 30
0.0
 11
-184.3678588867188
 21
70.95085906982422
 31
0.0
  0
LINE
  5
85
330
22
100
AcDbEntity
  8
0
  6
Continuous
 62
     7
100
AcDbLine
 10
-188.3678588867188
 20
72.82953643798828
 30
0.0
 11
-184.3678588867188
 21
68.82953643798828
 31
0.0
  0
LINE
  5
86
330
22
100
AcDbEntity
  8
0
  6
Continuous
 62
     7
100
AcDbLine
 10
-188.9211730957031
 20
72.67573547363281
 30
0.0
 11
-184.3678588867188
 21
68.12242889404297
 31
0.0
  0
LINE
  5
87
330
22
100
AcDbEntity
  8
0
  6
Continuous
 62
     7
100
AcDbLine
 10
-191.0424957275391
 20
72.67573547363281
 30
0.0
 11
-184.3678588867188
 21
66.00110626220703
 31
0.0
  0
LINE
  5
88
330
22
100
AcDbEntity
  8
0
  6
Continuous
 62
     7
100
AcDbLine
 10
-191.7495880126953
 20
72.67573547363281
 30
0.0
 11
-184.3678588867188
 21
65.29399871826171
 31
0.0
  0
LINE
  5
89
330
22
100
AcDbEntity
  8
0
  6
Continuous
 62
     7
100
AcDbLine
 10
-193.3678588867188
 20
72.17268371582031
 30
0.0
 11
-184.3678588867188
 21
63.17267990112305
 31
0.0
  0
LINE
  5
8A
330
22
100
AcDbEntity
  8
0
  6
Continuous
 62
     7
100
AcDbLine
 10
-193.3678588867188
 20
71.465576171875
 30
0.0
 11
-184.4521331787109
 21
62.54985046386718
 31
0.0
  0
LINE
  5
8B
330
22
100
AcDbEntity
  8
0
  6
Continuous
 62
     7
100
AcDbLine
 10
-193.3678588867188
 20
69.34425354003906
 30
0.0
 11
-185.3458099365234
 21
61.32220458984375
 31
0.0
  0
LINE
  5
8C
330
22
100
AcDbEntity
  8
0
  6
Continuous
 62
     7
100
AcDbLine
 10
-193.3678588867188
 20
68.63714599609375
 30
0.0
 11
-185.7989807128906
 21
61.06826400756836
 31
0.0
  0
LINE
  5
8D
330
22
100
AcDbEntity
  8
0
  6
Continuous
 62
     7
100
AcDbLine
 10
-193.3718414306641
 20
66.51981353759765
 30
0.0
 11
-187.2881774902344
 21
60.43613815307617
 31
0.0
  0
LINE
  5
8E
330
22
100
AcDbEntity
  8
0
  6
Continuous
 62
     7
100
AcDbLine
 10
-193.4400787353516
 20
65.88094329833984
 30
0.0
 11
-187.7845764160156
 21
60.2254295349121
 31
0.0
  0
LINE
  5
8F
330
22
100
AcDbEntity
  8
0
  6
Continuous
 62
     7
100
AcDbLine
 10
-193.9624328613281
 20
64.281982421875
 30
0.0
 11
-189.2737579345703
 21
59.59330368041992
 31
0.0
  0
LINE
  5
90
330
22
100
AcDbEntity
  8
0
  6
Continuous
 62
     7
100
AcDbLine
 10
-194.2119140625
 20
63.82434844970703
 30
0.0
 11
-189.7701568603516
 21
59.38259506225586
 31
0.0
  0
LINE
  5
91
330
22
100
AcDbEntity
  8
0
  6
Continuous
 62
     7
100
AcDbLine
 10
-195.2375946044922
 20
62.72871017456054
 30
0.0
 11
-191.2593536376953
 21
58.75046920776367
 31
0.0
  0
LINE
  5
92
330
22
100
AcDbEntity
  8
0
  6
Continuous
 62
     7
100
AcDbLine
 10
-195.6297302246094
 20
62.41373062133789
 30
0.0
 11
-191.7557525634766
 21
58.53976058959961
 31
0.0
  0
LINE
  5
93
330
22
100
AcDbEntity
  8
0
  6
Continuous
 62
     7
100
AcDbLine
 10
-197.0581512451172
 20
61.72083282470703
 30
0.0
 11
-193.2449493408203
 21
57.90763473510742
 31
0.0
  0
LINE
  5
94
330
22
100
AcDbEntity
  8
0
  6
Continuous
 62
     7
100
AcDbLine
 10
-197.5545501708984
 20
61.51012420654296
 30
0.0
 11
-193.7413482666016
 21
57.69692611694336
 31
0.0
  0
LINE
  5
95
330
22
100
AcDbEntity
  8
0
  6
Continuous
 62
     7
100
AcDbLine
 10
-199.0437316894531
 20
60.87799835205078
 30
0.0
 11
-195.2305450439453
 21
57.06480026245117
 31
0.0
  0
LINE
  5
96
330
22
100
AcDbEntity
  8
0
  6
Continuous
 62
     7
100
AcDbLine
 10
-199.5401306152344
 20
60.66728973388672
 30
0.0
 11
-195.7269439697266
 21
56.85409545898438
 31
0.0
  0
LINE
  5
97
330
22
100
AcDbEntity
  8
0
  6
Continuous
 62
     7
100
AcDbLine
 10
-201.0293273925781
 20
60.03516387939453
 30
0.0
 11
-197.2161407470703
 21
56.22196960449219
 31
0.0
  0
LINE
  5
98
330
22
100
AcDbEntity
  8
0
  6
Continuous
 62
     7
100
AcDbLine
 10
-201.5257263183594
 20
59.82445526123047
 30
0.0
 11
-197.7125396728516
 21
56.01126098632813
 31
0.0
  0
LINE
  5
99
330
22
100
AcDbEntity
  8
0
  6
Continuous
 62
     7
100
AcDbLine
 10
-203.0149230957031
 20
59.19232940673828
 30
0.0
 11
-199.2017211914063
 21
55.37913513183593
 31
0.0
  0
LINE
  5
9A
330
22
100
AcDbEntity
  8
0
  6
Continuous
 62
     7
100
AcDbLine
 10
-203.5113220214844
 20
58.98162078857422
 30
0.0
 11
-199.6981201171875
 21
55.16842651367188
 31
0.0
  0
LINE
  5
9B
330
22
100
AcDbEntity
  8
0
  6
Continuous
 62
     7
100
AcDbLine
 10
-205.0005187988281
 20
58.34949493408203
 30
0.0
 11
-201.1873168945313
 21
54.53630065917969
 31
0.0
  0
LINE
  5
9C
330
22
100
AcDbEntity
  8
0
  6
Continuous
 62
     7
100
AcDbLine
 10
-205.4969177246094
 20
58.13878631591797
 30
0.0
 11
-201.6837158203125
 21
54.32559204101563
 31
0.0
  0
LINE
  5
9D
330
22
100
AcDbEntity
  8
0
  6
Continuous
 62
     7
100
AcDbLine
 10
-206.9861145019531
 20
57.50666046142578
 30
0.0
 11
-203.1729125976563
 21
53.69346618652343
 31
0.0
  0
LINE
  5
9E
330
22
100
AcDbEntity
  8
0
  6
Continuous
 62
     7
100
AcDbLine
 10
-207.4825134277344
 20
57.29595184326171
 30
0.0
 11
-203.6693115234375
 21
53.48275756835938
 31
0.0
  0
LINE
  5
9F
330
22
100
AcDbEntity
  8
0
  6
Continuous
 62
     7
100
AcDbLine
 10
-208.9717102050781
 20
56.66382598876953
 30
0.0
 11
-205.1585083007813
 21
52.85063171386719
 31
0.0
  0
LINE
  5
A0
330
22
100
AcDbEntity
  8
0
  6
Continuous
 62
     7
100
AcDbLine
 10
-209.4681091308594
 20
56.45311737060547
 30
0.0
 11
-205.6549072265625
 21
52.63992309570313
 31
0.0
  0
LINE
  5
A1
330
22
100
AcDbEntity
  8
0
  6
Continuous
 62
     7
100
AcDbLine
 10
-210.9572906494141
 20
55.82099151611328
 30
0.0
 11
-207.1441040039063
 21
52.00779724121094
 31
0.0
  0
LINE
  5
A2
330
22
100
AcDbEntity
  8
0
  6
Continuous
 62
     7
100
AcDbLine
 10
-211.4536895751953
 20
55.61028289794922
 30
0.0
 11
-207.6405029296875
 21
51.79708862304688
 31
0.0
  0
LINE
  5
A3
330
22
100
AcDbEntity
  8
0
  6
Continuous
 62
     7
100
AcDbLine
 10
-212.9428863525391
 20
54.97816085815429
 30
0.0
 11
-209.1296997070313
 21
51.16496276855468
 31
0.0
  0
LINE
  5
A4
330
22
100
AcDbEntity
  8
0
  6
Continuous
 62
     7
100
AcDbLine
 10
-213.4392852783203
 20
54.76745223999023
 30
0.0
 11
-209.6260986328125
 21
50.95425415039063
 31
0.0
  0
LINE
  5
A5
330
22
100
AcDbEntity
  8
0
  6
Continuous
 62
     7
100
AcDbLine
 10
-214.9284820556641
 20
54.13532638549805
 30
0.0
 11
-211.1152801513672
 21
50.32212829589844
 31
0.0
  0
LINE
  5
A6
330
22
100
AcDbEntity
  8
0
  6
Continuous
 62
     7
100
AcDbLine
 10
-215.4248809814453
 20
53.92461776733398
 30
0.0
 11
-211.6116790771484
 21
50.11141967773438
 31
0.0
  0
LINE
  5
A7
330
22
100
AcDbEntity
  8
0
  6
Continuous
 62
     7
100
AcDbLine
 10
-216.9140777587891
 20
53.2924919128418
 30
0.0
 11
-213.1008758544922
 21
49.47929382324218
 31
0.0
  0
LINE
  5
A8
330
22
100
AcDbEntity
  8
0
  6
Continuous
 62
     7
100
AcDbLine
 10
-217.4104766845703
 20
53.08178329467772
 30
0.0
 11
-213.5972747802734
 21
49.26858520507813
 31
0.0
  0
LINE
  5
A9
330
22
100
AcDbEntity
  8
0
  6
Continuous
 62
     7
100
AcDbLine
 10
-218.8996734619141
 20
52.44965744018554
 30
0.0
 11
-215.0864715576172
 21
48.63645935058594
 31
0.0
  0
LINE
  5
AA
330
22
100
AcDbEntity
  8
0
  6
Continuous
 62
     7
100
AcDbLine
 10
-219.3960723876953
 20
52.23894882202148
 30
0.0
 11
-215.5637969970703
 21
48.40667724609375
 31
0.0
  0
LINE
  5
AB
330
22
100
AcDbEntity
  8
0
  6
Continuous
 62
     7
100
AcDbLine
 10
-220.88525390625
 20
51.6068229675293
 30
0.0
 11
-216.8196411132814
 21
47.54120635986327
 31
0.0
  0
LINE
  5
AC
330
22
100
AcDbEntity
  8
0
  6
Continuous
 62
     7
100
AcDbLine
 10
-221.3816528320313
 20
51.39611434936522
 30
0.0
 11
-217.1518096923828
 21
47.16627120971679
 31
0.0
  0
LINE
  5
AD
330
22
100
AcDbEntity
  8
0
  6
Continuous
 62
     7
100
AcDbLine
 10
-222.870849609375
 20
50.76398849487304
 30
0.0
 11
-217.9774322509766
 21
45.87056350708007
 31
0.0
  0
LINE
  5
AE
330
22
100
AcDbEntity
  8
0
  6
Continuous
 62
     7
100
AcDbLine
 10
-223.3672485351563
 20
50.55327987670898
 30
0.0
 11
-218.1444702148438
 21
45.33050155639648
 31
0.0
  0
LINE
  5
AF
330
22
100
AcDbEntity
  8
0
  6
Continuous
 62
     7
100
AcDbLine
 10
-224.8564453125
 20
49.9211540222168
 30
0.0
 11
-218.3678588867188
 21
43.43256759643554
 31
0.0
  0
LINE
  5
B0
330
22
100
AcDbEntity
  8
0
  6
Continuous
 62
     7
100
AcDbLine
 10
-225.3528442382813
 20
49.71044540405273
 30
0.0
 11
-218.3678588867188
 21
42.72546005249022
 31
0.0
  0
LINE
  5
B1
330
22
100
AcDbEntity
  8
0
  6
Continuous
 62
     7
100
AcDbLine
 10
-226.6958770751953
 20
48.93215560913086
 30
0.0
 11
-218.3678588867188
 21
40.6041374206543
 31
0.0
  0
LINE
  5
B2
330
22
100
AcDbEntity
  8
0
  6
Continuous
 62
     7
100
AcDbLine
 10
-226.8678588867188
 20
48.39703369140625
 30
0.0
 11
-218.3678588867188
 21
39.89703369140625
 31
0.0
  0
LINE
  5
B3
330
22
100
AcDbEntity
  8
0
  6
Continuous
 62
     7
100
AcDbLine
 10
-222.3678588867188
 20
41.77571105957031
 30
0.0
 11
-218.3678588867188
 21
37.77571105957032
 31
0.0
  0
LINE
  5
B4
330
22
100
AcDbEntity
  8
0
  6
Continuous
 62
     7
100
AcDbLine
 10
-226.8678588867188
 20
46.27571105957031
 30
0.0
 11
-224.2678833007814
 21
43.67573928833007
 31
0.0
  0
LINE
  5
B5
330
22
100
AcDbEntity
  8
0
  6
Continuous
 62
     7
100
AcDbLine
 10
-222.3678588867188
 20
41.068603515625
 30
0.0
 11
-218.3678588867188
 21
37.068603515625
 31
0.0
  0
LINE
  5
B6
330
22
100
AcDbEntity
  8
0
  6
Continuous
 62
     7
100
AcDbLine
 10
-226.8678588867188
 20
45.568603515625
 30
0.0
 11
-224.9749908447266
 21
43.67573928833007
 31
0.0
  0
LINE
  5
B7
330
22
100
AcDbEntity
  8
0
  6
Continuous
 62
     7
100
AcDbLine
 10
-222.3678588867188
 20
38.94728469848633
 30
0.0
 11
-218.3678588867188
 21
34.94728469848633
 31
0.0
  0
LINE
  5
B8
330
22
100
AcDbEntity
  8
0
  6
Continuous
 62
     7
100
AcDbLine
 10
-222.3678588867188
 20
38.24017715454102
 30
0.0
 11
-218.3678588867188
 21
34.24017715454102
 31
0.0
  0
LINE
  5
B9
330
22
100
AcDbEntity
  8
0
  6
Continuous
 62
     7
100
AcDbLine
 10
-222.3678588867188
 20
36.11885833740235
 30
0.0
 11
-218.3678588867188
 21
32.11885833740234
 31
0.0
  0
LINE
  5
BA
330
22
100
AcDbEntity
  8
0
  6
Continuous
 62
     7
100
AcDbLine
 10
-222.3678588867188
 20
35.41175079345703
 30
0.0
 11
-218.3678588867188
 21
31.41175079345703
 31
0.0
  0
LINE
  5
BB
330
22
100
AcDbEntity
  8
0
  6
Continuous
 62
     7
100
AcDbLine
 10
-222.8917236328125
 20
33.81429672241211
 30
0.0
 11
-218.3678588867188
 21
29.29043006896973
 31
0.0
  0
LINE
  5
BC
330
22
100
AcDbEntity
  8
0
  6
Continuous
 62
     7
100
AcDbLine
 10
-223.4602661132814
 20
33.67573928833008
 30
0.0
 11
-218.3678588867188
 21
28.58332252502441
 31
0.0
  0
LINE
  5
BD
330
22
100
AcDbEntity
  8
0
  6
Continuous
 62
     7
100
AcDbLine
 10
-223.8957214355469
 20
31.98986053466797
 30
0.0
 11
-218.3678588867188
 21
26.46200370788574
 31
0.0
  0
LINE
  5
BE
330
22
100
AcDbEntity
  8
0
  6
Continuous
 62
     7
100
AcDbLine
 10
-223.8729095458984
 20
31.25994300842285
 30
0.0
 11
-218.3678588867188
 21
25.75489616394043
 31
0.0
  0
LINE
  5
BF
330
22
100
AcDbEntity
  8
0
  6
Continuous
 62
     7
100
AcDbLine
 10
-223.8044738769531
 20
29.0701904296875
 30
0.0
 11
-218.3678588867188
 21
23.63357543945313
 31
0.0
  0
LINE
  5
C0
330
22
100
AcDbEntity
  8
0
  6
Continuous
 62
     7
100
AcDbLine
 10
-223.7816619873047
 20
28.34027099609375
 30
0.0
 11
-218.3678588867188
 21
22.92646980285645
 31
0.0
  0
LINE
  5
C1
330
22
100
AcDbEntity
  8
0
  6
Continuous
 62
     7
100
AcDbLine
 10
-223.7132263183594
 20
26.1505184173584
 30
0.0
 11
-218.3678588867188
 21
20.80514907836914
 31
0.0
  0
LINE
  5
C2
330
22
100
AcDbEntity
  8
0
  6
Continuous
 62
     7
100
AcDbLine
 10
-223.6904144287109
 20
25.42060089111328
 30
0.0
 11
-218.3678588867188
 21
20.09804153442383
 31
0.0
  0
LINE
  5
C3
330
22
100
AcDbEntity
  8
0
  6
Continuous
 62
     7
100
AcDbLine
 10
-223.6219787597656
 20
23.2308464050293
 30
0.0
 11
-218.3678588867188
 21
17.97672080993652
 31
0.0
  0
LINE
  5
C4
330
22
100
AcDbEntity
  8
0
  6
Continuous
 62
     7
100
AcDbLine
 10
-223.5991668701172
 20
22.50092887878418
 30
0.0
 11
-218.5709228515625
 21
17.47267723083496
 31
0.0
  0
LINE
  5
C5
330
22
100
AcDbEntity
  8
0
  6
Continuous
 62
     7
100
AcDbLine
 10
-223.5307464599609
 20
20.3111743927002
 30
0.0
 11
-219.8953094482422
 21
16.67573738098145
 31
0.0
  0
LINE
  5
C6
330
22
100
AcDbEntity
  8
0
  6
Continuous
 62
     7
100
AcDbLine
 10
-223.5079345703125
 20
19.58125686645508
 30
0.0
 11
-220.6024017333984
 21
16.67573738098145
 31
0.0
  0
LINE
  5
C7
330
22
100
AcDbEntity
  8
0
  6
Continuous
 62
     7
100
AcDbLine
 10
-223.4394989013672
 20
17.39150428771973
 30
0.0
 11
-222.7237243652344
 21
16.67573738098145
 31
0.0
  0
LINE
  5
C8
330
22
100
AcDbEntity
  8
0
  6
Continuous
 62
     7
100
AcDbLine
 10
-226.8678588867188
 20
48.40547561645507
 30
0.0
 11
-226.8678588867188
 21
44.67573928833007
 31
0.0
  0
LINE
  5
C9
330
22
100
AcDbEntity
  8
0
  6
Continuous
 62
     7
100
AcDbLine
 10
-223.4171295166016
 20
16.67573738098145
 30
0.0
 11
-224.9662780761719
 21
18.22488403320313
 31
0.0
  0
LINE
  5
CA
330
22
100
AcDbEntity
  8
0
  6
Continuous
 62
     7
100
AcDbLine
 10
-225.4036560058594
 20
32.22048568725586
 30
0.0
 11
-224.9662780761719
 21
18.22488403320313
 31
0.0
  0
LINE
  5
CB
330
22
100
AcDbEntity
  8
0
  6
Continuous
 62
     7
100
AcDbLine
 10
-223.9484100341797
 20
33.67573928833008
 30
0.0
 11
-223.4171295166016
 21
16.67573738098145
 31
0.0
  0
LINE
  5
CC
330
22
100
AcDbEntity
  8
0
  6
Continuous
 62
     7
100
AcDbLine
 10
-223.9484100341797
 20
33.67573928833008
 30
0.0
 11
-225.4036560058594
 21
32.22048568725586
 31
0.0
  0
LINE
  5
CD
330
22
100
AcDbEntity
  8
0
  6
Continuous
 62
     7
100
AcDbLine
 10
-223.9484100341797
 20
33.67573928833008
 30
0.0
 11
-223.3678588867189
 21
33.67573928833008
 31
0.0
  0
LINE
  5
CE
330
22
100
AcDbEntity
  8
0
  6
Continuous
 62
     7
100
AcDbLine
 10
-242.3678588867189
 20
77.67573547363281
 30
0.0
 11
-242.3678588867189
 21
72.67573547363281
 31
0.0
  0
LINE
  5
CF
330
22
100
AcDbEntity
  8
0
  6
Continuous
 62
     7
100
AcDbLine
 10
-248.3678588867189
 20
77.67573547363281
 30
0.0
 11
-248.3678588867189
 21
72.67573547363281
 31
0.0
  0
LINE
  5
D0
330
22
100
AcDbEntity
  8
0
  6
Continuous
 62
     7
100
AcDbLine
 10
-189.3678588867188
 20
74.67573547363281
 30
0.0
 11
-188.3678588867188
 21
75.67573547363281
 31
0.0
  0
LINE
  5
D1
330
22
100
AcDbEntity
  8
0
  6
Continuous
 62
     7
100
AcDbLine
 10
-188.3678588867188
 20
74.67573547363281
 30
0.0
 11
-189.3678588867188
 21
75.67573547363281
 31
0.0
  0
LINE
  5
D2
330
22
100
AcDbEntity
  8
0
  6
Continuous
 62
     7
100
AcDbLine
 10
-188.3678588867188
 20
77.67573547363281
 30
0.0
 11
-189.3678588867188
 21
76.67573547363281
 31
0.0
  0
LINE
  5
D3
330
22
100
AcDbEntity
  8
0
  6
Continuous
 62
     7
100
AcDbLine
 10
-188.3678588867188
 20
74.67573547363281
 30
0.0
 11
-188.3678588867188
 21
77.67573547363281
 31
0.0
  0
LINE
  5
D4
330
22
100
AcDbEntity
  8
0
  6
Continuous
 62
     7
100
AcDbLine
 10
-225.8678588867188
 20
43.67573928833007
 30
0.0
 11
-223.3678588867189
 21
43.67573928833007
 31
0.0
  0
LINE
  5
D5
330
22
100
AcDbEntity
  8
0
  6
Continuous
 62
     7
100
AcDbLine
 10
-222.3678588867188
 20
42.67573928833008
 30
0.0
 11
-222.3678588867188
 21
34.67573928833008
 31
0.0
  0
LINE
  5
D6
330
22
100
AcDbEntity
  8
0
  6
Continuous
 62
     7
100
AcDbLine
 10
-196.4141998291016
 20
61.99417114257813
 30
0.0
 11
-226.2585906982422
 21
49.32598114013671
 31
0.0
  0
LINE
  5
D7
330
22
100
AcDbEntity
  8
0
  6
Continuous
 62
     7
100
AcDbLine
 10
-209.3678588867188
 20
145.7772521972656
 30
0.0
 11
-209.3678588867188
 21
173.2737426757813
 31
0.0
  0
LINE
  5
D8
330
22
100
AcDbEntity
  8
0
  6
Continuous
 62
     7
100
AcDbLine
 10
-275.3678588867188
 20
113.745964050293
 30
0.0
 11
-275.3678588867188
 21
133.2737426757812
 31
0.0
  0
LINE
  5
D9
330
22
100
AcDbEntity
  8
0
  6
Continuous
 62
     7
100
AcDbLine
 10
-281.3678588867188
 20
114.7305221557617
 30
0.0
 11
-281.3678588867188
 21
133.2737426757812
 31
0.0
  0
LINE
  5
DA
330
22
100
AcDbEntity
  8
0
  6
Continuous
 62
     7
100
AcDbLine
 10
-270.3678588867188
 20
113.3399429321289
 30
0.0
 11
-270.3678588867188
 21
130.2737426757813
 31
0.0
  0
LINE
  5
DB
330
22
100
AcDbEntity
  8
0
  6
Continuous
 62
     7
100
AcDbLine
 10
-264.3678588867188
 20
130.2737426757813
 30
0.0
 11
-264.3678588867188
 21
113.3399429321289
 31
0.0
  0
LINE
  5
DC
330
22
100
AcDbEntity
  8
0
  6
Continuous
 62
     7
100
AcDbLine
 10
-264.3678588867188
 20
113.3399429321289
 30
0.0
 11
-264.3678588867188
 21
130.2737426757813
 31
0.0
  0
LINE
  5
DD
330
22
100
AcDbEntity
  8
0
  6
Continuous
 62
     7
100
AcDbLine
 10
-286.3678588867188
 20
115.9820861816406
 30
0.0
 11
-286.3678588867188
 21
155.7737426757813
 31
0.0
  0
LINE
  5
DE
330
22
100
AcDbEntity
  8
0
  6
Continuous
 62
     7
100
AcDbLine
 10
-292.3678588867188
 20
118.0360870361328
 30
0.0
 11
-292.3678588867188
 21
155.7737426757813
 31
0.0
  0
LINE
  5
DF
330
22
100
AcDbEntity
  8
0
  6
Continuous
 62
     7
100
AcDbLine
 10
-297.3678588867188
 20
120.249153137207
 30
0.0
 11
-297.3678588867188
 21
133.2737426757812
 31
0.0
  0
LINE
  5
E0
330
22
100
AcDbEntity
  8
0
  6
Continuous
 62
     7
100
AcDbLine
 10
-303.3678588867188
 20
123.5849151611328
 30
0.0
 11
-303.3678588867188
 21
133.2737426757812
 31
0.0
  0
LINE
  5
E1
330
22
100
AcDbEntity
  8
0
  6
Continuous
 62
     7
100
AcDbLine
 10
-199.3678588867188
 20
77.67573547363281
 30
0.0
 11
-199.3678588867188
 21
72.67573547363281
 31
0.0
  0
LINE
  5
E2
330
22
100
AcDbEntity
  8
0
  6
Continuous
 62
     7
100
AcDbLine
 10
-204.3678588867188
 20
77.67573547363281
 30
0.0
 11
-204.3678588867188
 21
72.67573547363281
 31
0.0
  0
LINE
  5
E3
330
22
100
AcDbEntity
  8
0
  6
Continuous
 62
     7
100
AcDbLine
 10
-220.3678588867188
 20
77.67573547363281
 30
0.0
 11
-220.3678588867188
 21
72.67573547363281
 31
0.0
  0
LINE
  5
E4
330
22
100
AcDbEntity
  8
0
  6
Continuous
 62
     7
100
AcDbLine
 10
-226.3678588867188
 20
77.67573547363281
 30
0.0
 11
-226.3678588867188
 21
72.67573547363281
 31
0.0
  0
LINE
  5
E5
330
22
100
AcDbEntity
  8
0
  6
Continuous
 62
     7
100
AcDbLine
 10
-189.3678588867188
 20
77.67573547363281
 30
0.0
 11
-189.3678588867188
 21
72.67573547363281
 31
0.0
  0
LINE
  5
E6
330
22
100
AcDbEntity
  8
0
  6
Continuous
 62
     7
100
AcDbLine
 10
-189.3678588867188
 20
77.67573547363281
 30
0.0
 11
-188.3678588867188
 21
76.67573547363281
 31
0.0
  0
LINE
  5
E7
330
22
100
AcDbEntity
  8
0
  6
Continuous
 62
     7
100
AcDbLine
 10
-193.3678588867188
 20
72.67573547363281
 30
0.0
 11
-193.3678588867188
 21
66.59669494628906
 31
0.0
  0
LINE
  5
E8
330
22
100
AcDbEntity
  8
0
  6
Continuous
 62
     7
100
AcDbLine
 10
-176.8678588867188
 20
77.67573547363281
 30
0.0
 11
-176.8678588867188
 21
73.67573547363281
 31
0.0
  0
LINE
  5
E9
330
22
100
AcDbEntity
  8
0
  6
Continuous
 62
     7
100
AcDbLine
 10
-184.3678588867188
 20
62.99950790405272
 30
0.0
 11
-184.3678588867188
 21
73.67573547363281
 31
0.0
  0
LINE
  5
EA
330
22
100
AcDbEntity
  8
0
  6
Continuous
 62
     7
100
AcDbLine
 10
-184.3678588867188
 20
73.67573547363281
 30
0.0
 11
-176.8678588867188
 21
73.67573547363281
 31
0.0
  0
LINE
  5
EB
330
22
100
AcDbEntity
  8
0
  6
Continuous
 62
     7
100
AcDbLine
 10
-188.3678588867188
 20
72.67573547363281
 30
0.0
 11
-188.3678588867188
 21
74.67573547363281
 31
0.0
  0
LINE
  5
EC
330
22
100
AcDbEntity
  8
0
  6
Continuous
 62
     7
100
AcDbLine
 10
-218.3678588867188
 20
17.67573738098145
 30
0.0
 11
-218.3678588867188
 21
43.93416595458984
 31
0.0
  0
LINE
  5
ED
330
22
100
AcDbEntity
  8
0
  6
Continuous
 62
     7
100
AcDbLine
 10
-270.3678588867188
 20
221.2737426757813
 30
0.0
 11
-270.3678588867188
 21
192.2737426757813
 31
0.0
  0
LINE
  5
EE
330
22
100
AcDbEntity
  8
0
  6
Continuous
 62
     7
100
AcDbLine
 10
-264.3678588867188
 20
249.2075347900391
 30
0.0
 11
-264.3678588867188
 21
232.2737426757814
 31
0.0
  0
LINE
  5
EF
330
22
100
AcDbEntity
  8
0
  6
Continuous
 62
     7
100
AcDbLine
 10
-270.3678588867188
 20
130.2737426757813
 30
0.0
 11
-270.3678588867188
 21
113.3399429321289
 31
0.0
  0
LINE
  5
F0
330
22
100
AcDbEntity
  8
0
  6
Continuous
 62
     7
100
AcDbLine
 10
-308.3678588867188
 20
195.7737426757813
 30
0.0
 11
-308.3678588867188
 21
181.2737426757813
 31
0.0
  0
LINE
  5
F1
330
22
100
AcDbEntity
  8
0
  6
Continuous
 62
     7
100
AcDbLine
 10
-292.3678588867188
 20
195.7737426757813
 30
0.0
 11
-292.3678588867188
 21
181.2737426757813
 31
0.0
  0
LINE
  5
F2
330
22
100
AcDbEntity
  8
0
  6
Continuous
 62
     7
100
AcDbLine
 10
-286.3678588867188
 20
195.7737426757813
 30
0.0
 11
-286.3678588867188
 21
181.2737426757813
 31
0.0
  0
LINE
  5
F3
330
22
100
AcDbEntity
  8
0
  6
Continuous
 62
     7
100
AcDbLine
 10
-297.3678588867188
 20
242.2983245849609
 30
0.0
 11
-297.3678588867188
 21
229.2737426757813
 31
0.0
  0
LINE
  5
F4
330
22
100
AcDbEntity
  8
0
  6
Continuous
 62
     7
100
AcDbLine
 10
-303.3678588867188
 20
238.9625549316406
 30
0.0
 11
-303.3678588867188
 21
229.2737426757813
 31
0.0
  0
LINE
  5
F5
330
22
100
AcDbEntity
  8
0
  6
Continuous
 62
     7
100
AcDbLine
 10
-303.3678588867188
 20
218.2737426757813
 30
0.0
 11
-303.3678588867188
 21
189.2737426757813
 31
0.0
  0
LINE
  5
F6
330
22
100
AcDbEntity
  8
0
  6
Continuous
 62
     7
100
AcDbLine
 10
-297.3678588867188
 20
218.2737426757813
 30
0.0
 11
-297.3678588867188
 21
189.2737426757813
 31
0.0
  0
LINE
  5
F7
330
22
100
AcDbEntity
  8
0
  6
Continuous
 62
     7
100
AcDbLine
 10
-270.3678588867188
 20
141.2737426757813
 30
0.0
 11
-270.3678588867188
 21
170.2737426757813
 31
0.0
  0
LINE
  5
F8
330
22
100
AcDbEntity
  8
0
  6
Continuous
 62
     7
100
AcDbLine
 10
-275.3678588867188
 20
144.2737426757813
 30
0.0
 11
-275.3678588867188
 21
173.2737426757813
 31
0.0
  0
LINE
  5
F9
330
22
100
AcDbEntity
  8
0
  6
Continuous
 62
     7
100
AcDbLine
 10
-314.3678588867188
 20
133.2737426757812
 30
0.0
 11
-314.3678588867188
 21
155.7737426757813
 31
0.0
  0
LINE
  5
FA
330
22
100
AcDbEntity
  8
0
  6
Continuous
 62
     7
100
AcDbLine
 10
-275.3678588867188
 20
218.2737426757813
 30
0.0
 11
-275.3678588867188
 21
189.2737426757813
 31
0.0
  0
LINE
  5
FB
330
22
100
AcDbEntity
  8
0
  6
Continuous
 62
     7
100
AcDbLine
 10
-292.3678588867188
 20
166.7737426757813
 30
0.0
 11
-292.3678588867188
 21
181.2737426757813
 31
0.0
  0
LINE
  5
FC
330
22
100
AcDbEntity
  8
0
  6
Continuous
 62
     7
100
AcDbLine
 10
-286.3678588867188
 20
166.7737426757813
 30
0.0
 11
-286.3678588867188
 21
181.2737426757813
 31
0.0
  0
LINE
  5
FD
330
22
100
AcDbEntity
  8
0
  6
Continuous
 62
     7
100
AcDbLine
 10
-270.3678588867188
 20
249.2075347900391
 30
0.0
 11
-270.3678588867188
 21
232.2737426757814
 31
0.0
  0
LINE
  5
FE
330
22
100
AcDbEntity
  8
0
  6
Continuous
 62
     7
100
AcDbLine
 10
-270.3678588867188
 20
221.2737426757813
 30
0.0
 11
-270.3678588867188
 21
192.2737426757813
 31
0.0
  0
LINE
  5
FF
330
22
100
AcDbEntity
  8
0
  6
Continuous
 62
     7
100
AcDbLine
 10
-281.3678588867188
 20
218.2737426757813
 30
0.0
 11
-281.3678588867188
 21
189.2737426757813
 31
0.0
  0
LINE
  5
100
330
22
100
AcDbEntity
  8
0
  6
Continuous
 62
     7
100
AcDbLine
 10
-308.3678588867188
 20
127.0243148803711
 30
0.0
 11
-308.3678588867188
 21
155.7737426757813
 31
0.0
  0
LINE
  5
101
330
22
100
AcDbEntity
  8
0
  6
Continuous
 62
     7
100
AcDbLine
 10
-314.3678588867188
 20
229.2737426757813
 30
0.0
 11
-314.3678588867188
 21
206.7737426757813
 31
0.0
  0
LINE
  5
102
330
22
100
AcDbEntity
  8
0
  6
Continuous
 62
     7
100
AcDbLine
 10
-308.3678588867188
 20
235.5231628417969
 30
0.0
 11
-308.3678588867188
 21
206.7737426757813
 31
0.0
  0
LINE
  5
103
330
22
100
AcDbEntity
  8
0
  6
Continuous
 62
     7
100
AcDbLine
 10
-286.3678588867188
 20
246.5653839111328
 30
0.0
 11
-286.3678588867188
 21
206.7737426757813
 31
0.0
  0
LINE
  5
104
330
22
100
AcDbEntity
  8
0
  6
Continuous
 62
     7
100
AcDbLine
 10
-292.3678588867188
 20
244.5113830566406
 30
0.0
 11
-292.3678588867188
 21
206.7737426757813
 31
0.0
  0
LINE
  5
105
330
22
100
AcDbEntity
  8
0
  6
Continuous
 62
     7
100
AcDbLine
 10
-275.3678588867188
 20
248.801513671875
 30
0.0
 11
-275.3678588867188
 21
229.2737426757813
 31
0.0
  0
LINE
  5
106
330
22
100
AcDbEntity
  8
0
  6
Continuous
 62
     7
100
AcDbLine
 10
-281.3678588867188
 20
247.8169555664063
 30
0.0
 11
-281.3678588867188
 21
229.2737426757813
 31
0.0
  0
LINE
  5
107
330
22
100
AcDbEntity
  8
0
  6
Continuous
 62
     7
100
AcDbLine
 10
-270.3678588867188
 20
141.2737426757813
 30
0.0
 11
-270.3678588867188
 21
170.2737426757813
 31
0.0
  0
LINE
  5
108
330
22
100
AcDbEntity
  8
0
  6
Continuous
 62
     7
100
AcDbLine
 10
-303.3678588867188
 20
144.2737426757813
 30
0.0
 11
-303.3678588867188
 21
173.2737426757813
 31
0.0
  0
LINE
  5
109
330
22
100
AcDbEntity
  8
0
  6
Continuous
 62
     7
100
AcDbLine
 10
-297.3678588867188
 20
144.2737426757813
 30
0.0
 11
-297.3678588867188
 21
173.2737426757813
 31
0.0
  0
LINE
  5
10A
330
22
100
AcDbEntity
  8
0
  6
Continuous
 62
     7
100
AcDbLine
 10
-281.3678588867188
 20
144.2737426757813
 30
0.0
 11
-281.3678588867188
 21
173.2737426757813
 31
0.0
  0
LINE
  5
10B
330
22
100
AcDbEntity
  8
0
  6
Continuous
 62
     7
100
AcDbLine
 10
-314.3678588867188
 20
229.2737426757813
 30
0.0
 11
-314.3678588867188
 21
230.4218902587891
 31
0.0
  0
LINE
  5
10C
330
22
100
AcDbEntity
  8
0
  6
Continuous
 62
     7
100
AcDbLine
 10
-319.3678588867188
 20
137.4559326171875
 30
0.0
 11
-319.3678588867188
 21
173.2737426757813
 31
0.0
  0
LINE
  5
10D
330
22
100
AcDbEntity
  8
0
  6
Continuous
 62
     7
100
AcDbLine
 10
-314.3678588867188
 20
166.7737426757813
 30
0.0
 11
-314.3678588867188
 21
181.2737426757813
 31
0.0
  0
LINE
  5
10E
330
22
100
AcDbEntity
  8
0
  6
Continuous
 62
     7
100
AcDbLine
 10
-308.3678588867188
 20
166.7737426757813
 30
0.0
 11
-308.3678588867188
 21
181.2737426757813
 31
0.0
  0
LINE
  5
10F
330
22
100
AcDbEntity
  8
0
  6
Continuous
 62
     7
100
AcDbLine
 10
-314.3678588867188
 20
133.2737426757812
 30
0.0
 11
-314.3678588867188
 21
132.0691375732422
 31
0.0
  0
LINE
  5
110
330
22
100
AcDbEntity
  8
0
  6
Continuous
 62
     7
100
AcDbLine
 10
-314.3678588867188
 20
195.7737426757813
 30
0.0
 11
-314.3678588867188
 21
181.2737426757813
 31
0.0
  0
LINE
  5
111
330
22
100
AcDbEntity
  8
0
  6
CENTER
 62
     7
100
AcDbLine
 10
-267.3678588867188
 20
83.64639282226562
 30
0.0
 11
-267.3678588867188
 21
8.668790817260742
 31
0.0
  0
LINE
  5
112
330
22
100
AcDbEntity
  8
0
  6
Continuous
 62
     7
100
AcDbLine
 10
-325.3678588867188
 20
216.7702178955078
 30
0.0
 11
-325.3678588867188
 21
189.2737426757813
 31
0.0
  0
LINE
  5
113
330
22
100
AcDbEntity
  8
0
  6
Continuous
 62
     7
100
AcDbLine
 10
-330.3678588867188
 20
195.7737426757813
 30
0.0
 11
-330.3678588867188
 21
181.2737426757813
 31
0.0
  0
LINE
  5
114
330
22
100
AcDbEntity
  8
0
  6
Continuous
 62
     7
100
AcDbLine
 10
-330.3678588867188
 20
166.7737426757813
 30
0.0
 11
-330.3678588867188
 21
181.2737426757813
 31
0.0
  0
LINE
  5
115
330
22
100
AcDbEntity
  8
0
  6
Continuous
 62
     7
100
AcDbLine
 10
-325.3678588867188
 20
145.7772521972656
 30
0.0
 11
-325.3678588867188
 21
173.2737426757813
 31
0.0
  0
LINE
  5
116
330
22
100
AcDbEntity
  8
0
  6
Continuous
 62
     7
100
AcDbLine
 10
-264.3678588867188
 20
141.2737426757813
 30
0.0
 11
-264.3678588867188
 21
170.2737426757813
 31
0.0
  0
LINE
  5
117
330
22
100
AcDbEntity
  8
0
  6
Continuous
 62
     7
100
AcDbLine
 10
-264.3678588867188
 20
141.2737426757813
 30
0.0
 11
-264.3678588867188
 21
170.2737426757813
 31
0.0
  0
LINE
  5
118
330
22
100
AcDbEntity
  8
0
  6
Continuous
 62
     7
100
AcDbLine
 10
-264.3678588867188
 20
232.2737426757814
 30
0.0
 11
-264.3678588867188
 21
249.2075347900391
 31
0.0
  0
LINE
  5
119
330
22
100
AcDbEntity
  8
0
  6
Continuous
 62
     7
100
AcDbLine
 10
-264.3678588867188
 20
221.2737426757813
 30
0.0
 11
-264.3678588867188
 21
192.2737426757813
 31
0.0
  0
LINE
  5
11A
330
22
100
AcDbEntity
  8
0
  6
Continuous
 62
     7
100
AcDbLine
 10
-264.3678588867188
 20
221.2737426757813
 30
0.0
 11
-264.3678588867188
 21
192.2737426757813
 31
0.0
  0
LINE
  5
11B
330
22
100
AcDbEntity
  8
0
  6
Continuous
 62
     7
100
AcDbLine
 10
-270.3678588867188
 20
232.2737426757814
 30
0.0
 11
-270.3678588867188
 21
249.2075347900391
 31
0.0
  0
LINE
  5
11C
330
22
100
AcDbEntity
  8
0
  6
Continuous
 62
     7
100
AcDbLine
 10
-319.3678588867188
 20
225.0915374755859
 30
0.0
 11
-319.3678588867188
 21
189.2737426757813
 31
0.0
  0
LINE
  5
11D
330
22
100
AcDbEntity
  8
0
  6
Continuous
 62
     7
100
AcDbLine
 10
-259.3678588867188
 20
113.745964050293
 30
0.0
 11
-259.3678588867188
 21
133.2737426757812
 31
0.0
  0
LINE
  5
11E
330
22
100
AcDbEntity
  8
0
  6
Continuous
 62
     7
100
AcDbLine
 10
-225.4036560058594
 20
32.22048568725586
 30
0.0
 11
-267.3678588867188
 21
32.22048568725586
 31
0.0
  0
LINE
  5
11F
330
22
100
AcDbEntity
  8
0
  6
Continuous
 62
     7
100
AcDbLine
 10
-267.3678588867188
 20
18.22488403320313
 30
0.0
 11
-224.9662780761719
 21
18.22488403320313
 31
0.0
  0
LINE
  5
120
330
22
100
AcDbEntity
  8
0
  6
CENTER
 62
     7
100
AcDbLine
 10
-267.3678588867188
 20
273.446044921875
 30
0.0
 11
-267.3678588867188
 21
88.0945816040039
 31
0.0
  0
LINE
  5
121
330
22
100
AcDbEntity
  8
0
  6
Continuous
 62
     7
100
AcDbLine
 10
-349.1493225097656
 20
61.15850067138672
 30
0.0
 11
-319.4142150878906
 21
48.53668975830078
 31
0.0
  0
LINE
  5
122
330
22
100
AcDbEntity
  8
0
  6
Continuous
 62
     7
100
AcDbLine
 10
-357.8678588867188
 20
77.67573547363281
 30
0.0
 11
-357.8678588867188
 21
73.67573547363281
 31
0.0
  0
LINE
  5
123
330
22
100
AcDbEntity
  8
0
  6
Continuous
 62
     7
100
AcDbLine
 10
-350.3678588867188
 20
62.99950790405272
 30
0.0
 11
-350.3678588867188
 21
73.67573547363281
 31
0.0
  0
LINE
  5
124
330
22
100
AcDbEntity
  8
0
  6
Continuous
 62
     7
100
AcDbLine
 10
-357.8678588867188
 20
73.67573547363281
 30
0.0
 11
-267.3678588867188
 21
73.67573547363281
 31
0.0
  0
LINE
  5
125
330
22
100
AcDbEntity
  8
0
  6
Continuous
 62
     7
100
AcDbLine
 10
-348.2116088867188
 20
61.67573928833007
 30
0.0
 11
-267.3678588867188
 21
61.67573928833007
 31
0.0
  0
LINE
  5
126
330
22
100
AcDbEntity
  8
0
  6
Continuous
 62
     7
100
AcDbLine
 10
-316.3678588867188
 20
17.67573738098145
 30
0.0
 11
-304.9554443359375
 21
17.67573738098145
 31
0.0
  0
LINE
  5
127
330
22
100
AcDbEntity
  8
0
  6
Continuous
 62
     7
100
AcDbLine
 10
-316.3678588867188
 20
17.67573738098145
 30
0.0
 11
-316.3678588867188
 21
43.93416595458984
 31
0.0
  0
LINE
  5
128
330
22
100
AcDbEntity
  8
0
  6
Continuous
 62
     7
100
AcDbLine
 10
-316.3678588867188
 20
17.67573738098145
 30
0.0
 11
-315.3678588867188
 21
16.67573738098145
 31
0.0
  0
LINE
  5
129
330
22
100
AcDbEntity
  8
0
  6
Continuous
 62
     7
100
AcDbLine
 10
-304.9554443359375
 20
16.67573738098145
 30
0.0
 11
-304.9554443359375
 21
46.73257446289063
 31
0.0
  0
LINE
  5
12A
330
22
100
AcDbEntity
  8
0
  6
Continuous
 62
     7
100
AcDbLine
 10
-301.9554443359375
 20
16.67573738098145
 30
0.0
 11
-301.9554443359375
 21
46.73257446289063
 31
0.0
  0
LINE
  5
12B
330
22
100
AcDbEntity
  8
0
  6
Continuous
 62
     7
100
AcDbLine
 10
-304.9554443359375
 20
46.73257446289063
 30
0.0
 11
-315.3117980957031
 21
46.73257446289063
 31
0.0
  0
LINE
  5
12C
330
22
100
AcDbEntity
  8
0
  6
Continuous
 62
     7
100
AcDbLine
 10
-318.2127380371094
 20
47.81298828125
 30
0.0
 11
-267.3678588867188
 21
47.81298828125
 31
0.0
  0
LINE
  5
12D
330
22
100
AcDbEntity
  8
0
  6
Continuous
 62
     7
100
AcDbLine
 10
-264.3678588867188
 20
77.67573547363281
 30
0.0
 11
-264.3678588867188
 21
72.67573547363281
 31
0.0
  0
LINE
  5
12E
330
22
100
AcDbEntity
  8
0
  6
Continuous
 62
     7
100
AcDbLine
 10
-301.9554443359375
 20
17.67573738098145
 30
0.0
 11
-267.3678588867188
 21
17.67573738098145
 31
0.0
  0
LINE
  5
12F
330
22
100
AcDbEntity
  8
0
  6
Continuous
 62
     7
100
AcDbLine
 10
-267.3678588867188
 20
46.73257446289063
 30
0.0
 11
-301.9554443359375
 21
46.73257446289063
 31
0.0
  0
LINE
  5
130
330
22
100
AcDbEntity
  8
0
  6
Continuous
 62
     7
100
AcDbLine
 10
-259.3678588867188
 20
248.801513671875
 30
0.0
 11
-259.3678588867188
 21
229.2737426757813
 31
0.0
  0
LINE
  5
131
330
22
100
AcDbEntity
  8
0
  6
Continuous
 62
     7
100
AcDbLine
 10
-259.3678588867188
 20
144.2737426757813
 30
0.0
 11
-259.3678588867188
 21
173.2737426757813
 31
0.0
  0
LINE
  5
132
330
22
100
AcDbEntity
  8
0
  6
Continuous
 62
     7
100
AcDbLine
 10
-259.3678588867188
 20
218.2737426757813
 30
0.0
 11
-259.3678588867188
 21
189.2737426757813
 31
0.0
  0
LINE
  5
133
330
22
100
AcDbEntity
  8
0
  6
CENTER
 62
     7
100
AcDbLine
 10
-364.9627685546875
 20
181.2737426757813
 30
0.0
 11
-172.532958984375
 21
181.2737426757813
 31
0.0
  0
LINE
  5
134
330
22
100
AcDbEntity
  8
0
  6
Continuous
 62
     7
100
AcDbLine
 10
-357.8678588867188
 20
77.67573547363281
 30
0.0
 11
-176.8678588867188
 21
77.67573547363281
 31
0.0
  0
LINE
  5
135
330
22
100
AcDbEntity
  8
0
  6
Continuous
 62
     7
100
AcDbLine
 10
-315.3678588867188
 20
16.67573738098145
 30
0.0
 11
-219.3678588867189
 21
16.67573738098145
 31
0.0
  0
LINE
  5
136
330
22
100
AcDbEntity
  8
0
  6
Continuous
 62
     7
100
AcDbLine
 10
-264.3678588867188
 20
76.86428070068359
 30
0.0
 11
-263.556396484375
 21
77.67573547363281
 31
0.0
  0
LINE
  5
137
330
22
100
AcDbEntity
  8
0
  6
Continuous
 62
     7
100
AcDbLine
 10
-264.3678588867188
 20
74.03585815429687
 30
0.0
 11
-260.7279663085938
 21
77.67573547363281
 31
0.0
  0
LINE
  5
138
330
22
100
AcDbEntity
  8
0
  6
Continuous
 62
     7
100
AcDbLine
 10
-262.8995361328125
 20
72.67573547363281
 30
0.0
 11
-257.8995361328125
 21
77.67573547363281
 31
0.0
  0
LINE
  5
139
330
22
100
AcDbEntity
  8
0
  6
Continuous
 62
     7
100
AcDbLine
 10
-260.0711364746094
 20
72.67573547363281
 30
0.0
 11
-255.0711212158203
 21
77.67573547363281
 31
0.0
  0
LINE
  5
13A
330
22
100
AcDbEntity
  8
0
  6
Continuous
 62
     7
100
AcDbLine
 10
-257.2427062988281
 20
72.67573547363281
 30
0.0
 11
-252.2426910400391
 21
77.67573547363281
 31
0.0
  0
LINE
  5
13B
330
22
100
AcDbEntity
  8
0
  6
Continuous
 62
     7
100
AcDbLine
 10
-254.4142761230469
 20
72.67573547363281
 30
0.0
 11
-249.4142761230469
 21
77.67573547363281
 31
0.0
  0
LINE
  5
13C
330
22
100
AcDbEntity
  8
0
  6
Continuous
 62
     7
100
AcDbLine
 10
-251.5858459472656
 20
72.67573547363281
 30
0.0
 11
-248.3678588867189
 21
75.89372253417969
 31
0.0
  0
LINE
  5
13D
330
22
100
AcDbEntity
  8
0
  6
Continuous
 62
     7
100
AcDbLine
 10
-248.7574157714844
 20
72.67573547363281
 30
0.0
 11
-248.3678588867189
 21
73.06529235839843
 31
0.0
  0
LINE
  5
13E
330
22
100
AcDbEntity
  8
0
  6
Continuous
 62
     7
100
AcDbLine
 10
-242.3678588867189
 20
76.23686981201172
 30
0.0
 11
-240.9289855957031
 21
77.67573547363281
 31
0.0
  0
LINE
  5
13F
330
22
100
AcDbEntity
  8
0
  6
Continuous
 62
     7
100
AcDbLine
 10
-242.3678588867189
 20
73.40843963623047
 30
0.0
 11
-238.1005554199219
 21
77.67573547363281
 31
0.0
  0
LINE
  5
140
330
22
100
AcDbEntity
  8
0
  6
Continuous
 62
     7
100
AcDbLine
 10
-240.2721405029297
 20
72.67573547363281
 30
0.0
 11
-235.2721405029297
 21
77.67573547363281
 31
0.0
  0
LINE
  5
141
330
22
100
AcDbEntity
  8
0
  6
Continuous
 62
     7
100
AcDbLine
 10
-237.4437103271484
 20
72.67573547363281
 30
0.0
 11
-232.4437103271484
 21
77.67573547363281
 31
0.0
  0
LINE
  5
142
330
22
100
AcDbEntity
  8
0
  6
Continuous
 62
     7
100
AcDbLine
 10
-234.6152801513672
 20
72.67573547363281
 30
0.0
 11
-229.6152801513672
 21
77.67573547363281
 31
0.0
  0
LINE
  5
143
330
22
100
AcDbEntity
  8
0
  6
Continuous
 62
     7
100
AcDbLine
 10
-231.7868499755859
 20
72.67573547363281
 30
0.0
 11
-226.7868499755859
 21
77.67573547363281
 31
0.0
  0
LINE
  5
144
330
22
100
AcDbEntity
  8
0
  6
Continuous
 62
     7
100
AcDbLine
 10
-228.9584197998047
 20
72.67573547363281
 30
0.0
 11
-226.3678588867188
 21
75.26630401611328
 31
0.0
  0
LINE
  5
145
330
22
100
AcDbEntity
  8
0
  6
Continuous
 62
     7
100
AcDbLine
 10
-220.3678588867188
 20
75.60945129394531
 30
0.0
 11
-218.3015747070313
 21
77.67573547363281
 31
0.0
  0
LINE
  5
146
330
22
100
AcDbEntity
  8
0
  6
Continuous
 62
     7
100
AcDbLine
 10
-220.3678588867188
 20
72.78102111816406
 30
0.0
 11
-215.47314453125
 21
77.67573547363281
 31
0.0
  0
LINE
  5
147
330
22
100
AcDbEntity
  8
0
  6
Continuous
 62
     7
100
AcDbLine
 10
-217.6447143554689
 20
72.67573547363281
 30
0.0
 11
-212.6447143554688
 21
77.67573547363281
 31
0.0
  0
LINE
  5
148
330
22
100
AcDbEntity
  8
0
  6
Continuous
 62
     7
100
AcDbLine
 10
-214.8162841796875
 20
72.67573547363281
 30
0.0
 11
-209.8162841796875
 21
77.67573547363281
 31
0.0
  0
LINE
  5
149
330
22
100
AcDbEntity
  8
0
  6
Continuous
 62
     7
100
AcDbLine
 10
-211.9878692626953
 20
72.67573547363281
 30
0.0
 11
-206.9878692626953
 21
77.67573547363281
 31
0.0
  0
LINE
  5
14A
330
22
100
AcDbEntity
  8
0
  6
Continuous
 62
     7
100
AcDbLine
 10
-209.1594390869141
 20
72.67573547363281
 30
0.0
 11
-204.3678588867188
 21
77.46731567382813
 31
0.0
  0
LINE
  5
14B
330
22
100
AcDbEntity
  8
0
  6
Continuous
 62
     7
100
AcDbLine
 10
-206.3310089111328
 20
72.67573547363281
 30
0.0
 11
-204.3678588867188
 21
74.63888549804687
 31
0.0
  0
LINE
  5
14C
330
22
100
AcDbEntity
  8
0
  6
Continuous
 62
     7
100
AcDbLine
 10
-199.3678588867188
 20
76.81046295166016
 30
0.0
 11
-198.5025787353516
 21
77.67573547363281
 31
0.0
  0
LINE
  5
14D
330
22
100
AcDbEntity
  8
0
  6
Continuous
 62
     7
100
AcDbLine
 10
-199.3678588867188
 20
73.9820327758789
 30
0.0
 11
-195.6741485595703
 21
77.67573547363281
 31
0.0
  0
LINE
  5
14E
330
22
100
AcDbEntity
  8
0
  6
Continuous
 62
     7
100
AcDbLine
 10
-197.8457336425781
 20
72.67573547363281
 30
0.0
 11
-192.8457336425781
 21
77.67573547363281
 31
0.0
  0
LINE
  5
14F
330
22
100
AcDbEntity
  8
0
  6
Continuous
 62
     7
100
AcDbLine
 10
-195.0173034667969
 20
72.67573547363281
 30
0.0
 11
-190.0173034667969
 21
77.67573547363281
 31
0.0
  0
LINE
  5
150
330
22
100
AcDbEntity
  8
0
  6
Continuous
 62
     7
100
AcDbLine
 10
-192.1888732910156
 20
72.67573547363281
 30
0.0
 11
-189.3678588867188
 21
75.49674987792968
 31
0.0
  0
LINE
  5
151
330
22
100
AcDbEntity
  8
0
  6
Continuous
 62
     7
100
AcDbLine
 10
-267.3678588867188
 20
72.67573547363281
 30
0.0
 11
-188.3678588867188
 21
72.67573547363281
 31
0.0
  0
LINE
  5
152
330
22
100
AcDbEntity
  8
0
  6
Continuous
 62
     7
100
AcDbLine
 10
-267.3678588867188
 20
48.95741271972656
 30
0.0
 11
-226.7017517089844
 21
48.95741271972656
 31
0.0
  0
LINE
  5
153
330
22
100
AcDbEntity
  8
0
  6
Continuous
 62
     7
100
AcDbLine
 10
-267.3678588867188
 20
43.67573928833007
 30
0.0
 11
-225.9683380126953
 21
43.67573928833007
 31
0.0
  0
LINE
  5
154
330
22
100
AcDbEntity
  8
0
  6
Continuous
 62
     7
100
AcDbLine
 10
-267.3678588867188
 20
33.67573928833008
 30
0.0
 11
-223.9484100341797
 21
33.67573928833008
 31
0.0
  0
ARC
  5
155
330
22
100
AcDbEntity
  8
0
  6
Continuous
 62
     7
100
AcDbCircle
 10
-267.3678588867188
 20
181.2737426757813
 30
0.0
 40
68.0
100
AcDbArc
 50
68.42941964329212
 51
73.77489700808161
  0
ARC
  5
156
330
22
100
AcDbEntity
  8
0
  6
Continuous
 62
     7
100
AcDbCircle
 10
-245.3678588867188
 20
155.7737426757813
 30
0.0
 40
3.0
100
AcDbArc
 50
0.0
 51
180.0000000000004
  0
ARC
  5
157
330
22
100
AcDbEntity
  8
0
  6
Continuous
 62
     7
100
AcDbCircle
 10
-245.3678588867188
 20
166.7737426757813
 30
0.0
 40
3.0
100
AcDbArc
 50
180.0000000000004
 51
0.0
  0
ARC
  5
158
330
22
100
AcDbEntity
  8
0
  6
Continuous
 62
     7
100
AcDbCircle
 10
-245.3678588867188
 20
206.7737426757813
 30
0.0
 40
3.0
100
AcDbArc
 50
180.0000000000004
 51
0.0
  0
ARC
  5
159
330
22
100
AcDbEntity
  8
0
  6
Continuous
 62
     7
100
AcDbCircle
 10
-245.3678588867188
 20
195.7737426757813
 30
0.0
 40
3.0
100
AcDbArc
 50
0.0
 51
180.0000000000004
  0
ARC
  5
15A
330
22
100
AcDbEntity
  8
0
  6
Continuous
 62
     7
100
AcDbCircle
 10
-267.3678588867188
 20
181.2737426757813
 30
0.0
 40
68.0
100
AcDbArc
 50
286.22509939957
 51
291.5705756299342
  0
ARC
  5
15B
330
22
100
AcDbEntity
  8
0
  6
Continuous
 62
     7
100
AcDbCircle
 10
-234.3678588867188
 20
144.2737426757813
 30
0.0
 40
3.0
100
AcDbArc
 50
180.0000000000004
 51
0.0
  0
ARC
  5
15C
330
22
100
AcDbEntity
  8
0
  6
Continuous
 62
     7
100
AcDbCircle
 10
-234.3678588867188
 20
133.2737426757812
 30
0.0
 40
3.0
100
AcDbArc
 50
0.0
 51
180.0000000000004
  0
ARC
  5
15D
330
22
100
AcDbEntity
  8
0
  6
Continuous
 62
     7
100
AcDbCircle
 10
-223.3678588867189
 20
206.7737426757813
 30
0.0
 40
3.0
100
AcDbArc
 50
180.0000000000004
 51
0.0
  0
ARC
  5
15E
330
22
100
AcDbEntity
  8
0
  6
Continuous
 62
     7
100
AcDbCircle
 10
-223.3678588867189
 20
195.7737426757813
 30
0.0
 40
3.0
100
AcDbArc
 50
0.0
 51
180.0000000000004
  0
ARC
  5
15F
330
22
100
AcDbEntity
  8
0
  6
Continuous
 62
     7
100
AcDbCircle
 10
-234.3678588867188
 20
218.2737426757813
 30
0.0
 40
3.0
100
AcDbArc
 50
0.0
 51
180.0000000000004
  0
ARC
  5
160
330
22
100
AcDbEntity
  8
0
  6
Continuous
 62
     7
100
AcDbCircle
 10
-234.3678588867188
 20
229.2737426757813
 30
0.0
 40
3.0
100
AcDbArc
 50
180.0000000000004
 51
0.0
  0
ARC
  5
161
330
22
100
AcDbEntity
  8
0
  6
Continuous
 62
     7
100
AcDbCircle
 10
-267.3678588867188
 20
181.2737426757813
 30
0.0
 40
68.0
100
AcDbArc
 50
307.080833639655
 51
313.7233061413672
  0
ARC
  5
162
330
22
100
AcDbEntity
  8
0
  6
Continuous
 62
     7
100
AcDbCircle
 10
-201.3678588867188
 20
166.7737426757813
 30
0.0
 40
3.0
100
AcDbArc
 50
180.0000000000004
 51
264.514949835744
  0
ARC
  5
163
330
22
100
AcDbEntity
  8
0
  6
Continuous
 62
     7
100
AcDbCircle
 10
-212.3678588867188
 20
189.2737426757813
 30
0.0
 40
3.0
100
AcDbArc
 50
180.0000000000004
 51
0.0
  0
ARC
  5
164
330
22
100
AcDbEntity
  8
0
  6
Continuous
 62
     7
100
AcDbCircle
 10
-267.3678588867188
 20
181.2737426757813
 30
0.0
 40
68.0
100
AcDbArc
 50
58.03427761299839
 51
63.82103006913795
  0
ARC
  5
165
330
22
100
AcDbEntity
  8
0
  6
Continuous
 62
     7
100
AcDbCircle
 10
-267.3678588867188
 20
181.2737426757813
 30
0.0
 40
68.0
100
AcDbArc
 50
296.1789670947981
 51
301.965715580447
  0
ARC
  5
166
330
22
100
AcDbEntity
  8
0
  6
Continuous
 62
     7
100
AcDbCircle
 10
-234.3678588867188
 20
173.2737426757813
 30
0.0
 40
3.0
100
AcDbArc
 50
0.0
 51
180.0000000000004
  0
ARC
  5
167
330
22
100
AcDbEntity
  8
0
  6
Continuous
 62
     7
100
AcDbCircle
 10
-267.3678588867188
 20
181.2737426757813
 30
0.0
 40
68.0
100
AcDbArc
 50
319.880829584728
 51
328.5330152407963
  0
ARC
  5
168
330
22
100
AcDbEntity
  8
0
  6
Continuous
 62
     7
100
AcDbCircle
 10
-212.3678588867188
 20
173.2737426757813
 30
0.0
 40
3.0
100
AcDbArc
 50
0.0
 51
180.0000000000004
  0
ARC
  5
169
330
22
100
AcDbEntity
  8
0
  6
Continuous
 62
     7
100
AcDbCircle
 10
-267.3678588867188
 20
181.2737426757813
 30
0.0
 40
68.0
100
AcDbArc
 50
345.0989207511548
 51
14.90106682437732
  0
ARC
  5
16A
330
22
100
AcDbEntity
  8
0
  6
Continuous
 62
     7
100
AcDbCircle
 10
-223.3678588867189
 20
155.7737426757813
 30
0.0
 40
3.0
100
AcDbArc
 50
0.0
 51
180.0000000000004
  0
ARC
  5
16B
330
22
100
AcDbEntity
  8
0
  6
Continuous
 62
     7
100
AcDbCircle
 10
-223.3678588867189
 20
166.7737426757813
 30
0.0
 40
3.0
100
AcDbArc
 50
180.0000000000004
 51
0.0
  0
ARC
  5
16C
330
22
100
AcDbEntity
  8
0
  6
Continuous
 62
     7
100
AcDbCircle
 10
-267.3678588867188
 20
181.2737426757813
 30
0.0
 40
68.0
100
AcDbArc
 50
46.27668497229691
 51
52.91916248439066
  0
ARC
  5
16D
330
22
100
AcDbEntity
  8
0
  6
Continuous
 62
     7
100
AcDbCircle
 10
-201.3678588867188
 20
195.7737426757813
 30
0.0
 40
3.0
100
AcDbArc
 50
95.48507802017851
 51
180.0000000000004
  0
ARC
  5
16E
330
22
100
AcDbEntity
  8
0
  6
Continuous
 62
     7
100
AcDbCircle
 10
-234.3678588867188
 20
189.2737426757813
 30
0.0
 40
3.0
100
AcDbArc
 50
180.0000000000004
 51
0.0
  0
ARC
  5
16F
330
22
100
AcDbEntity
  8
0
  6
Continuous
 62
     7
100
AcDbCircle
 10
-225.8678588867188
 20
48.40547561645507
 30
0.0
 40
1.0
100
AcDbArc
 50
113.0000210193307
 51
180.0000000000004
  0
ARC
  5
170
330
22
100
AcDbEntity
  8
0
  6
Continuous
 62
     7
100
AcDbCircle
 10
-223.3678588867189
 20
42.67573928833008
 30
0.0
 40
1.0
100
AcDbArc
 50
0.0
 51
90.00000000000019
  0
ARC
  5
171
330
22
100
AcDbEntity
  8
0
  6
Continuous
 62
     7
100
AcDbCircle
 10
-223.3678588867189
 20
34.67573928833008
 30
0.0
 40
1.0
100
AcDbArc
 50
270.0000000000005
 51
0.0
  0
ARC
  5
172
330
22
100
AcDbEntity
  8
0
  6
Continuous
 62
     7
100
AcDbCircle
 10
-225.8678588867188
 20
44.67573928833007
 30
0.0
 40
1.0
100
AcDbArc
 50
180.0000000000004
 51
270.0000000000005
  0
ARC
  5
173
330
22
100
AcDbEntity
  8
0
  6
Continuous
 62
     7
100
AcDbCircle
 10
-213.3678588867188
 20
43.93416595458984
 30
0.0
 40
5.0
100
AcDbArc
 50
113.0000380994545
 51
180.0000000000004
  0
ARC
  5
174
330
22
100
AcDbEntity
  8
0
  6
Continuous
 62
     7
100
AcDbCircle
 10
-267.3678588867188
 20
181.2737426757813
 30
0.0
 40
68.0
100
AcDbArc
 50
31.46697379308827
 51
40.11916058358135
  0
ARC
  5
175
330
22
100
AcDbEntity
  8
0
  6
Continuous
 62
     7
100
AcDbCircle
 10
-267.3678588867188
 20
181.2737426757813
 30
0.0
 40
68.0
100
AcDbArc
 50
258.1188455594984
 51
263.2436736197845
  0
ARC
  5
176
330
22
100
AcDbEntity
  8
0
  6
Continuous
 62
     7
100
AcDbCircle
 10
-267.3678588867188
 20
181.2737426757813
 30
0.0
 40
68.0
100
AcDbArc
 50
248.4294243700672
 51
253.7749006004314
  0
ARC
  5
177
330
22
100
AcDbEntity
  8
0
  6
Continuous
 62
     7
100
AcDbCircle
 10
-198.3678588867188
 20
66.59669494628906
 30
0.0
 40
5.0
100
AcDbArc
 50
293.0000380994552
 51
0.0
  0
ARC
  5
178
330
22
100
AcDbEntity
  8
0
  6
Continuous
 62
     7
100
AcDbCircle
 10
-186.3678588867188
 20
62.99950790405272
 30
0.0
 40
2.0
100
AcDbArc
 50
293.0000637196858
 51
0.0
  0
ARC
  5
179
330
22
100
AcDbEntity
  8
0
  6
Continuous
 62
     7
100
AcDbCircle
 10
-267.3678588867188
 20
181.2737426757813
 30
0.0
 40
68.0
100
AcDbArc
 50
87.47142434310317
 51
92.52857565689685
  0
ARC
  5
17A
330
22
100
AcDbEntity
  8
0
  6
Continuous
 62
     7
100
AcDbCircle
 10
-267.3678588867188
 20
192.2737426757813
 30
0.0
 40
3.0
100
AcDbArc
 50
180.0000000000004
 51
0.0
  0
CIRCLE
  5
17B
330
22
100
AcDbEntity
  8
0
  6
Continuous
 62
     7
100
AcDbCircle
 10
-267.3678588867188
 20
181.2737426757813
 30
0.0
 40
3.0
  0
ARC
  5
17C
330
22
100
AcDbEntity
  8
0
  6
Continuous
 62
     7
100
AcDbCircle
 10
-267.3678588867188
 20
170.2737426757813
 30
0.0
 40
3.0
100
AcDbArc
 50
0.0
 51
180.0000000000004
  0
ARC
  5
17D
330
22
100
AcDbEntity
  8
0
  6
Continuous
 62
     7
100
AcDbCircle
 10
-267.3678588867188
 20
170.2737426757813
 30
0.0
 40
3.0
100
AcDbArc
 50
0.0
 51
180.0000000000004
  0
ARC
  5
17E
330
22
100
AcDbEntity
  8
0
  6
Continuous
 62
     7
100
AcDbCircle
 10
-267.3678588867188
 20
141.2737426757813
 30
0.0
 40
3.0
100
AcDbArc
 50
180.0000000000004
 51
0.0
  0
ARC
  5
17F
330
22
100
AcDbEntity
  8
0
  6
Continuous
 62
     7
100
AcDbCircle
 10
-267.3678588867188
 20
141.2737426757813
 30
0.0
 40
3.0
100
AcDbArc
 50
180.0000000000004
 51
0.0
  0
ARC
  5
180
330
22
100
AcDbEntity
  8
0
  6
Continuous
 62
     7
100
AcDbCircle
 10
-267.3678588867188
 20
232.2737426757814
 30
0.0
 40
3.0
100
AcDbArc
 50
180.0000000000004
 51
0.0
  0
ARC
  5
181
330
22
100
AcDbEntity
  8
0
  6
Continuous
 62
     7
100
AcDbCircle
 10
-267.3678588867188
 20
221.2737426757813
 30
0.0
 40
3.0
100
AcDbArc
 50
0.0
 51
180.0000000000004
  0
ARC
  5
182
330
22
100
AcDbEntity
  8
0
  6
Continuous
 62
     7
100
AcDbCircle
 10
-267.3678588867188
 20
192.2737426757813
 30
0.0
 40
3.0
100
AcDbArc
 50
180.0000000000004
 51
0.0
  0
ARC
  5
183
330
22
100
AcDbEntity
  8
0
  6
Continuous
 62
     7
100
AcDbCircle
 10
-267.3678588867188
 20
130.2737426757813
 30
0.0
 40
3.0
100
AcDbArc
 50
0.0
 51
180.0000000000004
  0
ARC
  5
184
330
22
100
AcDbEntity
  8
0
  6
Continuous
 62
     7
100
AcDbCircle
 10
-267.3678588867188
 20
130.2737426757813
 30
0.0
 40
3.0
100
AcDbArc
 50
0.0
 51
180.0000000000004
  0
CIRCLE
  5
185
330
22
100
AcDbEntity
  8
0
  6
Continuous
 62
     7
100
AcDbCircle
 10
-267.3678588867188
 20
181.2737426757813
 30
0.0
 40
3.0
  0
CIRCLE
  5
186
330
22
100
AcDbEntity
  8
0
  6
Continuous
 62
     7
100
AcDbCircle
 10
-267.3678588867188
 20
181.2737426757813
 30
0.0
 40
3.0
  0
ARC
  5
187
330
22
100
AcDbEntity
  8
0
  6
Continuous
 62
     7
100
AcDbCircle
 10
-311.3678588867188
 20
166.7737426757813
 30
0.0
 40
3.0
100
AcDbArc
 50
180.0000000000004
 51
0.0
  0
ARC
  5
188
330
22
100
AcDbEntity
  8
0
  6
Continuous
 62
     7
100
AcDbCircle
 10
-311.3678588867188
 20
195.7737426757813
 30
0.0
 40
3.0
100
AcDbArc
 50
0.0
 51
180.0000000000004
  0
ARC
  5
189
330
22
100
AcDbEntity
  8
0
  6
Continuous
 62
     7
100
AcDbCircle
 10
-289.3678588867188
 20
195.7737426757813
 30
0.0
 40
3.0
100
AcDbArc
 50
0.0
 51
180.0000000000004
  0
ARC
  5
18A
330
22
100
AcDbEntity
  8
0
  6
Continuous
 62
     7
100
AcDbCircle
 10
-267.3678588867188
 20
181.2737426757813
 30
0.0
 40
68.0
100
AcDbArc
 50
226.2766938586343
 51
232.9191663603465
  0
ARC
  5
18B
330
22
100
AcDbEntity
  8
0
  6
Continuous
 62
     7
100
AcDbCircle
 10
-267.3678588867188
 20
232.2737426757814
 30
0.0
 40
3.0
100
AcDbArc
 50
180.0000000000004
 51
0.0
  0
ARC
  5
18C
330
22
100
AcDbEntity
  8
0
  6
Continuous
 62
     7
100
AcDbCircle
 10
-267.3678588867188
 20
221.2737426757813
 30
0.0
 40
3.0
100
AcDbArc
 50
0.0
 51
180.0000000000004
  0
ARC
  5
18D
330
22
100
AcDbEntity
  8
0
  6
Continuous
 62
     7
100
AcDbCircle
 10
-267.3678588867188
 20
181.2737426757813
 30
0.0
 40
68.0
100
AcDbArc
 50
267.4714246267103
 51
272.5285753732911
  0
ARC
  5
18E
330
22
100
AcDbEntity
  8
0
  6
Continuous
 62
     7
100
AcDbCircle
 10
-267.3678588867188
 20
181.2737426757813
 30
0.0
 40
68.0
100
AcDbArc
 50
238.0342844195545
 51
243.8210329052033
  0
ARC
  5
18F
330
22
100
AcDbEntity
  8
0
  6
Continuous
 62
     7
100
AcDbCircle
 10
-278.3678588867188
 20
173.2737426757813
 30
0.0
 40
3.0
100
AcDbArc
 50
0.0
 51
180.0000000000004
  0
ARC
  5
190
330
22
100
AcDbEntity
  8
0
  6
Continuous
 62
     7
100
AcDbCircle
 10
-300.3678588867188
 20
173.2737426757813
 30
0.0
 40
3.0
100
AcDbArc
 50
0.0
 51
180.0000000000004
  0
ARC
  5
191
330
22
100
AcDbEntity
  8
0
  6
Continuous
 62
     7
100
AcDbCircle
 10
-267.3678588867188
 20
181.2737426757813
 30
0.0
 40
68.0
100
AcDbArc
 50
96.75632713650005
 51
101.8811570874958
  0
ARC
  5
192
330
22
100
AcDbEntity
  8
0
  6
Continuous
 62
     7
100
AcDbCircle
 10
-300.3678588867188
 20
229.2737426757813
 30
0.0
 40
3.0
100
AcDbArc
 50
180.0000000000004
 51
0.0
  0
CIRCLE
  5
193
330
22
100
AcDbEntity
  8
0
  6
Continuous
 62
     7
100
AcDbCircle
 10
-267.3678588867188
 20
181.2737426757813
 30
0.0
 40
3.0
  0
ARC
  5
194
330
22
100
AcDbEntity
  8
0
  6
Continuous
 62
     7
100
AcDbCircle
 10
-300.3678588867188
 20
218.2737426757813
 30
0.0
 40
3.0
100
AcDbArc
 50
0.0
 51
180.0000000000004
  0
ARC
  5
195
330
22
100
AcDbEntity
  8
0
  6
Continuous
 62
     7
100
AcDbCircle
 10
-278.3678588867188
 20
218.2737426757813
 30
0.0
 40
3.0
100
AcDbArc
 50
0.0
 51
180.0000000000004
  0
ARC
  5
196
330
22
100
AcDbEntity
  8
0
  6
Continuous
 62
     7
100
AcDbCircle
 10
-278.3678588867188
 20
229.2737426757813
 30
0.0
 40
3.0
100
AcDbArc
 50
180.0000000000004
 51
0.0
  0
ARC
  5
197
330
22
100
AcDbEntity
  8
0
  6
Continuous
 62
     7
100
AcDbCircle
 10
-278.3678588867188
 20
189.2737426757813
 30
0.0
 40
3.0
100
AcDbArc
 50
180.0000000000004
 51
0.0
  0
ARC
  5
198
330
22
100
AcDbEntity
  8
0
  6
Continuous
 62
     7
100
AcDbCircle
 10
-300.3678588867188
 20
189.2737426757813
 30
0.0
 40
3.0
100
AcDbArc
 50
180.0000000000004
 51
0.0
  0
ARC
  5
199
330
22
100
AcDbEntity
  8
0
  6
Continuous
 62
     7
100
AcDbCircle
 10
-289.3678588867188
 20
206.7737426757813
 30
0.0
 40
3.0
100
AcDbArc
 50
180.0000000000004
 51
0.0
  0
ARC
  5
19A
330
22
100
AcDbEntity
  8
0
  6
Continuous
 62
     7
100
AcDbCircle
 10
-300.3678588867188
 20
144.2737426757813
 30
0.0
 40
3.0
100
AcDbArc
 50
180.0000000000004
 51
0.0
  0
ARC
  5
19B
330
22
100
AcDbEntity
  8
0
  6
Continuous
 62
     7
100
AcDbCircle
 10
-278.3678588867188
 20
144.2737426757813
 30
0.0
 40
3.0
100
AcDbArc
 50
180.0000000000004
 51
0.0
  0
ARC
  5
19C
330
22
100
AcDbEntity
  8
0
  6
Continuous
 62
     7
100
AcDbCircle
 10
-300.3678588867188
 20
133.2737426757812
 30
0.0
 40
3.0
100
AcDbArc
 50
0.0
 51
180.0000000000004
  0
ARC
  5
19D
330
22
100
AcDbEntity
  8
0
  6
Continuous
 62
     7
100
AcDbCircle
 10
-278.3678588867188
 20
133.2737426757812
 30
0.0
 40
3.0
100
AcDbArc
 50
0.0
 51
180.0000000000004
  0
ARC
  5
19E
330
22
100
AcDbEntity
  8
0
  6
Continuous
 62
     7
100
AcDbCircle
 10
-289.3678588867188
 20
155.7737426757813
 30
0.0
 40
3.0
100
AcDbArc
 50
0.0
 51
180.0000000000004
  0
ARC
  5
19F
330
22
100
AcDbEntity
  8
0
  6
Continuous
 62
     7
100
AcDbCircle
 10
-311.3678588867188
 20
155.7737426757813
 30
0.0
 40
3.0
100
AcDbArc
 50
0.0
 51
180.0000000000004
  0
ARC
  5
1A0
330
22
100
AcDbEntity
  8
0
  6
Continuous
 62
     7
100
AcDbCircle
 10
-304.0462951660156
 20
44.37403869628906
 30
0.0
 40
3.151878118515015
100
AcDbArc
 50
48.44289095619052
 51
95.02087488640965
  0
ARC
  5
1A1
330
22
100
AcDbEntity
  8
0
  6
Continuous
 62
     7
100
AcDbCircle
 10
-333.3678588867188
 20
195.7737426757813
 30
0.0
 40
3.0
100
AcDbArc
 50
0.0
 51
84.51521206810713
  0
ARC
  5
1A2
330
22
100
AcDbEntity
  8
0
  6
Continuous
 62
     7
100
AcDbCircle
 10
-267.3678588867188
 20
181.2737426757813
 30
0.0
 40
68.0
100
AcDbArc
 50
139.8808394164187
 51
148.6980871913189
  0
ARC
  5
1A3
330
22
100
AcDbEntity
  8
0
  6
Continuous
 62
     7
100
AcDbCircle
 10
-333.3678588867188
 20
166.7737426757813
 30
0.0
 40
3.0
100
AcDbArc
 50
275.4847600774269
 51
0.0
  0
ARC
  5
1A4
330
22
100
AcDbEntity
  8
0
  6
Continuous
 62
     7
100
AcDbCircle
 10
-322.3678588867188
 20
173.2737426757813
 30
0.0
 40
3.0
100
AcDbArc
 50
0.0
 51
180.0000000000004
  0
ARC
  5
1A5
330
22
100
AcDbEntity
  8
0
  6
Continuous
 62
     7
100
AcDbCircle
 10
-267.3678588867188
 20
181.2737426757813
 30
0.0
 40
68.0
100
AcDbArc
 50
165.0989364817654
 51
194.9010759427015
  0
ARC
  5
1A6
330
22
100
AcDbEntity
  8
0
  6
Continuous
 62
     7
100
AcDbCircle
 10
-267.3678588867188
 20
181.2737426757813
 30
0.0
 40
68.0
100
AcDbArc
 50
211.4669847592052
 51
220.1191704152735
  0
ARC
  5
1A7
330
22
100
AcDbEntity
  8
0
  6
Continuous
 62
     7
100
AcDbCircle
 10
-322.3678588867188
 20
189.2737426757813
 30
0.0
 40
3.0
100
AcDbArc
 50
180.0000000000004
 51
0.0
  0
ARC
  5
1A8
330
22
100
AcDbEntity
  8
0
  6
Continuous
 62
     7
100
AcDbCircle
 10
-311.3678588867188
 20
206.7737426757813
 30
0.0
 40
3.0
100
AcDbArc
 50
180.0000000000004
 51
0.0
  0
ARC
  5
1A9
330
22
100
AcDbEntity
  8
0
  6
Continuous
 62
     7
100
AcDbCircle
 10
-267.3678588867188
 20
181.2737426757813
 30
0.0
 40
68.0
100
AcDbArc
 50
116.1789699308621
 51
121.9657223870016
  0
ARC
  5
1AA
330
22
100
AcDbEntity
  8
0
  6
Continuous
 62
     7
100
AcDbCircle
 10
-267.3678588867188
 20
181.2737426757813
 30
0.0
 40
68.0
100
AcDbArc
 50
106.2251029919184
 51
111.5705803567079
  0
ARC
  5
1AB
330
22
100
AcDbEntity
  8
0
  6
Continuous
 62
     7
100
AcDbCircle
 10
-267.3678588867188
 20
181.2737426757813
 30
0.0
 40
68.0
100
AcDbArc
 50
127.0808375156094
 51
133.7233150277031
  0
ARC
  5
1AC
330
22
100
AcDbEntity
  8
0
  6
Continuous
 62
     7
100
AcDbCircle
 10
-289.3678588867188
 20
166.7737426757813
 30
0.0
 40
3.0
100
AcDbArc
 50
180.0000000000004
 51
0.0
  0
ARC
  5
1AD
330
22
100
AcDbEntity
  8
0
  6
Continuous
 62
     7
100
AcDbCircle
 10
-348.3678588867188
 20
62.99950790405272
 30
0.0
 40
2.0
100
AcDbArc
 50
180.0000000000004
 51
246.9999362803155
  0
ARC
  5
1AE
330
22
100
AcDbEntity
  8
0
  6
Continuous
 62
     7
100
AcDbCircle
 10
-321.3678588867188
 20
43.93416595458984
 30
0.0
 40
5.0
100
AcDbArc
 50
0.0
 51
67.0001228535532
  0
ARC
  5
1AF
330
22
100
AcDbEntity
  8
0
  6
Continuous
 62
     7
100
AcDbCircle
 10
-303.6719360351563
 20
15.70709323883057
 30
0.0
 40
1.970955729484558
100
AcDbArc
 50
29.43674294104792
 51
92.77519525743798
  0
ARC
  5
1B0
330
22
100
AcDbEntity
  8
0
  6
Continuous
 62
     7
100
AcDbCircle
 10
-303.3981018066406
 20
16.03126335144043
 30
0.0
 40
1.685425519943236
100
AcDbArc
 50
102.655709449859
 51
157.5187929975041
  0
ARC
  5
1B1
330
22
100
AcDbEntity
  8
0
  6
Continuous
 62
     7
100
AcDbCircle
 10
-302.9917297363281
 20
45.78805923461914
 30
0.0
 40
2.179043769836426
100
AcDbArc
 50
127.6290753175284
 51
154.3131918165005
  0
ARC
  5
1B2
330
22
100
AcDbEntity
  8
0
  6
Continuous
 62
     7
100
AcDbCircle
 10
-256.3678588867188
 20
189.2737426757813
 30
0.0
 40
3.0
100
AcDbArc
 50
180.0000000000004
 51
0.0
  0
ARC
  5
1B3
330
22
100
AcDbEntity
  8
0
  6
Continuous
 62
     7
100
AcDbCircle
 10
-256.3678588867188
 20
133.2737426757812
 30
0.0
 40
3.0
100
AcDbArc
 50
0.0
 51
180.0000000000004
  0
ARC
  5
1B4
330
22
100
AcDbEntity
  8
0
  6
Continuous
 62
     7
100
AcDbCircle
 10
-256.3678588867188
 20
229.2737426757813
 30
0.0
 40
3.0
100
AcDbArc
 50
180.0000000000004
 51
0.0
  0
ARC
  5
1B5
330
22
100
AcDbEntity
  8
0
  6
Continuous
 62
     7
100
AcDbCircle
 10
-256.3678588867188
 20
173.2737426757813
 30
0.0
 40
3.0
100
AcDbArc
 50
0.0
 51
180.0000000000004
  0
ARC
  5
1B6
330
22
100
AcDbEntity
  8
0
  6
Continuous
 62
     7
100
AcDbCircle
 10
-256.3678588867188
 20
144.2737426757813
 30
0.0
 40
3.0
100
AcDbArc
 50
180.0000000000004
 51
0.0
  0
ARC
  5
1B7
330
22
100
AcDbEntity
  8
0
  6
Continuous
 62
     7
100
AcDbCircle
 10
-267.3678588867188
 20
181.2737426757813
 30
0.0
 40
68.0
100
AcDbArc
 50
78.11884291250409
 51
83.24367286349994
  0
ARC
  5
1B8
330
22
100
AcDbEntity
  8
0
  6
Continuous
 62
     7
100
AcDbCircle
 10
-256.3678588867188
 20
218.2737426757813
 30
0.0
 40
3.0
100
AcDbArc
 50
0.0
 51
180.0000000000004
  0
ARC
  5
1B9
330
22
100
AcDbEntity
  8
0
  6
Continuous
 62
     7
100
AcDbCircle
 10
-267.3678588867188
 20
181.2737426757813
 30
0.0
 40
68.0
100
AcDbArc
 50
276.7563263802169
 51
281.881154440503
  0
CIRCLE
  5
1BA
330
22
100
AcDbEntity
  8
0
  6
DASHED
 62
     7
100
AcDbCircle
 10
-267.3678588867188
 20
181.2737426757813
 30
0.0
 40
40.49999999999999
  0
CIRCLE
  5
1BB
330
22
100
AcDbEntity
  8
0
  6
Continuous
 62
     7
100
AcDbCircle
 10
-267.3678588867188
 20
181.2737426757813
 30
0.0
 40
90.5
  0
CIRCLE
  5
1BC
330
22
100
AcDbEntity
  8
0
  6
Continuous
 62
     7
100
AcDbCircle
 10
-267.3678588867188
 20
181.2737426757813
 30
0.0
 40
78.0
  0
CIRCLE
  5
1BD
330
22
100
AcDbEntity
  8
0
  6
Continuous
 62
     7
100
AcDbCircle
 10
-267.3678588867188
 20
181.2737426757813
 30
0.0
 40
79.0
  0
TEXT
  5
1BE
330
22
100
AcDbEntity
  8
0
  6
Continuous
 62
     7
100
AcDbText
 10
-166.2581720352173
 20
162.8794555664063
 30
0.0
 40
7.0
  1
ＤＬ－Ｓ－８０Ｇ
 41
0.8454512837995997
100
AcDbText
  0
DIMENSION
  5
1BF
330
22
100
AcDbEntity
  8
0
  6
Continuous
 62
     7
100
AcDbDimension
  2
*D1
 10
-283.5376586914063
 20
77.67573547363281
 30
0.0
 11
-283.5376586914063
 21
53.83519744873047
 31
0.0
 71
     5
 42
-1.0
  3
DIMSTYLE1
100
AcDbAlignedDimension
 13
-315.3678588867188
 23
16.67573738098145
 33
0.0
 14
-357.8678588867188
 24
77.67573547363281
 34
0.0
 50
90.0
100
AcDbRotatedDimension
  0
INSERT
  5
1C0
330
22
100
AcDbEntity
  8
0
  6
Continuous
 62
     7
100
AcDbBlockReference
  2
KOZU0001
 10
-225.112060546875
 20
22.89008331298828
 30
0.0
  0
DIMENSION
  5
1C1
330
22
100
AcDbEntity
  8
0
  6
Continuous
 62
     7
100
AcDbDimension
  2
*D2
 10
-353.5952046844226
 20
153.7947536717584
 30
0.0
 11
-144.9172973632813
 21
220.2963714599609
 31
0.0
 70
     3
 71
     5
 42
-1.0
  3
DIMSTYLE2
100
AcDbDiametricDimension
 15
-181.1405130890149
 25
208.7527316798041
 35
0.0
 40
0.0
  0
ENDSEC
  0
SECTION
  2
OBJECTS
  0
DICTIONARY
  5
C
330
0
100
AcDbDictionary
281
     1
  3
ACAD_COLOR
350
1B
  3
ACAD_GROUP
350
D
  3
ACAD_LAYOUT
350
19
  3
ACAD_MATERIAL
350
1A
  3
ACAD_MLINESTYLE
350
16
  3
ACAD_PLOTSETTINGS
350
18
  3
ACAD_PLOTSTYLENAME
350
E
  3
ACAD_TABLESTYLE
350
1C
  3
AcDbVariableDictionary
350
1CD
  0
DICTIONARY
  5
1B
102
{ACAD_REACTORS
330
C
102
}
330
C
100
AcDbDictionary
281
     1
  0
DICTIONARY
  5
D
102
{ACAD_REACTORS
330
C
102
}
330
C
100
AcDbDictionary
281
     1
  0
DICTIONARY
  5
19
102
{ACAD_REACTORS
330
C
102
}
330
C
100
AcDbDictionary
281
     1
  3
Model
350
25
  3
レイアウト1
350
21
  0
DICTIONARY
  5
1A
102
{ACAD_REACTORS
330
C
102
}
330
C
100
AcDbDictionary
281
     1
  0
DICTIONARY
  5
16
102
{ACAD_REACTORS
330
C
102
}
330
C
100
AcDbDictionary
281
     1
  3
Standard
350
17
  0
DICTIONARY
  5
18
102
{ACAD_REACTORS
330
C
102
}
330
C
100
AcDbDictionary
281
     1
  0
ACDBDICTIONARYWDFLT
  5
E
102
{ACAD_REACTORS
330
C
102
}
330
C
100
AcDbDictionary
281
     1
  3
Normal
350
F
100
AcDbDictionaryWithDefault
340
F
  0
DICTIONARY
  5
1C
102
{ACAD_REACTORS
330
C
102
}
330
C
100
AcDbDictionary
281
     1
  3
Standard
350
1D
  0
DICTIONARY
  5
1CD
102
{ACAD_REACTORS
330
C
102
}
330
C
100
AcDbDictionary
281
     1
  3
CTABLESTYLE
350
1CE
  0
LAYOUT
  5
25
102
{ACAD_REACTORS
330
19
102
}
330
19
100
AcDbPlotSettings
  1

  2
PDF reDirect v2
  4
A3
  6

 40
3.174999952316284
 41
3.174999952316284
 42
3.17498779296875
 43
3.17498779296875
 44
297.0530090332031
 45
420.1583251953125
 46
0.0
 47
0.0
 48
0.0
 49
0.0
140
0.0
141
0.0
142
1.0
143
1.0
 70
 11952
 72
     1
 73
     1
 74
     2
  7
C:\Users\ck\AppData\Roaming\Autodesk\AutoCAD 2005\R16.1\jpn\Plot Styles\black.ctb
 75
    16
147
1.0
 76
     0
 77
     2
 78
   300
148
423.0
149
2.0
100
AcDbLayout
  1
Model
 70
     1
 71
     0
 10
0.0
 20
0.0
 11
12.0
 21
9.0
 12
0.0
 22
0.0
 32
0.0
 14
0.0
 24
0.0
 34
0.0
 15
0.0
 25
0.0
 35
0.0
146
0.0
 13
0.0
 23
0.0
 33
0.0
 16
1.0
 26
0.0
 36
0.0
 17
0.0
 27
1.0
 37
0.0
 76
     0
330
22
1001
ACAD_PSEXT
1000
PDF reDirect v2
1000
PDF reDirect Pro
1000
PDF_REDIRECT_PORT:
1000
PDF reDirect provided by EXP Systems
1070
     0
  0
LAYOUT
  5
21
102
{ACAD_REACTORS
330
19
102
}
330
19
100
AcDbPlotSettings
  1

  2
PDF reDirect v2
  4

  6

 40
0.0
 41
0.0
 42
0.0
 43
0.0
 44
0.0
 45
0.0
 46
0.0
 47
0.0
 48
0.0
 49
0.0
140
0.0
141
0.0
142
1.0
143
1.0
 70
   688
 72
     0
 73
     0
 74
     5
  7
C:\Users\ck\AppData\Roaming\Autodesk\AutoCAD 2005\R16.1\jpn\Plot Styles\black.ctb
 75
    16
147
1.0
 76
     0
 77
     2
 78
   300
148
0.0
149
0.0
100
AcDbLayout
  1
レイアウト1
 70
     1
 71
     1
 10
-423.0
 20
-2.0
 11
-5.0
 21
293.0
 12
0.0
 22
0.0
 32
0.0
 14
1.000000000000000E+20
 24
1.000000000000000E+20
 34
1.000000000000000E+20
 15
-1.000000000000000E+20
 25
-1.000000000000000E+20
 35
-1.000000000000000E+20
146
0.0
 13
0.0
 23
0.0
 33
0.0
 16
1.0
 26
0.0
 36
0.0
 17
0.0
 27
1.0
 37
0.0
 76
     0
330
1E
  0
MLINESTYLE
  5
17
102
{ACAD_REACTORS
330
16
102
}
330
16
100
AcDbMlineStyle
  2
STANDARD
 70
     0
  3

 62
   256
 51
90.0
 52
90.0
 71
     2
 49
0.5
 62
   256
  6
BYLAYER
 49
-0.5
 62
   256
  6
BYLAYER
  0
ACDBPLACEHOLDER
  5
F
102
{ACAD_REACTORS
330
E
102
}
330
E
  0
TABLESTYLE
  5
1D
102
{ACAD_REACTORS
330
1C
102
}
330
1C
100
AcDbTableStyle
  3
Standard
 70
     0
 71
     0
 40
0.06
 41
0.06
280
     0
281
     0
  7
STANDARD
140
0.18
170
     2
 62
     0
 63
     7
283
     0
274
    -2
284
     1
 64
     0
275
    -2
285
     1
 65
     0
276
    -2
286
     1
 66
     0
277
    -2
287
     1
 67
     0
278
    -2
288
     1
 68
     0
279
    -2
289
     1
 69
     0
  7
STANDARD
140
0.25
170
     5
 62
     0
 63
     7
283
     0
274
    -2
284
     1
 64
     0
275
    -2
285
     1
 65
     0
276
    -2
286
     1
 66
     0
277
    -2
287
     1
 67
     0
278
    -2
288
     1
 68
     0
279
    -2
289
     1
 69
     0
  7
STANDARD
140
0.18
170
     5
 62
     0
 63
     7
283
     0
274
    -2
284
     1
 64
     0
275
    -2
285
     1
 65
     0
276
    -2
286
     1
 66
     0
277
    -2
287
     1
 67
     0
278
    -2
288
     1
 68
     0
279
    -2
289
     1
 69
     0
  0
DICTIONARYVAR
  5
1CE
102
{ACAD_REACTORS
330
1CD
102
}
330
1CD
100
DictionaryVariables
280
     0
  1
STANDARD
  0
ENDSEC
  0
EOF
