  0
SECTION
  2
HEADER
  9
$ACADVER
  1
AC1018
  9
$ACADMAINTVER
 70
    39
  9
$DWGCODEPAGE
  3
ANSI_932
  9
$INSBASE
 10
0.0
 20
0.0
 30
0.0
  9
$EXTMIN
 10
-382.4156789111621
 20
35.84729076997291
 30
-0.0015258207003583
  9
$EXTMAX
 10
-183.7993461587457
 20
282.2958075591547
 30
0.0000000349246037
  9
$LIMMIN
 10
-423.0
 20
-2.0
  9
$LIMMAX
 10
-5.0
 20
293.0
  9
$ORTHOMODE
 70
     0
  9
$REGENMODE
 70
     1
  9
$FILLMODE
 70
     1
  9
$QTEXTMODE
 70
     0
  9
$MIRRTEXT
 70
     0
  9
$LTSCALE
 40
1.0
  9
$ATTMODE
 70
     1
  9
$TEXTSIZE
 40
0.2
  9
$TRACEWID
 40
0.05
  9
$TEXTSTYLE
  7
STANDARD
  9
$CLAYER
  8
0
  9
$CELTYPE
  6
CONTINUOUS
  9
$CECOLOR
 62
   256
  9
$CELTSCALE
 40
1.0
  9
$DISPSILH
 70
     0
  9
$DIMSCALE
 40
1.0
  9
$DIMASZ
 40
1.0
  9
$DIMEXO
 40
2.54
  9
$DIMDLI
 40
0.38
  9
$DIMRND
 40
0.0
  9
$DIMDLE
 40
0.0
  9
$DIMEXE
 40
2.54
  9
$DIMTP
 40
0.0
  9
$DIMTM
 40
0.0
  9
$DIMTXT
 40
3.0
  9
$DIMCEN
 40
0.09
  9
$DIMTSZ
 40
0.0
  9
$DIMTOL
 70
     0
  9
$DIMLIM
 70
     0
  9
$DIMTIH
 70
     0
  9
$DIMTOH
 70
     0
  9
$DIMSE1
 70
     0
  9
$DIMSE2
 70
     0
  9
$DIMTAD
 70
     1
  9
$DIMZIN
 70
     0
  9
$DIMBLK
  1

  9
$DIMASO
 70
     1
  9
$DIMSHO
 70
     0
  9
$DIMPOST
  1

  9
$DIMAPOST
  1

  9
$DIMALT
 70
     0
  9
$DIMALTD
 70
     2
  9
$DIMALTF
 40
25.4
  9
$DIMLFAC
 40
1.0
  9
$DIMTOFL
 70
     0
  9
$DIMTVP
 40
1.0
  9
$DIMTIX
 70
     0
  9
$DIMSOXD
 70
     0
  9
$DIMSAH
 70
     1
  9
$DIMBLK1
  1

  9
$DIMBLK2
  1

  9
$DIMSTYLE
  2
DIMSTYLE1
  9
$DIMCLRD
 70
     0
  9
$DIMCLRE
 70
     0
  9
$DIMCLRT
 70
     0
  9
$DIMTFAC
 40
1.0
  9
$DIMGAP
 40
1.5
  9
$DIMJUST
 70
     0
  9
$DIMSD1
 70
     0
  9
$DIMSD2
 70
     0
  9
$DIMTOLJ
 70
     1
  9
$DIMTZIN
 70
     0
  9
$DIMALTZ
 70
     0
  9
$DIMALTTZ
 70
     0
  9
$DIMUPT
 70
     0
  9
$DIMDEC
 70
     4
  9
$DIMTDEC
 70
     4
  9
$DIMALTU
 70
     2
  9
$DIMALTTD
 70
     2
  9
$DIMTXSTY
  7
STANDARD
  9
$DIMAUNIT
 70
     0
  9
$DIMADEC
 70
     0
  9
$DIMALTRND
 40
0.0
  9
$DIMAZIN
 70
     0
  9
$DIMDSEP
 70
    46
  9
$DIMATFIT
 70
     3
  9
$DIMFRAC
 70
     0
  9
$DIMLDRBLK
  1

  9
$DIMLUNIT
 70
     2
  9
$DIMLWD
 70
    -2
  9
$DIMLWE
 70
    -2
  9
$DIMTMOVE
 70
     0
  9
$LUNITS
 70
     2
  9
$LUPREC
 70
     4
  9
$SKETCHINC
 40
0.1
  9
$FILLETRAD
 40
0.0
  9
$AUNITS
 70
     0
  9
$AUPREC
 70
     0
  9
$MENU
  1
.
  9
$ELEVATION
 40
0.0
  9
$PELEVATION
 40
0.0
  9
$THICKNESS
 40
0.0
  9
$LIMCHECK
 70
     0
  9
$CHAMFERA
 40
0.0
  9
$CHAMFERB
 40
0.0
  9
$CHAMFERC
 40
0.0
  9
$CHAMFERD
 40
0.0
  9
$SKPOLY
 70
     0
  9
$TDCREATE
 40
2457843.784688125
  9
$TDUCREATE
 40
2457843.409688125
  9
$TDUPDATE
 40
2457843.785157026
  9
$TDUUPDATE
 40
2457843.410157026
  9
$TDINDWG
 40
0.0004702894
  9
$TDUSRTIMER
 40
0.0004702894
  9
$USRTIMER
 70
     1
  9
$ANGBASE
 50
0.0
  9
$ANGDIR
 70
     0
  9
$PDMODE
 70
     0
  9
$PDSIZE
 40
0.0
  9
$PLINEWID
 40
0.0
  9
$SPLFRAME
 70
     0
  9
$SPLINETYPE
 70
     6
  9
$SPLINESEGS
 70
     8
  9
$HANDSEED
  5
189
  9
$SURFTAB1
 70
     6
  9
$SURFTAB2
 70
     6
  9
$SURFTYPE
 70
     6
  9
$SURFU
 70
     6
  9
$SURFV
 70
     6
  9
$UCSBASE
  2

  9
$UCSNAME
  2

  9
$UCSORG
 10
0.0
 20
0.0
 30
0.0
  9
$UCSXDIR
 10
1.0
 20
0.0
 30
0.0
  9
$UCSYDIR
 10
0.0
 20
1.0
 30
0.0
  9
$UCSORTHOREF
  2

  9
$UCSORTHOVIEW
 70
     0
  9
$UCSORGTOP
 10
0.0
 20
0.0
 30
0.0
  9
$UCSORGBOTTOM
 10
0.0
 20
0.0
 30
0.0
  9
$UCSORGLEFT
 10
0.0
 20
0.0
 30
0.0
  9
$UCSORGRIGHT
 10
0.0
 20
0.0
 30
0.0
  9
$UCSORGFRONT
 10
0.0
 20
0.0
 30
0.0
  9
$UCSORGBACK
 10
0.0
 20
0.0
 30
0.0
  9
$PUCSBASE
  2

  9
$PUCSNAME
  2

  9
$PUCSORG
 10
0.0
 20
0.0
 30
0.0
  9
$PUCSXDIR
 10
1.0
 20
0.0
 30
0.0
  9
$PUCSYDIR
 10
0.0
 20
1.0
 30
0.0
  9
$PUCSORTHOREF
  2

  9
$PUCSORTHOVIEW
 70
     0
  9
$PUCSORGTOP
 10
0.0
 20
0.0
 30
0.0
  9
$PUCSORGBOTTOM
 10
0.0
 20
0.0
 30
0.0
  9
$PUCSORGLEFT
 10
0.0
 20
0.0
 30
0.0
  9
$PUCSORGRIGHT
 10
0.0
 20
0.0
 30
0.0
  9
$PUCSORGFRONT
 10
0.0
 20
0.0
 30
0.0
  9
$PUCSORGBACK
 10
0.0
 20
0.0
 30
0.0
  9
$USERI1
 70
     0
  9
$USERI2
 70
     0
  9
$USERI3
 70
     0
  9
$USERI4
 70
     0
  9
$USERI5
 70
     0
  9
$USERR1
 40
0.0
  9
$USERR2
 40
0.0
  9
$USERR3
 40
0.0
  9
$USERR4
 40
0.0
  9
$USERR5
 40
0.0
  9
$WORLDVIEW
 70
     1
  9
$SHADEDGE
 70
     3
  9
$SHADEDIF
 70
    70
  9
$TILEMODE
 70
     1
  9
$MAXACTVP
 70
    64
  9
$PINSBASE
 10
0.0
 20
0.0
 30
0.0
  9
$PLIMCHECK
 70
     0
  9
$PEXTMIN
 10
1.000000000000000E+20
 20
1.000000000000000E+20
 30
1.000000000000000E+20
  9
$PEXTMAX
 10
-1.000000000000000E+20
 20
-1.000000000000000E+20
 30
-1.000000000000000E+20
  9
$PLIMMIN
 10
-423.0
 20
-2.0
  9
$PLIMMAX
 10
-5.0
 20
293.0
  9
$UNITMODE
 70
     0
  9
$VISRETAIN
 70
     1
  9
$PLINEGEN
 70
     0
  9
$PSLTSCALE
 70
     1
  9
$TREEDEPTH
 70
  3020
  9
$CMLSTYLE
  2
Standard
  9
$CMLJUST
 70
     0
  9
$CMLSCALE
 40
1.0
  9
$PROXYGRAPHICS
 70
     1
  9
$MEASUREMENT
 70
     0
  9
$CELWEIGHT
370
    -1
  9
$ENDCAPS
280
     0
  9
$JOINSTYLE
280
     0
  9
$LWDISPLAY
290
     0
  9
$INSUNITS
 70
     0
  9
$HYPERLINKBASE
  1

  9
$STYLESHEET
  1

  9
$XEDIT
290
     1
  9
$CEPSNTYPE
380
     0
  9
$PSTYLEMODE
290
     1
  9
$FINGERPRINTGUID
  2
{A98563B1-83A8-4936-B806-081FD8241F6B}
  9
$VERSIONGUID
  2
{1DEAECB6-DAD3-45CF-A9EB-83261946D2C0}
  9
$EXTNAMES
290
     1
  9
$PSVPSCALE
 40
0.0
  9
$OLESTARTUP
290
     0
  9
$SORTENTS
280
   127
  9
$INDEXCTL
280
     0
  9
$HIDETEXT
280
     0
  9
$XCLIPFRAME
290
     0
  9
$HALOGAP
280
     0
  9
$OBSCOLOR
 70
   257
  9
$OBSLTYPE
280
     0
  9
$INTERSECTIONDISPLAY
280
     0
  9
$INTERSECTIONCOLOR
 70
   257
  9
$DIMASSOC
280
     1
  9
$PROJECTNAME
  1

  0
ENDSEC
  0
SECTION
  2
CLASSES
  0
CLASS
  1
ACDBDICTIONARYWDFLT
  2
AcDbDictionaryWithDefault
  3
ObjectDBX Classes
 90
        0
 91
        1
280
     0
281
     0
  0
CLASS
  1
TABLESTYLE
  2
AcDbTableStyle
  3
ObjectDBX Classes
 90
     2047
 91
        1
280
     0
281
     0
  0
CLASS
  1
DICTIONARYVAR
  2
AcDbDictionaryVar
  3
ObjectDBX Classes
 90
        0
 91
        1
280
     0
281
     0
  0
ENDSEC
  0
SECTION
  2
TABLES
  0
TABLE
  2
VPORT
  5
8
330
0
100
AcDbSymbolTable
 70
     2
  0
VPORT
  5
188
330
8
100
AcDbSymbolTableRecord
100
AcDbViewportTableRecord
  2
*Active
 70
     0
 10
0.0
 20
0.0
 11
1.0
 21
1.0
 12
-282.7248221048209
 22
159.3528830882312
 13
0.0
 23
0.0
 14
1.0
 24
1.0
 15
0.0
 25
0.0
 16
0.0
 26
0.0
 36
1.0
 17
0.0
 27
0.0
 37
0.0
 40
247.7185384991776
 41
1.639303482587064
 42
50.0
 43
0.0
 44
0.0
 50
0.0
 51
0.0
 71
     0
 72
   100
 73
     1
 74
     1
 75
     0
 76
     0
 77
     0
 78
     0
281
     0
 65
     1
110
0.0
120
0.0
130
0.0
111
1.0
121
0.0
131
0.0
112
0.0
122
1.0
132
0.0
 79
     0
146
0.0
  0
ENDTAB
  0
TABLE
  2
LTYPE
  5
5
330
0
100
AcDbSymbolTable
 70
     6
  0
LTYPE
  5
13
330
5
100
AcDbSymbolTableRecord
100
AcDbLinetypeTableRecord
  2
ByBlock
 70
     0
  3

 72
    65
 73
     0
 40
0.0
  0
LTYPE
  5
14
330
5
100
AcDbSymbolTableRecord
100
AcDbLinetypeTableRecord
  2
ByLayer
 70
     0
  3

 72
    65
 73
     0
 40
0.0
  0
LTYPE
  5
15
330
5
100
AcDbSymbolTableRecord
100
AcDbLinetypeTableRecord
  2
CONTINUOUS
 70
     0
  3
Solid line
 72
    65
 73
     0
 40
0.0
  0
LTYPE
  5
26
330
5
100
AcDbSymbolTableRecord
100
AcDbLinetypeTableRecord
  2
DASHED
 70
     0
  3
__ __ __ __ __ __ __ __ __ __ __ __ __ __ __
 72
    65
 73
     2
 40
3.5
 49
2.0
 74
     0
 49
-1.5
 74
     0
  0
LTYPE
  5
27
330
5
100
AcDbSymbolTableRecord
100
AcDbLinetypeTableRecord
  2
CENTER
 70
     0
  3
____ _ ____ _ ____ _ ____ _ ____ _ ____ _ ____
 72
    65
 73
     4
 40
17.5
 49
13.0
 74
     0
 49
-1.5
 74
     0
 49
1.5
 74
     0
 49
-1.5
 74
     0
  0
LTYPE
  5
28
330
5
100
AcDbSymbolTableRecord
100
AcDbLinetypeTableRecord
  2
PHANTOM
 70
     0
  3
_____ _ _ _____ _ _ _____ _ _ _____ _ _ ____  
 72
    65
 73
     6
 40
15.5
 49
8.0
 74
     0
 49
-1.5
 74
     0
 49
1.5
 74
     0
 49
-1.5
 74
     0
 49
1.5
 74
     0
 49
-1.5
 74
     0
  0
LTYPE
  5
29
330
5
100
AcDbSymbolTableRecord
100
AcDbLinetypeTableRecord
  2
DOT
 70
     0
  3
. . . . . . . . . . . . . . . . . . . . . . . .
 72
    65
 73
     2
 40
0.25
 49
0.0
 74
     0
 49
-0.25
 74
     0
  0
LTYPE
  5
2A
330
5
100
AcDbSymbolTableRecord
100
AcDbLinetypeTableRecord
  2
HIDDEN
 70
     0
  3
__ __ __ __ __ __ __ __ __ __ __ __ __ __ __
 72
    65
 73
     2
 40
3.5
 49
2.0
 74
     0
 49
-1.5
 74
     0
  0
ENDTAB
  0
TABLE
  2
LAYER
  5
2
330
0
100
AcDbSymbolTable
 70
     3
  0
LAYER
  5
10
330
2
100
AcDbSymbolTableRecord
100
AcDbLayerTableRecord
  2
0
 70
     0
 62
     7
  6
CONTINUOUS
370
    -3
390
F
  0
LAYER
  5
2B
330
2
100
AcDbSymbolTableRecord
100
AcDbLayerTableRecord
  2
1
 70
     0
 62
     7
  6
CONTINUOUS
370
    -3
390
F
  0
LAYER
  5
2C
330
2
100
AcDbSymbolTableRecord
100
AcDbLayerTableRecord
  2
DEFPOINTS
 70
     0
 62
     7
  6
CONTINUOUS
290
     0
370
    -3
390
F
  0
ENDTAB
  0
TABLE
  2
STYLE
  5
3
330
0
100
AcDbSymbolTable
 70
     2
  0
STYLE
  5
11
330
3
100
AcDbSymbolTableRecord
100
AcDbTextStyleTableRecord
  2
STANDARD
 70
     0
 40
0.0
 41
1.0
 50
0.0
 71
     0
 42
0.2
  3

  4

1001
ACAD
1000
MS Gothic
1071
    32817
  0
ENDTAB
  0
TABLE
  2
VIEW
  5
6
330
0
100
AcDbSymbolTable
 70
     0
  0
ENDTAB
  0
TABLE
  2
UCS
  5
7
330
0
100
AcDbSymbolTable
 70
     0
  0
ENDTAB
  0
TABLE
  2
APPID
  5
9
330
0
100
AcDbSymbolTable
 70
     2
  0
APPID
  5
12
330
9
100
AcDbSymbolTableRecord
100
AcDbRegAppTableRecord
  2
ACAD
 70
     0
  0
APPID
  5
17D
330
9
100
AcDbSymbolTableRecord
100
AcDbRegAppTableRecord
  2
ACAD_PSEXT
 70
     0
  0
ENDTAB
  0
TABLE
  2
DIMSTYLE
  5
A
330
0
100
AcDbSymbolTable
 70
     5
100
AcDbDimStyleTable
 71
     1
340
2D
  0
DIMSTYLE
105
2D
102
{ACAD_REACTORS
330
176
102
}
330
A
100
AcDbSymbolTableRecord
100
AcDbDimStyleTableRecord
  2
DIMSTYLE1
 70
     0
 41
1.0
 42
2.54
 44
2.54
 73
     0
 74
     0
 75
     1
 76
     1
 77
     1
140
3.0
145
1.0
147
1.5
172
     1
173
     1
279
     2
340
11
  0
DIMSTYLE
105
2E
102
{ACAD_REACTORS
330
177
102
}
330
A
100
AcDbSymbolTableRecord
100
AcDbDimStyleTableRecord
  2
DIMSTYLE2
 70
     0
 41
1.0
 42
2.54
 44
2.54
 73
     0
 74
     0
 75
     1
 76
     1
 77
     1
140
3.0
145
1.0
147
1.5
172
     1
173
     1
279
     2
340
11
  0
DIMSTYLE
105
2F
102
{ACAD_REACTORS
330
178
102
}
330
A
100
AcDbSymbolTableRecord
100
AcDbDimStyleTableRecord
  2
DIMSTYLE3
 70
     0
 41
1.0
 42
2.54
 44
2.54
 73
     0
 74
     0
 75
     1
 76
     1
 77
     1
140
3.0
145
1.0
147
1.5
172
     1
173
     1
279
     2
340
11
  0
DIMSTYLE
105
30
102
{ACAD_REACTORS
330
179
102
}
330
A
100
AcDbSymbolTableRecord
100
AcDbDimStyleTableRecord
  2
DIMSTYLE4
 70
     0
 41
1.0
 42
2.54
 44
2.54
 73
     0
 74
     0
 77
     1
140
3.0
145
1.0
147
1.5
172
     1
173
     1
279
     2
340
11
  0
ENDTAB
  0
TABLE
  2
BLOCK_RECORD
  5
1
330
0
100
AcDbSymbolTable
 70
     7
  0
BLOCK_RECORD
  5
22
330
1
100
AcDbSymbolTableRecord
100
AcDbBlockTableRecord
  2
*Model_Space
340
25
  0
BLOCK_RECORD
  5
1E
330
1
100
AcDbSymbolTableRecord
100
AcDbBlockTableRecord
  2
*Paper_Space
340
21
  0
BLOCK_RECORD
  5
34
330
1
100
AcDbSymbolTableRecord
100
AcDbBlockTableRecord
  2
_OPEN30
340
0
102
{BLKREFS
331
3E
331
3F
331
48
331
49
331
52
331
53
331
5B
331
5C
102
}
  0
BLOCK_RECORD
  5
3A
330
1
100
AcDbSymbolTableRecord
100
AcDbBlockTableRecord
  2
*D1
340
0
  0
BLOCK_RECORD
  5
44
330
1
100
AcDbSymbolTableRecord
100
AcDbBlockTableRecord
  2
*D2
340
0
  0
BLOCK_RECORD
  5
4E
330
1
100
AcDbSymbolTableRecord
100
AcDbBlockTableRecord
  2
*D3
340
0
  0
BLOCK_RECORD
  5
58
330
1
100
AcDbSymbolTableRecord
100
AcDbBlockTableRecord
  2
*D4
340
0
  0
BLOCK_RECORD
  5
64
330
1
100
AcDbSymbolTableRecord
100
AcDbBlockTableRecord
  2
KOZU0001
340
0
102
{BLKREFS
331
17A
102
}
  0
ENDTAB
  0
ENDSEC
  0
SECTION
  2
BLOCKS
  0
BLOCK
  5
23
330
22
100
AcDbEntity
  8
0
100
AcDbBlockBegin
  2
*Model_Space
 70
     0
 10
0.0
 20
0.0
 30
0.0
  3
*Model_Space
  1

  0
ENDBLK
  5
24
330
22
100
AcDbEntity
  8
0
100
AcDbBlockEnd
  0
BLOCK
  5
1F
330
1E
100
AcDbEntity
 67
     1
  8
0
100
AcDbBlockBegin
  2
*Paper_Space
 70
     0
 10
0.0
 20
0.0
 30
0.0
  3
*Paper_Space
  1

  0
ENDBLK
  5
20
330
1E
100
AcDbEntity
 67
     1
  8
0
100
AcDbBlockEnd
  0
BLOCK
  5
35
330
34
100
AcDbEntity
  8
0
100
AcDbBlockBegin
  2
_OPEN30
 70
     0
 10
0.0
 20
0.0
 30
0.0
  3
_OPEN30
  1

  0
LINE
  5
36
330
34
100
AcDbEntity
  8
0
  6
ByBlock
 62
     0
100
AcDbLine
 10
0.0
 20
0.0
 30
0.0
 11
-2.999999999999993
 21
-1.000000000000017
 31
0.0
  0
LINE
  5
37
330
34
100
AcDbEntity
  8
0
  6
ByBlock
 62
     0
100
AcDbLine
 10
0.0
 20
0.0
 30
0.0
 11
-3.000000000000006
 21
0.9999999999999815
 31
0.0
  0
LINE
  5
38
330
34
100
AcDbEntity
  8
0
  6
ByBlock
 62
     0
100
AcDbLine
 10
0.0
 20
0.0
 30
0.0
 11
-3.0
 21
0.0
 31
0.0
  0
ENDBLK
  5
39
330
34
100
AcDbEntity
  8
0
100
AcDbBlockEnd
  0
BLOCK
  5
3B
330
3A
100
AcDbEntity
  8
0
100
AcDbBlockBegin
  2
*D1
 70
     1
 10
0.0
 20
0.0
 30
0.0
  3
*D1
  1

  0
LINE
  5
3C
330
3A
100
AcDbEntity
  8
0
  6
Continuous
 62
     7
100
AcDbLine
 10
-244.5951538085938
 20
211.1436614990234
 30
0.0
 11
-190.7042388916016
 21
185.777099609375
 31
0.0
  0
LINE
  5
3D
330
3A
100
AcDbEntity
  8
0
  6
Continuous
 62
     7
100
AcDbLine
 10
-276.2624085688336
 20
226.0495043354314
 30
0.0
 11
-247.3094908452289
 21
212.4213056010921
 31
0.0
  0
INSERT
  5
3E
330
3A
100
AcDbEntity
  8
0
  6
Continuous
 62
     7
100
AcDbBlockReference
  2
_OPEN30
 10
-278.9767456054688
 20
227.3271484375
 30
0.0
 50
154.793536148966
  0
INSERT
  5
3F
330
3A
100
AcDbEntity
  8
0
  6
Continuous
 62
     7
100
AcDbBlockReference
  2
_OPEN30
 10
-244.5951538085938
 20
211.1436614990234
 30
0.0
 50
334.7935361489667
  0
TEXT
  5
40
330
3A
100
AcDbEntity
  8
0
  6
Continuous
 62
     7
100
AcDbText
 10
-197.7500152806302
 20
189.9219790918984
 30
0.0
 40
3.0
  1
%%C38
 50
334.7999999817651
 41
0.9498249830693319
100
AcDbText
  0
POINT
  5
41
330
3A
100
AcDbEntity
  8
DEFPOINTS
  6
Continuous
 62
     7
100
AcDbPoint
 10
-278.9767456054688
 20
227.3271484375
 30
0.0
  0
POINT
  5
42
330
3A
100
AcDbEntity
  8
DEFPOINTS
  6
Continuous
 62
     7
100
AcDbPoint
 10
-244.5951538085938
 20
211.1436614990234
 30
0.0
  0
ENDBLK
  5
43
330
3A
100
AcDbEntity
  8
0
100
AcDbBlockEnd
  0
BLOCK
  5
45
330
44
100
AcDbEntity
  8
0
100
AcDbBlockBegin
  2
*D2
 70
     1
 10
0.0
 20
0.0
 30
0.0
  3
*D2
  1

  0
LINE
  5
46
330
44
100
AcDbEntity
  8
0
  6
Continuous
 62
     7
100
AcDbLine
 10
-209.8681030273438
 20
249.3110656738281
 30
0.0
 11
-188.95751953125
 21
261.4244079589844
 31
0.0
  0
LINE
  5
47
330
44
100
AcDbEntity
  8
0
  6
Continuous
 62
     7
100
AcDbLine
 10
-311.10790699861
 20
190.6635255914476
 30
0.0
 11
-212.4639924154525
 21
247.8072843450757
 31
0.0
  0
INSERT
  5
48
330
44
100
AcDbEntity
  8
0
  6
Continuous
 62
     7
100
AcDbBlockReference
  2
_OPEN30
 10
-313.7037963867188
 20
189.1597442626953
 30
0.0
 50
210.0834253273482
  0
INSERT
  5
49
330
44
100
AcDbEntity
  8
0
  6
Continuous
 62
     7
100
AcDbBlockReference
  2
_OPEN30
 10
-209.8681030273438
 20
249.3110656738281
 30
0.0
 50
30.08342532734753
  0
TEXT
  5
4A
330
44
100
AcDbEntity
  8
0
  6
Continuous
 62
     7
100
AcDbText
 10
-198.9722482840333
 20
256.4878337491755
 30
0.0
 40
3.0
  1
%%C120
 50
30.10000163446421
 41
1.088244881625285
100
AcDbText
  0
POINT
  5
4B
330
44
100
AcDbEntity
  8
DEFPOINTS
  6
Continuous
 62
     7
100
AcDbPoint
 10
-313.7037963867188
 20
189.1597442626953
 30
0.0
  0
POINT
  5
4C
330
44
100
AcDbEntity
  8
DEFPOINTS
  6
Continuous
 62
     7
100
AcDbPoint
 10
-209.8681030273438
 20
249.3110656738281
 30
0.0
  0
ENDBLK
  5
4D
330
44
100
AcDbEntity
  8
0
100
AcDbBlockEnd
  0
BLOCK
  5
4F
330
4E
100
AcDbEntity
  8
0
100
AcDbBlockBegin
  2
*D3
 70
     1
 10
0.0
 20
0.0
 30
0.0
  3
*D3
  1

  0
LINE
  5
50
330
4E
100
AcDbEntity
  8
0
  6
Continuous
 62
     7
100
AcDbLine
 10
-221.7952423095703
 20
228.2765960693359
 30
0.0
 11
-183.8238067626953
 21
236.8612518310547
 31
0.0
  0
LINE
  5
51
330
4E
100
AcDbEntity
  8
0
  6
Continuous
 62
     7
100
AcDbLine
 10
-298.8505227329978
 20
210.8557790796399
 30
0.0
 11
-224.7213919398538
 21
227.6150461156726
 31
0.0
  0
INSERT
  5
52
330
4E
100
AcDbEntity
  8
0
  6
Continuous
 62
     7
100
AcDbBlockReference
  2
_OPEN30
 10
-301.7766723632813
 20
210.1942291259766
 30
0.0
 50
192.7393802089802
  0
INSERT
  5
53
330
4E
100
AcDbEntity
  8
0
  6
Continuous
 62
     7
100
AcDbBlockReference
  2
_OPEN30
 10
-221.7952423095703
 20
228.2765960693359
 30
0.0
 50
12.73938020897945
  0
TEXT
  5
54
330
4E
100
AcDbEntity
  8
0
  6
Continuous
 62
     7
100
AcDbText
 10
-191.9289200338546
 20
235.8006219389409
 30
0.0
 40
3.0
  1
%%C82
 50
12.699999954982
 41
0.9498249830693319
100
AcDbText
  0
POINT
  5
55
330
4E
100
AcDbEntity
  8
DEFPOINTS
  6
Continuous
 62
     7
100
AcDbPoint
 10
-301.7766723632813
 20
210.1942291259766
 30
0.0
  0
POINT
  5
56
330
4E
100
AcDbEntity
  8
DEFPOINTS
  6
Continuous
 62
     7
100
AcDbPoint
 10
-221.7952423095703
 20
228.2765960693359
 30
0.0
  0
ENDBLK
  5
57
330
4E
100
AcDbEntity
  8
0
100
AcDbBlockEnd
  0
BLOCK
  5
59
330
58
100
AcDbEntity
  8
0
100
AcDbBlockBegin
  2
*D4
 70
     1
 10
0.0
 20
0.0
 30
0.0
  3
*D4
  1

  0
LINE
  5
5A
330
58
100
AcDbEntity
  8
0
  6
Continuous
 62
     7
100
AcDbLine
 10
-354.9178771972656
 20
65.1358871459961
 30
0.0
 11
-354.9178771972656
 21
116.1358871459961
 31
0.0
  0
INSERT
  5
5B
330
58
100
AcDbEntity
  8
0
  6
Continuous
 62
     7
100
AcDbBlockReference
  2
_OPEN30
 10
-354.9178771972656
 20
62.13588714599609
 30
0.0
 50
270.0000000000005
  0
INSERT
  5
5C
330
58
100
AcDbEntity
  8
0
  6
Continuous
 62
     7
100
AcDbBlockReference
  2
_OPEN30
 10
-354.9178771972656
 20
119.1358871459961
 30
0.0
 50
90.00000000000019
  0
LINE
  5
5D
330
58
100
AcDbEntity
  8
0
  6
Continuous
 62
     7
100
AcDbLine
 10
-320.8259497070313
 20
62.13588714599607
 30
0.0
 11
-357.2038879394531
 21
62.13588714599609
 31
0.0
  0
LINE
  5
5E
330
58
100
AcDbEntity
  8
0
  6
Continuous
 62
     7
100
AcDbLine
 10
-323.8259497070313
 20
119.1358871459961
 30
0.0
 11
-357.2038879394531
 21
119.1358871459961
 31
0.0
  0
TEXT
  5
5F
330
58
100
AcDbEntity
  8
0
  6
Continuous
 62
     7
100
AcDbText
 10
-355.6678770849273
 20
88.06588700115581
 30
0.0
 40
3.0
  1
57
 50
90.00000250447815
 41
1.028000020980834
100
AcDbText
  0
POINT
  5
60
330
58
100
AcDbEntity
  8
DEFPOINTS
  6
Continuous
 62
     7
100
AcDbPoint
 10
-318.2859497070313
 20
62.13588714599609
 30
0.0
  0
POINT
  5
61
330
58
100
AcDbEntity
  8
DEFPOINTS
  6
Continuous
 62
     7
100
AcDbPoint
 10
-321.2859497070313
 20
119.1358871459961
 30
0.0
  0
POINT
  5
62
330
58
100
AcDbEntity
  8
DEFPOINTS
  6
Continuous
 62
     7
100
AcDbPoint
 10
-354.9178771972656
 20
119.1358871459961
 30
0.0
  0
ENDBLK
  5
63
330
58
100
AcDbEntity
  8
0
100
AcDbBlockEnd
  0
BLOCK
  5
65
330
64
100
AcDbEntity
  8
0
100
AcDbBlockBegin
  2
KOZU0001
 70
     0
 10
0.0
 20
0.0
 30
0.0
  3
KOZU0001
  1

  0
LINE
  5
66
330
64
100
AcDbEntity
  8
0
  6
Continuous
 62
     7
100
AcDbLine
 10
0.0
 20
0.0
 30
0.0
 11
-14.97077941894531
 21
-34.3084602355957
 31
0.0
  0
LINE
  5
67
330
64
100
AcDbEntity
  8
0
  6
Continuous
 62
     7
100
AcDbLine
 10
-14.97077941894531
 20
-34.3084602355957
 30
0.0
 11
-42.06517028808593
 21
-34.3084602355957
 31
0.0
  0
LINE
  5
68
330
64
100
AcDbEntity
  8
0
  6
Continuous
 62
     7
100
AcDbLine
 10
0.0
 20
0.0
 30
0.0
 11
-0.2832797193012399
 21
-3.149563874671001
 31
0.0
  0
LINE
  5
69
330
64
100
AcDbEntity
  8
0
  6
Continuous
 62
     7
100
AcDbLine
 10
0.0
 20
0.0
 30
0.0
 11
-2.116362100243593
 21
-2.349683268156057
 31
0.0
  0
TEXT
  5
6A
330
64
100
AcDbEntity
  8
0
  6
Continuous
 62
     7
100
AcDbText
 10
-40.34516990184784
 20
-33.5584602355957
 30
0.0
 40
3.0
  1
配管接続口
 41
0.8487395020950888
100
AcDbText
  0
TEXT
  5
6B
330
64
100
AcDbEntity
  8
0
  6
Continuous
 62
     7
100
AcDbText
 10
-40.34516990184784
 20
-38.8234602355957
 30
0.0
 40
3.0
  1
Ｒｃ３（８０Ａ）
 41
0.8454512278006642
100
AcDbText
  0
ENDBLK
  5
6C
330
64
100
AcDbEntity
  8
0
100
AcDbBlockEnd
  0
ENDSEC
  0
SECTION
  2
ENTITIES
  0
LINE
  5
6D
330
22
100
AcDbEntity
  8
0
  6
CENTER
 62
     7
100
AcDbLine
 10
-261.7859497070313
 20
282.294921875
 30
0.0
 11
-261.7859497070313
 21
155.4352569580078
 31
0.0
  0
LINE
  5
6E
330
22
100
AcDbEntity
  8
0
  6
Continuous
 62
     7
100
AcDbLine
 10
-269.2856750488281
 20
222.2999420166016
 30
0.0
 11
-265.2868957519531
 21
222.7056884765625
 31
0.0
  0
LINE
  5
6F
330
22
100
AcDbEntity
  8
0
  6
Continuous
 62
     7
100
AcDbLine
 10
-269.1007995605469
 20
216.2933349609375
 30
0.0
 11
-265.7859497070313
 21
216.1358947753906
 31
0.0
  0
LINE
  5
70
330
22
100
AcDbEntity
  8
0
  6
Continuous
 62
     7
100
AcDbLine
 10
-258.040771484375
 20
222.4485321044922
 30
0.0
 11
-254.3926391601563
 21
222.3405456542969
 31
0.0
  0
LINE
  5
71
330
22
100
AcDbEntity
  8
0
  6
Continuous
 62
     7
100
AcDbLine
 10
-255.2859497070314
 20
216.1358947753906
 30
0.0
 11
-257.7859497070313
 21
216.1358947753906
 31
0.0
  0
LINE
  5
72
330
22
100
AcDbEntity
  8
0
  6
CENTER
 62
     7
100
AcDbLine
 10
-326.2975463867188
 20
219.1358947753906
 30
0.0
 11
-195.8407440185547
 21
219.1358947753906
 31
0.0
  0
LINE
  5
73
330
22
100
AcDbEntity
  8
0
  6
Continuous
 62
     7
100
AcDbLine
 10
-223.7859497070314
 20
116.1358871459961
 30
0.0
 11
-223.7859497070314
 21
112.9358901977539
 31
0.0
  0
LINE
  5
74
330
22
100
AcDbEntity
  8
0
  6
Continuous
 62
     7
100
AcDbLine
 10
-221.0984191894531
 20
116.1358871459961
 30
0.0
 11
-223.7859497070314
 21
116.1358871459961
 31
0.0
  0
LINE
  5
75
330
22
100
AcDbEntity
  8
0
  6
Continuous
 62
     7
100
AcDbLine
 10
-220.8359527587891
 20
119.1358871459961
 30
0.0
 11
-221.0984191894531
 21
116.1358871459961
 31
0.0
  0
LINE
  5
76
330
22
100
AcDbEntity
  8
0
  6
Continuous
 62
     7
100
AcDbLine
 10
-243.2859497070313
 20
117.1358871459961
 30
0.0
 11
-243.4609375
 21
115.1358871459961
 31
0.0
  0
LINE
  5
77
330
22
100
AcDbEntity
  8
0
  6
Continuous
 62
     7
100
AcDbLine
 10
-243.4609375
 20
115.1358871459961
 30
0.0
 11
-246.3609313964844
 21
115.1358871459961
 31
0.0
  0
LINE
  5
78
330
22
100
AcDbEntity
  8
0
  6
Continuous
 62
     7
100
AcDbLine
 10
-219.3616790771484
 20
63.63588714599609
 30
0.0
 11
-217.8439483642578
 21
62.13588714599609
 31
0.0
  0
LINE
  5
79
330
22
100
AcDbEntity
  8
0
  6
Continuous
 62
     7
100
AcDbLine
 10
-219.3229522705078
 20
94.13588714599608
 30
0.0
 11
-220.1104431152344
 21
92.63588714599608
 31
0.0
  0
LINE
  5
7A
330
22
100
AcDbEntity
  8
0
  6
Continuous
 62
     7
100
AcDbLine
 10
-220.1104431152344
 20
92.63588714599608
 30
0.0
 11
-219.3229522705078
 21
63.63588714599609
 31
0.0
  0
LINE
  5
7B
330
22
100
AcDbEntity
  8
0
  6
Continuous
 62
     7
100
AcDbLine
 10
-218.840087890625
 20
94.13588714599608
 30
0.0
 11
-217.8439483642578
 21
62.13588714599609
 31
0.0
  0
LINE
  5
7C
330
22
100
AcDbEntity
  8
0
  6
Continuous
 62
     7
100
AcDbLine
 10
-226.2859497070313
 20
104.1358871459961
 30
0.0
 11
-226.2859497070313
 21
94.13588714599608
 31
0.0
  0
LINE
  5
7D
330
22
100
AcDbEntity
  8
0
  6
Continuous
 62
     7
100
AcDbLine
 10
-222.1482849121094
 20
104.1358871459961
 30
0.0
 11
-246.3609313964844
 21
104.1358871459961
 31
0.0
  0
LINE
  5
7E
330
22
100
AcDbEntity
  8
0
  6
Continuous
 62
     7
100
AcDbLine
 10
-241.2859497070313
 20
119.1358871459961
 30
0.0
 11
-241.2859497070313
 21
117.1358871459961
 31
0.0
  0
LINE
  5
7F
330
22
100
AcDbEntity
  8
0
  6
Continuous
 62
     7
100
AcDbLine
 10
-241.2859497070313
 20
117.1358871459961
 30
0.0
 11
-243.2859497070313
 21
117.1358871459961
 31
0.0
  0
LINE
  5
80
330
22
100
AcDbEntity
  8
0
  6
Continuous
 62
     7
100
AcDbLine
 10
-246.3609313964844
 20
111.6358871459961
 30
0.0
 11
-243.7671356201172
 21
111.6358871459961
 31
0.0
  0
LINE
  5
81
330
22
100
AcDbEntity
  8
0
  6
Continuous
 62
     7
100
AcDbLine
 10
-243.7671356201172
 20
111.6358871459961
 30
0.0
 11
-244.1608428955078
 21
107.1358871459961
 31
0.0
  0
LINE
  5
82
330
22
100
AcDbEntity
  8
0
  6
Continuous
 62
     7
100
AcDbLine
 10
-244.1608428955078
 20
107.1358871459961
 30
0.0
 11
-244.3609313964844
 21
107.1358871459961
 31
0.0
  0
LINE
  5
83
330
22
100
AcDbEntity
  8
0
  6
Continuous
 62
     7
100
AcDbLine
 10
-246.3609313964844
 20
105.1358871459961
 30
0.0
 11
-246.3609313964844
 21
84.1358871459961
 31
0.0
  0
LINE
  5
84
330
22
100
AcDbEntity
  8
0
  6
Continuous
 62
     7
100
AcDbLine
 10
-246.3609313964844
 20
115.1358871459961
 30
0.0
 11
-246.3609313964844
 21
111.6358871459961
 31
0.0
  0
LINE
  5
85
330
22
100
AcDbEntity
  8
0
  6
Continuous
 62
     7
100
AcDbLine
 10
-240.2388916015625
 20
85.17996978759766
 30
0.0
 11
-240.2388916015625
 21
81.17996978759766
 31
0.0
  0
LINE
  5
86
330
22
100
AcDbEntity
  8
0
  6
Continuous
 62
     7
100
AcDbLine
 10
-203.3306884765625
 20
119.1358871459961
 30
0.0
 11
-201.7859497070313
 21
117.5911560058594
 31
0.0
  0
LINE
  5
87
330
22
100
AcDbEntity
  8
0
  6
Continuous
 62
     7
100
AcDbLine
 10
-204.0377960205078
 20
119.1358871459961
 30
0.0
 11
-201.7859497070313
 21
116.8840484619141
 31
0.0
  0
LINE
  5
88
330
22
100
AcDbEntity
  8
0
  6
Continuous
 62
     7
100
AcDbLine
 10
-206.1591186523438
 20
119.1358871459961
 30
0.0
 11
-201.7859497070313
 21
114.7627334594727
 31
0.0
  0
LINE
  5
89
330
22
100
AcDbEntity
  8
0
  6
Continuous
 62
     7
100
AcDbLine
 10
-206.8662261962891
 20
119.1358871459961
 30
0.0
 11
-201.7859497070313
 21
114.0556259155273
 31
0.0
  0
LINE
  5
8A
330
22
100
AcDbEntity
  8
0
  6
Continuous
 62
     7
100
AcDbLine
 10
-208.9875335693359
 20
119.1358871459961
 30
0.0
 11
-201.7859497070313
 21
111.9343032836914
 31
0.0
  0
LINE
  5
8B
330
22
100
AcDbEntity
  8
0
  6
Continuous
 62
     7
100
AcDbLine
 10
-209.6946411132813
 20
119.1358871459961
 30
0.0
 11
-201.7859497070313
 21
111.2271957397461
 31
0.0
  0
LINE
  5
8C
330
22
100
AcDbEntity
  8
0
  6
Continuous
 62
     7
100
AcDbLine
 10
-211.8159637451172
 20
119.1358871459961
 30
0.0
 11
-201.8159637451172
 21
109.1358871459961
 31
0.0
  0
LINE
  5
8D
330
22
100
AcDbEntity
  8
0
  6
Continuous
 62
     7
100
AcDbLine
 10
-212.5230712890625
 20
119.1358871459961
 30
0.0
 11
-202.5230712890625
 21
109.1358871459961
 31
0.0
  0
LINE
  5
8E
330
22
100
AcDbEntity
  8
0
  6
Continuous
 62
     7
100
AcDbLine
 10
-214.6443939208984
 20
119.1358871459961
 30
0.0
 11
-204.3155822753906
 21
108.8070755004883
 31
0.0
  0
LINE
  5
8F
330
22
100
AcDbEntity
  8
0
  6
Continuous
 62
     7
100
AcDbLine
 10
-215.3515014648438
 20
119.1358871459961
 30
0.0
 11
-204.7264251708984
 21
108.5108108520508
 31
0.0
  0
LINE
  5
90
330
22
100
AcDbEntity
  8
0
  6
Continuous
 62
     7
100
AcDbLine
 10
-217.4728240966797
 20
119.1358871459961
 30
0.0
 11
-205.2859497070314
 21
106.9490203857422
 31
0.0
  0
LINE
  5
91
330
22
100
AcDbEntity
  8
0
  6
Continuous
 62
     7
100
AcDbLine
 10
-218.179931640625
 20
119.1358871459961
 30
0.0
 11
-205.2859497070314
 21
106.2419128417969
 31
0.0
  0
LINE
  5
92
330
22
100
AcDbEntity
  8
0
  6
Continuous
 62
     7
100
AcDbLine
 10
-220.3012542724609
 20
119.1358871459961
 30
0.0
 11
-205.2859497070314
 21
104.1205978393555
 31
0.0
  0
LINE
  5
93
330
22
100
AcDbEntity
  8
0
  6
Continuous
 62
     7
100
AcDbLine
 10
-220.8038482666016
 20
118.9313812255859
 30
0.0
 11
-205.2859497070314
 21
103.4134902954102
 31
0.0
  0
LINE
  5
94
330
22
100
AcDbEntity
  8
0
  6
Continuous
 62
     7
100
AcDbLine
 10
-220.9745025634766
 20
116.9807205200195
 30
0.0
 11
-205.2859497070314
 21
101.2921676635742
 31
0.0
  0
LINE
  5
95
330
22
100
AcDbEntity
  8
0
  6
Continuous
 62
     7
100
AcDbLine
 10
-221.0313873291016
 20
116.3304977416992
 30
0.0
 11
-205.2859497070314
 21
100.5850601196289
 31
0.0
  0
LINE
  5
96
330
22
100
AcDbEntity
  8
0
  6
Continuous
 62
     7
100
AcDbLine
 10
-221.1639404296875
 20
114.3417205810547
 30
0.0
 11
-205.2859497070314
 21
98.46373748779296
 31
0.0
  0
LINE
  5
97
330
22
100
AcDbEntity
  8
0
  6
Continuous
 62
     7
100
AcDbLine
 10
-221.2589416503906
 20
113.729621887207
 30
0.0
 11
-205.2859497070314
 21
97.75662994384767
 31
0.0
  0
LINE
  5
98
330
22
100
AcDbEntity
  8
0
  6
Continuous
 62
     7
100
AcDbLine
 10
-221.4295959472656
 20
111.7789611816406
 30
0.0
 11
-205.2859497070314
 21
95.63531494140624
 31
0.0
  0
LINE
  5
99
330
22
100
AcDbEntity
  8
0
  6
Continuous
 62
     7
100
AcDbLine
 10
-221.4864959716797
 20
111.1287384033203
 30
0.0
 11
-205.2859497070314
 21
94.92820739746093
 31
0.0
  0
LINE
  5
9A
330
22
100
AcDbEntity
  8
0
  6
Continuous
 62
     7
100
AcDbLine
 10
-221.6571502685547
 20
109.1780776977539
 30
0.0
 11
-205.2859497070314
 21
92.80688476562501
 31
0.0
  0
LINE
  5
9B
330
22
100
AcDbEntity
  8
0
  6
Continuous
 62
     7
100
AcDbLine
 10
-221.7140350341797
 20
108.5278625488281
 30
0.0
 11
-205.2859497070314
 21
92.09977722167968
 31
0.0
  0
LINE
  5
9C
330
22
100
AcDbEntity
  8
0
  6
Continuous
 62
     7
100
AcDbLine
 10
-221.8847045898439
 20
106.5772018432617
 30
0.0
 11
-205.2859497070314
 21
89.97846221923827
 31
0.0
  0
LINE
  5
9D
330
22
100
AcDbEntity
  8
0
  6
Continuous
 62
     7
100
AcDbLine
 10
-221.9415893554689
 20
105.9269790649414
 30
0.0
 11
-205.2859497070314
 21
89.27135467529296
 31
0.0
  0
LINE
  5
9E
330
22
100
AcDbEntity
  8
0
  6
Continuous
 62
     7
100
AcDbLine
 10
-222.2718048095703
 20
104.1358871459961
 30
0.0
 11
-205.2859497070314
 21
87.15003204345704
 31
0.0
  0
LINE
  5
9F
330
22
100
AcDbEntity
  8
0
  6
Continuous
 62
     7
100
AcDbLine
 10
-222.9789123535156
 20
104.1358871459961
 30
0.0
 11
-205.2859497070314
 21
86.44292449951171
 31
0.0
  0
LINE
  5
A0
330
22
100
AcDbEntity
  8
0
  6
Continuous
 62
     7
100
AcDbLine
 10
-225.1002349853516
 20
104.1358871459961
 30
0.0
 11
-205.2859497070314
 21
84.32160186767578
 31
0.0
  0
LINE
  5
A1
330
22
100
AcDbEntity
  8
0
  6
Continuous
 62
     7
100
AcDbLine
 10
-225.8073425292969
 20
104.1358871459961
 30
0.0
 11
-205.2859497070314
 21
83.61449432373047
 31
0.0
  0
LINE
  5
A2
330
22
100
AcDbEntity
  8
0
  6
Continuous
 62
     7
100
AcDbLine
 10
-226.2859497070313
 20
102.4931793212891
 30
0.0
 11
-205.2859497070314
 21
81.49317932128907
 31
0.0
  0
LINE
  5
A3
330
22
100
AcDbEntity
  8
0
  6
Continuous
 62
     7
100
AcDbLine
 10
-226.2859497070313
 20
101.7860717773438
 30
0.0
 11
-205.2859497070314
 21
80.78607177734374
 31
0.0
  0
LINE
  5
A4
330
22
100
AcDbEntity
  8
0
  6
Continuous
 62
     7
100
AcDbLine
 10
-218.7785034179688
 20
92.15729522705078
 30
0.0
 11
-205.2859497070314
 21
78.66474914550781
 31
0.0
  0
LINE
  5
A5
330
22
100
AcDbEntity
  8
0
  6
Continuous
 62
     7
100
AcDbLine
 10
-226.2859497070313
 20
99.66474914550779
 30
0.0
 11
-220.7570953369141
 21
94.13588714599608
 31
0.0
  0
LINE
  5
A6
330
22
100
AcDbEntity
  8
0
  6
Continuous
 62
     7
100
AcDbLine
 10
-218.7557830810547
 20
91.42746734619141
 30
0.0
 11
-205.2859497070314
 21
77.9576416015625
 31
0.0
  0
LINE
  5
A7
330
22
100
AcDbEntity
  8
0
  6
Continuous
 62
     7
100
AcDbLine
 10
-226.2859497070313
 20
98.9576416015625
 30
0.0
 11
-221.4642028808594
 21
94.13588714599608
 31
0.0
  0
LINE
  5
A8
330
22
100
AcDbEntity
  8
0
  6
Continuous
 62
     7
100
AcDbLine
 10
-218.6876220703125
 20
89.2379913330078
 30
0.0
 11
-205.2859497070314
 21
75.83632659912109
 31
0.0
  0
LINE
  5
A9
330
22
100
AcDbEntity
  8
0
  6
Continuous
 62
     7
100
AcDbLine
 10
-226.2859497070313
 20
96.83632659912108
 30
0.0
 11
-223.5855255126953
 21
94.13588714599608
 31
0.0
  0
LINE
  5
AA
330
22
100
AcDbEntity
  8
0
  6
Continuous
 62
     7
100
AcDbLine
 10
-226.2859497070313
 20
96.12921905517579
 30
0.0
 11
-224.2926330566406
 21
94.13588714599608
 31
0.0
  0
LINE
  5
AB
330
22
100
AcDbEntity
  8
0
  6
Continuous
 62
     7
100
AcDbLine
 10
-218.5967407226563
 20
86.31868743896484
 30
0.0
 11
-205.2859497070314
 21
73.00789642333985
 31
0.0
  0
LINE
  5
AC
330
22
100
AcDbEntity
  8
0
  6
Continuous
 62
     7
100
AcDbLine
 10
-218.5740356445313
 20
85.58885955810547
 30
0.0
 11
-205.2859497070314
 21
72.30078887939453
 31
0.0
  0
LINE
  5
AD
330
22
100
AcDbEntity
  8
0
  6
Continuous
 62
     7
100
AcDbLine
 10
-218.5058746337891
 20
83.39938354492188
 30
0.0
 11
-205.2859497070314
 21
70.17946624755859
 31
0.0
  0
LINE
  5
AE
330
22
100
AcDbEntity
  8
0
  6
Continuous
 62
     7
100
AcDbLine
 10
-218.483154296875
 20
82.66956329345703
 30
0.0
 11
-205.2859497070314
 21
69.47235870361328
 31
0.0
  0
LINE
  5
AF
330
22
100
AcDbEntity
  8
0
  6
Continuous
 62
     7
100
AcDbLine
 10
-218.4149932861328
 20
80.4800796508789
 30
0.0
 11
-205.2859497070314
 21
67.35104370117189
 31
0.0
  0
LINE
  5
B0
330
22
100
AcDbEntity
  8
0
  6
Continuous
 62
     7
100
AcDbLine
 10
-218.3922729492188
 20
79.75025939941406
 30
0.0
 11
-205.2859497070314
 21
66.64393615722656
 31
0.0
  0
LINE
  5
B1
330
22
100
AcDbEntity
  8
0
  6
Continuous
 62
     7
100
AcDbLine
 10
-218.3241271972656
 20
77.56078338623047
 30
0.0
 11
-205.2859497070314
 21
64.52261352539064
 31
0.0
  0
LINE
  5
B2
330
22
100
AcDbEntity
  8
0
  6
Continuous
 62
     7
100
AcDbLine
 10
-218.3014068603516
 20
76.83095550537109
 30
0.0
 11
-205.2859497070314
 21
63.81550598144531
 31
0.0
  0
LINE
  5
B3
330
22
100
AcDbEntity
  8
0
  6
Continuous
 62
     7
100
AcDbLine
 10
-218.2332458496094
 20
74.6414794921875
 30
0.0
 11
-205.7276611328125
 21
62.13588714599609
 31
0.0
  0
LINE
  5
B4
330
22
100
AcDbEntity
  8
0
  6
Continuous
 62
     7
100
AcDbLine
 10
-218.2105255126953
 20
73.91165161132812
 30
0.0
 11
-206.4347686767578
 21
62.13588714599609
 31
0.0
  0
LINE
  5
B5
330
22
100
AcDbEntity
  8
0
  6
Continuous
 62
     7
100
AcDbLine
 10
-218.1423645019531
 20
71.72217559814453
 30
0.0
 11
-208.5560760498047
 21
62.13588714599609
 31
0.0
  0
LINE
  5
B6
330
22
100
AcDbEntity
  8
0
  6
Continuous
 62
     7
100
AcDbLine
 10
-218.1196441650391
 20
70.99234771728515
 30
0.0
 11
-209.26318359375
 21
62.13588714599609
 31
0.0
  0
LINE
  5
B7
330
22
100
AcDbEntity
  8
0
  6
Continuous
 62
     7
100
AcDbLine
 10
-218.0514984130859
 20
68.80287170410156
 30
0.0
 11
-211.3845062255859
 21
62.13588714599609
 31
0.0
  0
LINE
  5
B8
330
22
100
AcDbEntity
  8
0
  6
Continuous
 62
     7
100
AcDbLine
 10
-218.0287780761719
 20
68.07304382324218
 30
0.0
 11
-212.0916137695313
 21
62.13588714599609
 31
0.0
  0
LINE
  5
B9
330
22
100
AcDbEntity
  8
0
  6
Continuous
 62
     7
100
AcDbLine
 10
-217.9606170654297
 20
65.8835678100586
 30
0.0
 11
-214.2129364013672
 21
62.13588714599609
 31
0.0
  0
LINE
  5
BA
330
22
100
AcDbEntity
  8
0
  6
Continuous
 62
     7
100
AcDbLine
 10
-217.9378967285156
 20
65.15373992919922
 30
0.0
 11
-214.9200439453125
 21
62.13588714599609
 31
0.0
  0
LINE
  5
BB
330
22
100
AcDbEntity
  8
0
  6
Continuous
 62
     7
100
AcDbLine
 10
-217.8697357177734
 20
62.96426391601563
 30
0.0
 11
-217.0413665771484
 21
62.13588714599609
 31
0.0
  0
LINE
  5
BC
330
22
100
AcDbEntity
  8
0
  6
Continuous
 62
     7
100
AcDbLine
 10
-241.1859588623047
 20
118.8711776733398
 30
0.0
 11
-240.9212493896484
 21
119.1358871459961
 31
0.0
  0
LINE
  5
BD
330
22
100
AcDbEntity
  8
0
  6
Continuous
 62
     7
100
AcDbLine
 10
-243.3209228515625
 20
116.736213684082
 30
0.0
 11
-242.9212493896484
 21
117.1358871459961
 31
0.0
  0
LINE
  5
BE
330
22
100
AcDbEntity
  8
0
  6
Continuous
 62
     7
100
AcDbLine
 10
-243.6468963623047
 20
113.5818099975586
 30
0.0
 11
-238.0928192138672
 21
119.1358871459961
 31
0.0
  0
LINE
  5
BF
330
22
100
AcDbEntity
  8
0
  6
Continuous
 62
     7
100
AcDbLine
 10
-243.7824859619141
 20
112.0320053100586
 30
0.0
 11
-236.6786041259766
 21
119.1358871459961
 31
0.0
  0
LINE
  5
C0
330
22
100
AcDbEntity
  8
0
  6
Continuous
 62
     7
100
AcDbLine
 10
-243.86328125
 20
110.5370025634766
 30
0.0
 11
-235.2643890380859
 21
119.1358871459961
 31
0.0
  0
LINE
  5
C1
330
22
100
AcDbEntity
  8
0
  6
Continuous
 62
     7
100
AcDbLine
 10
-244.1344604492188
 20
107.4373931884766
 30
0.0
 11
-232.4359741210938
 21
119.1358871459961
 31
0.0
  0
LINE
  5
C2
330
22
100
AcDbEntity
  8
0
  6
Continuous
 62
     7
100
AcDbLine
 10
-244.3248443603516
 20
105.8327941894531
 30
0.0
 11
-231.0217590332031
 21
119.1358871459961
 31
0.0
  0
LINE
  5
C3
330
22
100
AcDbEntity
  8
0
  6
Continuous
 62
     7
100
AcDbLine
 10
-244.4604339599609
 20
104.2829895019531
 30
0.0
 11
-229.6075439453125
 21
119.1358871459961
 31
0.0
  0
LINE
  5
C4
330
22
100
AcDbEntity
  8
0
  6
Continuous
 62
     7
100
AcDbLine
 10
-241.7791137695314
 20
104.1358871459961
 30
0.0
 11
-226.7791137695313
 21
119.1358871459961
 31
0.0
  0
LINE
  5
C5
330
22
100
AcDbEntity
  8
0
  6
Continuous
 62
     7
100
AcDbLine
 10
-240.3648986816406
 20
104.1358871459961
 30
0.0
 11
-225.3648986816406
 21
119.1358871459961
 31
0.0
  0
LINE
  5
C6
330
22
100
AcDbEntity
  8
0
  6
Continuous
 62
     7
100
AcDbLine
 10
-238.95068359375
 20
104.1358871459961
 30
0.0
 11
-223.95068359375
 21
119.1358871459961
 31
0.0
  0
LINE
  5
C7
330
22
100
AcDbEntity
  8
0
  6
Continuous
 62
     7
100
AcDbLine
 10
-236.1222534179688
 20
104.1358871459961
 30
0.0
 11
-221.1222534179688
 21
119.1358871459961
 31
0.0
  0
LINE
  5
C8
330
22
100
AcDbEntity
  8
0
  6
Continuous
 62
     7
100
AcDbLine
 10
-222.7080383300781
 20
116.1358871459961
 30
0.0
 11
-220.944091796875
 21
117.8998413085938
 31
0.0
  0
LINE
  5
C9
330
22
100
AcDbEntity
  8
0
  6
Continuous
 62
     7
100
AcDbLine
 10
-234.7080383300781
 20
104.1358871459961
 30
0.0
 11
-223.7859497070314
 21
115.057975769043
 31
0.0
  0
LINE
  5
CA
330
22
100
AcDbEntity
  8
0
  6
Continuous
 62
     7
100
AcDbLine
 10
-221.2938385009766
 20
116.1358871459961
 30
0.0
 11
-221.0796813964844
 21
116.3500366210938
 31
0.0
  0
LINE
  5
CB
330
22
100
AcDbEntity
  8
0
  6
Continuous
 62
     7
100
AcDbLine
 10
-233.2938385009766
 20
104.1358871459961
 30
0.0
 11
-223.7859497070314
 21
113.6437606811523
 31
0.0
  0
LINE
  5
CC
330
22
100
AcDbEntity
  8
0
  6
Continuous
 62
     7
100
AcDbLine
 10
-230.4654083251953
 20
104.1358871459961
 30
0.0
 11
-221.6654052734375
 21
112.9358901977539
 31
0.0
  0
LINE
  5
CD
330
22
100
AcDbEntity
  8
0
  6
Continuous
 62
     7
100
AcDbLine
 10
-229.0511932373047
 20
104.1358871459961
 30
0.0
 11
-221.4864501953125
 21
111.7006225585938
 31
0.0
  0
LINE
  5
CE
330
22
100
AcDbEntity
  8
0
  6
Continuous
 62
     7
100
AcDbLine
 10
-227.6369781494141
 20
104.1358871459961
 30
0.0
 11
-221.6220397949219
 21
110.1508178710938
 31
0.0
  0
LINE
  5
CF
330
22
100
AcDbEntity
  8
0
  6
Continuous
 62
     7
100
AcDbLine
 10
-224.8085479736328
 20
104.1358871459961
 30
0.0
 11
-221.8932342529297
 21
107.0512084960938
 31
0.0
  0
LINE
  5
D0
330
22
100
AcDbEntity
  8
0
  6
Continuous
 62
     7
100
AcDbLine
 10
-223.3943328857422
 20
104.1358871459961
 30
0.0
 11
-222.0288238525391
 21
105.5014038085938
 31
0.0
  0
LINE
  5
D1
330
22
100
AcDbEntity
  8
0
  6
Continuous
 62
     7
100
AcDbLine
 10
-239.2388916015625
 20
85.17996978759766
 30
0.0
 11
-239.2388916015625
 21
81.17996978759766
 31
0.0
  0
LINE
  5
D2
330
22
100
AcDbEntity
  8
0
  6
Continuous
 62
     7
100
AcDbLine
 10
-246.3609313964844
 20
85.17996978759766
 30
0.0
 11
-239.2388916015625
 21
85.17996978759766
 31
0.0
  0
LINE
  5
D3
330
22
100
AcDbEntity
  8
0
  6
Continuous
 62
     7
100
AcDbLine
 10
-223.7859497070314
 20
112.9358901977539
 30
0.0
 11
-221.3783874511719
 21
112.9358901977539
 31
0.0
  0
LINE
  5
D4
330
22
100
AcDbEntity
  8
0
  6
Continuous
 62
     7
100
AcDbLine
 10
-221.3783874511719
 20
112.9358901977539
 30
0.0
 11
-222.1482849121094
 21
104.1358871459961
 31
0.0
  0
LINE
  5
D5
330
22
100
AcDbEntity
  8
0
  6
Continuous
 62
     7
100
AcDbLine
 10
-205.2859497070314
 20
62.13588714599609
 30
0.0
 11
-205.2859497070314
 21
107.1358871459961
 31
0.0
  0
LINE
  5
D6
330
22
100
AcDbEntity
  8
0
  6
Continuous
 62
     7
100
AcDbLine
 10
-201.7859497070313
 20
109.1358871459961
 30
0.0
 11
-201.7859497070313
 21
118.6358871459961
 31
0.0
  0
LINE
  5
D7
330
22
100
AcDbEntity
  8
0
  6
Continuous
 62
     7
100
AcDbLine
 10
-202.2859497070313
 20
119.1358871459961
 30
0.0
 11
-201.7859497070313
 21
118.6358871459961
 31
0.0
  0
LINE
  5
D8
330
22
100
AcDbEntity
  8
0
  6
Continuous
 62
     7
100
AcDbLine
 10
-201.7859497070313
 20
109.1358871459961
 30
0.0
 11
-203.2859497070313
 21
109.1358871459961
 31
0.0
  0
LINE
  5
D9
330
22
100
AcDbEntity
  8
0
  6
Continuous
 62
     7
100
AcDbLine
 10
-220.7859497070313
 20
119.1358871459961
 30
0.0
 11
-222.0982818603516
 21
104.1358871459961
 31
0.0
  0
LINE
  5
DA
330
22
100
AcDbEntity
  8
0
  6
Continuous
 62
     7
100
AcDbLine
 10
-246.2388916015625
 20
85.17996978759766
 30
0.0
 11
-246.2388916015625
 21
81.17996978759766
 31
0.0
  0
LINE
  5
DB
330
22
100
AcDbEntity
  8
0
  6
Continuous
 62
     7
100
AcDbLine
 10
-318.2859497070313
 20
62.13588714599609
 30
0.0
 11
-261.7859497070313
 21
62.13588714599609
 31
0.0
  0
LINE
  5
DC
330
22
100
AcDbEntity
  8
0
  6
Continuous
 62
     7
100
AcDbLine
 10
-321.7859497070313
 20
109.1358871459961
 30
0.0
 11
-320.2859497070313
 21
109.1358871459961
 31
0.0
  0
LINE
  5
DD
330
22
100
AcDbEntity
  8
0
  6
Continuous
 62
     7
100
AcDbLine
 10
-318.2859497070313
 20
107.1358871459961
 30
0.0
 11
-318.2859497070313
 21
62.13588714599609
 31
0.0
  0
LINE
  5
DE
330
22
100
AcDbEntity
  8
0
  6
Continuous
 62
     7
100
AcDbLine
 10
-261.7859497070313
 20
119.1358871459961
 30
0.0
 11
-321.2859497070313
 21
119.1358871459961
 31
0.0
  0
LINE
  5
DF
330
22
100
AcDbEntity
  8
0
  6
Continuous
 62
     7
100
AcDbLine
 10
-321.7859497070313
 20
109.1358871459961
 30
0.0
 11
-321.7859497070313
 21
118.6358871459961
 31
0.0
  0
LINE
  5
E0
330
22
100
AcDbEntity
  8
0
  6
Continuous
 62
     7
100
AcDbLine
 10
-321.2859497070313
 20
119.1358871459961
 30
0.0
 11
-321.7859497070313
 21
118.6358871459961
 31
0.0
  0
LINE
  5
E1
330
22
100
AcDbEntity
  8
0
  6
Continuous
 62
     7
100
AcDbLine
 10
-320.2859497070313
 20
109.1358871459961
 30
0.0
 11
-261.7859497070313
 21
109.1358871459961
 31
0.0
  0
LINE
  5
E2
330
22
100
AcDbEntity
  8
0
  6
Continuous
 62
     7
100
AcDbLine
 10
-256.8859558105469
 20
119.1358871459961
 30
0.0
 11
-256.8859558105469
 21
115.1358871459961
 31
0.0
  0
LINE
  5
E3
330
22
100
AcDbEntity
  8
0
  6
CENTER
 62
     7
100
AcDbLine
 10
-261.7859497070313
 20
126.8449783325195
 30
0.0
 11
-261.7859497070313
 21
52.89479064941406
 31
0.0
  0
LINE
  5
E4
330
22
100
AcDbEntity
  8
0
  6
Continuous
 62
     7
100
AcDbLine
 10
-243.3359527587891
 20
117.1358871459961
 30
0.0
 11
-244.4733123779297
 21
104.1358871459961
 31
0.0
  0
LINE
  5
E5
330
22
100
AcDbEntity
  8
0
  6
Continuous
 62
     7
100
AcDbLine
 10
-241.1859588623047
 20
119.1358871459961
 30
0.0
 11
-241.1859588623047
 21
117.1358871459961
 31
0.0
  0
LINE
  5
E6
330
22
100
AcDbEntity
  8
0
  6
Continuous
 62
     7
100
AcDbLine
 10
-246.3609313964844
 20
92.63588714599608
 30
0.0
 11
-220.1104431152344
 21
92.63588714599608
 31
0.0
  0
LINE
  5
E7
330
22
100
AcDbEntity
  8
0
  6
Continuous
 62
     7
100
AcDbLine
 10
-246.3609313964844
 20
94.13588714599608
 30
0.0
 11
-218.840087890625
 21
94.13588714599608
 31
0.0
  0
LINE
  5
E8
330
22
100
AcDbEntity
  8
0
  6
Continuous
 62
     7
100
AcDbLine
 10
-222.0982818603516
 20
104.1358871459961
 30
0.0
 11
-246.3609313964844
 21
104.1358871459961
 31
0.0
  0
LINE
  5
E9
330
22
100
AcDbEntity
  8
0
  6
Continuous
 62
     7
100
AcDbLine
 10
-205.2859497070314
 20
62.13588714599609
 30
0.0
 11
-261.7859497070313
 21
62.13588714599609
 31
0.0
  0
LINE
  5
EA
330
22
100
AcDbEntity
  8
0
  6
Continuous
 62
     7
100
AcDbLine
 10
-261.7859497070313
 20
119.1358871459961
 30
0.0
 11
-202.2859497070313
 21
119.1358871459961
 31
0.0
  0
LINE
  5
EB
330
22
100
AcDbEntity
  8
0
  6
Continuous
 62
     7
100
AcDbLine
 10
-261.7859497070313
 20
119.1358871459961
 30
0.0
 11
-220.8359527587891
 21
119.1358871459961
 31
0.0
  0
LINE
  5
EC
330
22
100
AcDbEntity
  8
0
  6
Continuous
 62
     7
100
AcDbLine
 10
-250.6996612548828
 20
115.1358871459961
 30
0.0
 11
-261.8859558105469
 21
115.1358871459961
 31
0.0
  0
LINE
  5
ED
330
22
100
AcDbEntity
  8
0
  6
Continuous
 62
     7
100
AcDbLine
 10
-261.7859497070313
 20
119.1358871459961
 30
0.0
 11
-241.2859497070313
 21
119.1358871459961
 31
0.0
  0
LINE
  5
EE
330
22
100
AcDbEntity
  8
0
  6
Continuous
 62
     7
100
AcDbLine
 10
-261.7859497070313
 20
63.63588714599609
 30
0.0
 11
-219.3229522705078
 21
63.63588714599609
 31
0.0
  0
LINE
  5
EF
330
22
100
AcDbEntity
  8
0
  6
Continuous
 62
     7
100
AcDbLine
 10
-250.6996612548828
 20
115.1358871459961
 30
0.0
 11
-250.6996612548828
 21
97.00924682617188
 31
0.0
  0
LINE
  5
F0
330
22
100
AcDbEntity
  8
0
  6
Continuous
 62
     7
100
AcDbLine
 10
-252.3859558105469
 20
119.1358871459961
 30
0.0
 11
-252.3859558105469
 21
115.1358871459961
 31
0.0
  0
LINE
  5
F1
330
22
100
AcDbEntity
  8
0
  6
Continuous
 62
     7
100
AcDbLine
 10
-250.6996612548828
 20
105.1358871459961
 30
0.0
 11
-250.6996612548828
 21
97.13588714599609
 31
0.0
  0
LINE
  5
F2
330
22
100
AcDbEntity
  8
0
  6
Continuous
 62
     7
100
AcDbLine
 10
-261.8859558105469
 20
97.13588714599609
 30
0.0
 11
-250.5960540771484
 21
97.13588714599609
 31
0.0
  0
LINE
  5
F3
330
22
100
AcDbEntity
  8
0
  6
Continuous
 62
     7
100
AcDbLine
 10
-239.2388916015625
 20
81.17996978759766
 30
0.0
 11
-261.7388916015625
 21
81.17996978759766
 31
0.0
  0
LINE
  5
F4
330
22
100
AcDbEntity
  8
0
  6
Continuous
 62
     7
100
AcDbLine
 10
-252.3859558105469
 20
117.5706787109375
 30
0.0
 11
-250.8207397460938
 21
119.1358871459961
 31
0.0
  0
LINE
  5
F5
330
22
100
AcDbEntity
  8
0
  6
Continuous
 62
     7
100
AcDbLine
 10
-251.9923095703125
 20
115.1358871459961
 30
0.0
 11
-247.9923095703125
 21
119.1358871459961
 31
0.0
  0
LINE
  5
F6
330
22
100
AcDbEntity
  8
0
  6
Continuous
 62
     7
100
AcDbLine
 10
-250.6996612548828
 20
113.6001129150391
 30
0.0
 11
-245.1638946533203
 21
119.1358871459961
 31
0.0
  0
LINE
  5
F7
330
22
100
AcDbEntity
  8
0
  6
Continuous
 62
     7
100
AcDbLine
 10
-246.3354644775391
 20
115.1358871459961
 30
0.0
 11
-242.3354644775391
 21
119.1358871459961
 31
0.0
  0
LINE
  5
F8
330
22
100
AcDbEntity
  8
0
  6
Continuous
 62
     7
100
AcDbLine
 10
-250.6996612548828
 20
110.7716903686523
 30
0.0
 11
-246.3609313964844
 21
115.1104202270508
 31
0.0
  0
LINE
  5
F9
330
22
100
AcDbEntity
  8
0
  6
Continuous
 62
     7
100
AcDbLine
 10
-241.5070343017578
 20
117.1358871459961
 30
0.0
 11
-241.2859497070313
 21
117.356964111328
 31
0.0
  0
LINE
  5
FA
330
22
100
AcDbEntity
  8
0
  6
Continuous
 62
     7
100
AcDbLine
 10
-250.6996612548828
 20
107.9432601928711
 30
0.0
 11
-246.3609313964844
 21
112.2819900512695
 31
0.0
  0
LINE
  5
FB
330
22
100
AcDbEntity
  8
0
  6
Continuous
 62
     7
100
AcDbLine
 10
-261.7859497070313
 20
96.85696411132813
 30
0.0
 11
-261.5070495605469
 21
97.13588714599609
 31
0.0
  0
LINE
  5
FC
330
22
100
AcDbEntity
  8
0
  6
Continuous
 62
     7
100
AcDbLine
 10
-250.6996612548828
 20
105.1148300170898
 30
0.0
 11
-244.1786041259766
 21
111.6358871459961
 31
0.0
  0
LINE
  5
FD
330
22
100
AcDbEntity
  8
0
  6
Continuous
 62
     7
100
AcDbLine
 10
-261.7859497070313
 20
94.02854156494141
 30
0.0
 11
-258.6786193847656
 21
97.13588714599609
 31
0.0
  0
LINE
  5
FE
330
22
100
AcDbEntity
  8
0
  6
Continuous
 62
     7
100
AcDbLine
 10
-250.6996612548828
 20
102.2864074707031
 30
0.0
 11
-244.0536651611328
 21
108.9324035644531
 31
0.0
  0
LINE
  5
FF
330
22
100
AcDbEntity
  8
0
  6
Continuous
 62
     7
100
AcDbLine
 10
-261.7859497070313
 20
91.20011138916016
 30
0.0
 11
-255.8501739501953
 21
97.13588714599609
 31
0.0
  0
LINE
  5
100
330
22
100
AcDbEntity
  8
0
  6
Continuous
 62
     7
100
AcDbLine
 10
-250.6996612548828
 20
99.45797729492188
 30
0.0
 11
-246.3609313964844
 21
103.7967071533203
 31
0.0
  0
LINE
  5
101
330
22
100
AcDbEntity
  8
0
  6
Continuous
 62
     7
100
AcDbLine
 10
-261.7859497070313
 20
88.37168884277344
 30
0.0
 11
-253.0217590332031
 21
97.13588714599609
 31
0.0
  0
LINE
  5
102
330
22
100
AcDbEntity
  8
0
  6
Continuous
 62
     7
100
AcDbLine
 10
-261.7859497070313
 20
85.54325866699219
 30
0.0
 11
-246.3609313964844
 21
100.9682846069336
 31
0.0
  0
LINE
  5
103
330
22
100
AcDbEntity
  8
0
  6
Continuous
 62
     7
100
AcDbLine
 10
-261.7859497070313
 20
82.71482849121094
 30
0.0
 11
-246.3609313964844
 21
98.13985443115235
 31
0.0
  0
LINE
  5
104
330
22
100
AcDbEntity
  8
0
  6
Continuous
 62
     7
100
AcDbLine
 10
-260.4924011230469
 20
81.17996978759766
 30
0.0
 11
-246.3609313964844
 21
95.31142425537108
 31
0.0
  0
LINE
  5
105
330
22
100
AcDbEntity
  8
0
  6
Continuous
 62
     7
100
AcDbLine
 10
-257.6639709472656
 20
81.17996978759766
 30
0.0
 11
-246.3609313964844
 21
92.48300170898437
 31
0.0
  0
LINE
  5
106
330
22
100
AcDbEntity
  8
0
  6
Continuous
 62
     7
100
AcDbLine
 10
-254.8355407714844
 20
81.17996978759766
 30
0.0
 11
-246.3609313964844
 21
89.65457153320313
 31
0.0
  0
LINE
  5
107
330
22
100
AcDbEntity
  8
0
  6
Continuous
 62
     7
100
AcDbLine
 10
-252.0071105957031
 20
81.17996978759766
 30
0.0
 11
-246.3609313964844
 21
86.8261489868164
 31
0.0
  0
LINE
  5
108
330
22
100
AcDbEntity
  8
0
  6
Continuous
 62
     7
100
AcDbLine
 10
-249.1786804199219
 20
81.17996978759766
 30
0.0
 11
-246.2900390625
 21
84.068603515625
 31
0.0
  0
LINE
  5
109
330
22
100
AcDbEntity
  8
0
  6
Continuous
 62
     7
100
AcDbLine
 10
-246.3502502441406
 20
81.17996978759766
 30
0.0
 11
-246.2388916015625
 21
81.29132843017577
 31
0.0
  0
LINE
  5
10A
330
22
100
AcDbEntity
  8
0
  6
Continuous
 62
     7
100
AcDbLine
 10
-240.2388916015625
 20
84.46290588378905
 30
0.0
 11
-239.5218200683594
 21
85.17996978759766
 31
0.0
  0
LINE
  5
10B
330
22
100
AcDbEntity
  8
0
  6
Continuous
 62
     7
100
AcDbLine
 10
-240.2388916015625
 20
81.63447570800782
 30
0.0
 11
-239.2388916015625
 21
82.63447570800781
 31
0.0
  0
LINE
  5
10C
330
22
100
AcDbEntity
  8
0
  6
Continuous
 62
     7
100
AcDbLine
 10
-261.1416015625
 20
81.17996978759766
 30
0.0
 11
-261.7859497070313
 21
81.8243179321289
 31
0.0
  0
LINE
  5
10D
330
22
100
AcDbEntity
  8
0
  6
Continuous
 62
     7
100
AcDbLine
 10
-258.3131713867188
 20
81.17996978759766
 30
0.0
 11
-261.7859497070313
 21
84.65274047851563
 31
0.0
  0
LINE
  5
10E
330
22
100
AcDbEntity
  8
0
  6
Continuous
 62
     7
100
AcDbLine
 10
-255.4847564697266
 20
81.17996978759766
 30
0.0
 11
-261.7859497070313
 21
87.48117065429687
 31
0.0
  0
LINE
  5
10F
330
22
100
AcDbEntity
  8
0
  6
Continuous
 62
     7
100
AcDbLine
 10
-252.6563262939453
 20
81.17996978759766
 30
0.0
 11
-261.7859497070313
 21
90.30960083007812
 31
0.0
  0
LINE
  5
110
330
22
100
AcDbEntity
  8
0
  6
Continuous
 62
     7
100
AcDbLine
 10
-249.8278961181641
 20
81.17996978759766
 30
0.0
 11
-261.7859497070313
 21
93.13802337646484
 31
0.0
  0
LINE
  5
111
330
22
100
AcDbEntity
  8
0
  6
Continuous
 62
     7
100
AcDbLine
 10
-246.9994812011719
 20
81.17996978759766
 30
0.0
 11
-261.7859497070313
 21
95.96645355224607
 31
0.0
  0
LINE
  5
112
330
22
100
AcDbEntity
  8
0
  6
Continuous
 62
     7
100
AcDbLine
 10
-246.2388916015625
 20
83.24781799316406
 30
0.0
 11
-260.126953125
 21
97.13588714599609
 31
0.0
  0
LINE
  5
113
330
22
100
AcDbEntity
  8
0
  6
Continuous
 62
     7
100
AcDbLine
 10
-246.3609313964844
 20
86.19828033447266
 30
0.0
 11
-257.2985229492188
 21
97.13588714599609
 31
0.0
  0
LINE
  5
114
330
22
100
AcDbEntity
  8
0
  6
Continuous
 62
     7
100
AcDbLine
 10
-246.3609313964844
 20
89.02671051025391
 30
0.0
 11
-254.4701080322266
 21
97.13588714599609
 31
0.0
  0
LINE
  5
115
330
22
100
AcDbEntity
  8
0
  6
Continuous
 62
     7
100
AcDbLine
 10
-239.2388916015625
 20
81.90467071533204
 30
0.0
 11
-240.2388916015625
 21
82.90467071533203
 31
0.0
  0
LINE
  5
116
330
22
100
AcDbEntity
  8
0
  6
Continuous
 62
     7
100
AcDbLine
 10
-246.3609313964844
 20
91.85514068603515
 30
0.0
 11
-251.6416778564453
 21
97.13588714599609
 31
0.0
  0
LINE
  5
117
330
22
100
AcDbEntity
  8
0
  6
Continuous
 62
     7
100
AcDbLine
 10
-239.2388916015625
 20
84.73310089111327
 30
0.0
 11
-239.6857604980469
 21
85.17996978759766
 31
0.0
  0
LINE
  5
118
330
22
100
AcDbEntity
  8
0
  6
Continuous
 62
     7
100
AcDbLine
 10
-246.3609313964844
 20
94.68356323242188
 30
0.0
 11
-250.6996612548828
 21
99.02229309082031
 31
0.0
  0
LINE
  5
119
330
22
100
AcDbEntity
  8
0
  6
Continuous
 62
     7
100
AcDbLine
 10
-246.3609313964844
 20
97.51199340820313
 30
0.0
 11
-250.6996612548828
 21
101.8507232666016
 31
0.0
  0
LINE
  5
11A
330
22
100
AcDbEntity
  8
0
  6
Continuous
 62
     7
100
AcDbLine
 10
-246.3609313964844
 20
100.3404159545898
 30
0.0
 11
-250.6996612548828
 21
104.6791534423828
 31
0.0
  0
LINE
  5
11B
330
22
100
AcDbEntity
  8
0
  6
Continuous
 62
     7
100
AcDbLine
 10
-246.3609313964844
 20
103.1688461303711
 30
0.0
 11
-250.6996612548828
 21
107.5075759887695
 31
0.0
  0
LINE
  5
11C
330
22
100
AcDbEntity
  8
0
  6
Continuous
 62
     7
100
AcDbLine
 10
-246.2217712402344
 20
105.8581161499023
 30
0.0
 11
-250.6996612548828
 21
110.3360061645508
 31
0.0
  0
LINE
  5
11D
330
22
100
AcDbEntity
  8
0
  6
Continuous
 62
     7
100
AcDbLine
 10
-244.643310546875
 20
107.1080780029297
 30
0.0
 11
-250.6996612548828
 21
113.1644287109375
 31
0.0
  0
LINE
  5
11E
330
22
100
AcDbEntity
  8
0
  6
Continuous
 62
     7
100
AcDbLine
 10
-246.3609313964844
 20
111.6541290283203
 30
0.0
 11
-252.3859558105469
 21
117.6791534423828
 31
0.0
  0
LINE
  5
11F
330
22
100
AcDbEntity
  8
0
  6
Continuous
 62
     7
100
AcDbLine
 10
-244.0203247070313
 20
109.3135223388672
 30
0.0
 11
-246.3426971435547
 21
111.6358871459961
 31
0.0
  0
LINE
  5
120
330
22
100
AcDbEntity
  8
0
  6
Continuous
 62
     7
100
AcDbLine
 10
-246.3609313964844
 20
114.482551574707
 30
0.0
 11
-251.0142669677734
 21
119.1358871459961
 31
0.0
  0
LINE
  5
121
330
22
100
AcDbEntity
  8
0
  6
Continuous
 62
     7
100
AcDbLine
 10
-244.1858367919922
 20
115.1358871459961
 30
0.0
 11
-248.1858367919922
 21
119.1358871459961
 31
0.0
  0
LINE
  5
122
330
22
100
AcDbEntity
  8
0
  6
Continuous
 62
     7
100
AcDbLine
 10
-243.3376770019531
 20
117.1161575317383
 30
0.0
 11
-245.3574066162109
 21
119.1358871459961
 31
0.0
  0
LINE
  5
123
330
22
100
AcDbEntity
  8
0
  6
Continuous
 62
     7
100
AcDbLine
 10
-241.2859497070313
 20
117.8928604125977
 30
0.0
 11
-242.5289764404297
 21
119.1358871459961
 31
0.0
  0
LINE
  5
124
330
22
100
AcDbEntity
  8
0
  6
Continuous
 62
     7
100
AcDbLine
 10
-218.6649017333984
 20
88.50816345214843
 30
0.0
 11
-205.2859497070314
 21
75.12921905517578
 31
0.0
  0
ARC
  5
125
330
22
100
AcDbEntity
  8
0
  6
Continuous
 62
     7
100
AcDbCircle
 10
-261.7859497070313
 20
219.1358947753906
 30
0.0
 40
5.0
100
AcDbArc
 50
41.4928617905997
 51
90.00000000000019
  0
ARC
  5
126
330
22
100
AcDbEntity
  8
0
  6
Continuous
 62
     7
100
AcDbCircle
 10
-261.7859497070313
 20
219.1358947753906
 30
0.0
 40
5.0
100
AcDbArc
 50
90.00000000000019
 51
134.4421297321388
  0
ARC
  5
127
330
22
100
AcDbEntity
  8
0
  6
Continuous
 62
     7
100
AcDbCircle
 10
-268.0912780761719
 20
219.3305511474609
 30
0.0
 40
3.200591087341308
100
AcDbArc
 50
111.9117845361452
 51
251.6140284876378
  0
ARC
  5
128
330
22
100
AcDbEntity
  8
0
  6
Continuous
 62
     7
100
AcDbCircle
 10
-261.7859497070313
 20
219.1358947753906
 30
0.0
 40
5.0
100
AcDbArc
 50
216.8698976458447
 51
323.1301023541567
  0
CIRCLE
  5
129
330
22
100
AcDbEntity
  8
0
  6
Continuous
 62
     7
100
AcDbCircle
 10
-261.7859497070313
 20
219.2354125976563
 30
0.0
 40
40.49999999999999
  0
CIRCLE
  5
12A
330
22
100
AcDbEntity
  8
0
  6
Continuous
 62
     7
100
AcDbCircle
 10
-261.7859497070313
 20
219.2354125976563
 30
0.0
 40
60.00007629394531
  0
CIRCLE
  5
12B
330
22
100
AcDbEntity
  8
0
  6
Continuous
 62
     7
100
AcDbCircle
 10
-261.7859497070313
 20
219.2354125976563
 30
0.0
 40
41.0
  0
ARC
  5
12C
330
22
100
AcDbEntity
  8
0
  6
Continuous
 62
     7
100
AcDbCircle
 10
-255.4806213378906
 20
219.3305511474609
 30
0.0
 40
3.200591087341308
100
AcDbArc
 50
273.4871004687429
 51
70.12727944665609
  0
CIRCLE
  5
12D
330
22
100
AcDbEntity
  8
0
  6
Continuous
 62
     7
100
AcDbCircle
 10
-261.6859436035156
 20
219.2354125976563
 30
0.0
 40
19.0
  0
ARC
  5
12E
330
22
100
AcDbEntity
  8
0
  6
Continuous
 62
     7
100
AcDbCircle
 10
-244.3609313964844
 20
105.1358871459961
 30
0.0
 40
2.0
100
AcDbArc
 50
90.00000000000019
 51
180.0000000000004
  0
ARC
  5
12F
330
22
100
AcDbEntity
  8
0
  6
Continuous
 62
     7
100
AcDbCircle
 10
-203.2859497070313
 20
107.1358871459961
 30
0.0
 40
2.0
100
AcDbArc
 50
90.00000000000019
 51
180.0000000000004
  0
ARC
  5
130
330
22
100
AcDbEntity
  8
0
  6
Continuous
 62
     7
100
AcDbCircle
 10
-320.2859497070313
 20
107.1358871459961
 30
0.0
 40
2.0
100
AcDbArc
 50
0.0
 51
90.00000000000019
  0
LWPOLYLINE
  5
131
330
22
100
AcDbEntity
  8
0
  6
Continuous
 62
     7
100
AcDbPolyline
 90
       16
 70
     1
 43
0.0
 10
-222.4577026367188
 20
116.135888671875
 42
0.0984914033571643
 10
-222.9660007187655
 20
116.0140959238931
 42
0.0984914033571643
 10
-223.3969150255543
 20
115.6672595217735
 42
0.0984914033571643
 10
-223.6848427601243
 20
115.1481821636591
 42
0.0984914033571643
 10
-223.7859495349588
 20
114.535888671875
 42
0.0984914033571643
 10
-223.6848427601243
 20
113.9235951800908
 42
0.0984914033571643
 10
-223.3969150255543
 20
113.4045178219765
 42
0.0984914033571643
 10
-222.9660007187655
 20
113.0576814198569
 42
0.0984914033571643
 10
-222.4577026367187
 20
112.935888671875
 42
0.0984914033571643
 10
-221.949404554672
 20
113.0576814198569
 42
0.0984914033571643
 10
-221.5184902478832
 20
113.4045178219765
 42
0.0984914033571643
 10
-221.2305625133132
 20
113.9235951800909
 42
0.0984914033571643
 10
-221.1294557384787
 20
114.535888671875
 42
0.0984914033571643
 10
-221.2305625133132
 20
115.1481821636592
 42
0.0984914033571643
 10
-221.5184902478833
 20
115.6672595217735
 42
0.0984914033571643
 10
-221.949404554672
 20
116.0140959238931
 42
0.0984914033571643
  0
LWPOLYLINE
  5
143
330
22
100
AcDbEntity
  8
0
  6
Continuous
 62
     7
100
AcDbPolyline
 90
       16
 70
     1
 43
0.0
 10
-245.0640411376953
 20
115.1358871459961
 42
0.0984914033571643
 10
-245.5603411763516
 20
115.0026763278908
 42
0.0984914033571643
 10
-245.9810840330935
 20
114.6233240130725
 42
0.0984914033571643
 10
-246.2622154220256
 20
114.055583152635
 42
0.0984914033571643
 10
-246.3609356376453
 20
113.3858871459961
 42
0.0984914033571643
 10
-246.2622154220256
 20
112.7161911393572
 42
0.0984914033571643
 10
-245.9810840330935
 20
112.1484502789196
 42
0.0984914033571643
 10
-245.5603411763516
 20
111.7690979641013
 42
0.0984914033571643
 10
-245.0640411376953
 20
111.6358871459961
 42
0.0984914033571643
 10
-244.567741099039
 20
111.7690979641014
 42
0.0984914033571643
 10
-244.1469982422971
 20
112.1484502789197
 42
0.0984914033571643
 10
-243.8658668533651
 20
112.7161911393572
 42
0.0984914033571643
 10
-243.7671466377453
 20
113.3858871459961
 42
0.0984914033571643
 10
-243.8658668533651
 20
114.055583152635
 42
0.0984914033571643
 10
-244.1469982422971
 20
114.6233240130726
 42
0.0984914033571643
 10
-244.5677410990391
 20
115.0026763278909
 42
0.0984914033571643
  0
TEXT
  5
155
330
22
100
AcDbEntity
  8
0
  6
Continuous
 62
     7
100
AcDbText
 10
-382.4145441055298
 20
142.8418884277344
 30
0.0
 40
7.0
  1
ＤＬ－ＨＳＰ－８０Ｇ
 41
0.8443929888818491
100
AcDbText
  0
SOLID
  5
156
330
22
100
AcDbEntity
  8
0
  6
Continuous
 62
     7
100
AcDbTrace
 10
-222.1985778808594
 20
116.1051406860352
 30
0.0
 11
-222.7168426513672
 21
116.1051406860352
 31
0.0
 12
-222.4577026367188
 22
116.1358871459961
 32
0.0
 13
-222.4577026367188
 23
116.1358871459961
 33
0.0
  0
SOLID
  5
157
330
22
100
AcDbEntity
  8
0
  6
Continuous
 62
     7
100
AcDbTrace
 10
-222.4577026367188
 20
112.9358901977539
 30
0.0
 11
-222.7168426513672
 21
112.9666290283203
 31
0.0
 12
-222.1985778808594
 22
112.9666290283203
 32
0.0
 13
-222.1985778808594
 23
112.9666290283203
 33
0.0
  0
SOLID
  5
158
330
22
100
AcDbEntity
  8
0
  6
Continuous
 62
     7
100
AcDbTrace
 10
-221.9494171142578
 20
116.0140914916992
 30
0.0
 11
-222.9660034179688
 21
116.0140914916992
 31
0.0
 12
-222.1985778808594
 22
116.1051406860352
 32
0.0
 13
-222.7168426513672
 23
116.1051406860352
 33
0.0
  0
SOLID
  5
159
330
22
100
AcDbEntity
  8
0
  6
Continuous
 62
     7
100
AcDbTrace
 10
-221.7197723388672
 20
115.8662414550781
 30
0.0
 11
-223.1956481933594
 21
115.8662414550781
 31
0.0
 12
-221.9494171142578
 22
116.0140914916992
 32
0.0
 13
-222.9660034179688
 23
116.0140914916992
 33
0.0
  0
SOLID
  5
15A
330
22
100
AcDbEntity
  8
0
  6
Continuous
 62
     7
100
AcDbTrace
 10
-221.5184936523439
 20
115.6672592163086
 30
0.0
 11
-223.3969268798828
 21
115.6672592163086
 31
0.0
 12
-221.7197723388672
 22
115.8662414550781
 32
0.0
 13
-223.1956481933594
 23
115.8662414550781
 33
0.0
  0
SOLID
  5
15B
330
22
100
AcDbEntity
  8
0
  6
Continuous
 62
     7
100
AcDbTrace
 10
-221.3533172607422
 20
115.4247970581055
 30
0.0
 11
-223.5621032714844
 21
115.4247970581055
 31
0.0
 12
-221.5184936523439
 22
115.6672592163086
 32
0.0
 13
-223.3969268798828
 23
115.6672592163086
 33
0.0
  0
SOLID
  5
15C
330
22
100
AcDbEntity
  8
0
  6
Continuous
 62
     7
100
AcDbTrace
 10
-221.2305603027344
 20
115.1481781005859
 30
0.0
 11
-223.6848449707031
 21
115.1481781005859
 31
0.0
 12
-221.3533172607422
 22
115.4247970581055
 32
0.0
 13
-223.5621032714844
 23
115.4247970581055
 33
0.0
  0
SOLID
  5
15D
330
22
100
AcDbEntity
  8
0
  6
Continuous
 62
     7
100
AcDbTrace
 10
-221.1549835205078
 20
114.848030090332
 30
0.0
 11
-223.7604370117189
 21
114.848030090332
 31
0.0
 12
-221.2305603027344
 22
115.1481781005859
 32
0.0
 13
-223.6848449707031
 23
115.1481781005859
 33
0.0
  0
SOLID
  5
15E
330
22
100
AcDbEntity
  8
0
  6
Continuous
 62
     7
100
AcDbTrace
 10
-221.1294555664063
 20
114.535888671875
 30
0.0
 11
-223.7859497070314
 21
114.535888671875
 31
0.0
 12
-221.1549835205078
 22
114.848030090332
 32
0.0
 13
-223.7604370117189
 23
114.848030090332
 33
0.0
  0
SOLID
  5
15F
330
22
100
AcDbEntity
  8
0
  6
Continuous
 62
     7
100
AcDbTrace
 10
-221.1549835205078
 20
114.2237396240234
 30
0.0
 11
-223.7604370117189
 21
114.2237396240234
 31
0.0
 12
-221.1294555664063
 22
114.535888671875
 32
0.0
 13
-223.7859497070314
 23
114.535888671875
 33
0.0
  0
SOLID
  5
160
330
22
100
AcDbEntity
  8
0
  6
Continuous
 62
     7
100
AcDbTrace
 10
-221.2305603027344
 20
113.9235916137695
 30
0.0
 11
-223.6848449707031
 21
113.9235916137695
 31
0.0
 12
-221.1549835205078
 22
114.2237396240234
 32
0.0
 13
-223.7604370117189
 23
114.2237396240234
 33
0.0
  0
SOLID
  5
161
330
22
100
AcDbEntity
  8
0
  6
Continuous
 62
     7
100
AcDbTrace
 10
-221.3533172607422
 20
113.64697265625
 30
0.0
 11
-223.5621032714844
 21
113.64697265625
 31
0.0
 12
-221.2305603027344
 22
113.9235916137695
 32
0.0
 13
-223.6848449707031
 23
113.9235916137695
 33
0.0
  0
SOLID
  5
162
330
22
100
AcDbEntity
  8
0
  6
Continuous
 62
     7
100
AcDbTrace
 10
-221.5184936523439
 20
113.4045181274414
 30
0.0
 11
-223.3969268798828
 21
113.4045181274414
 31
0.0
 12
-221.3533172607422
 22
113.64697265625
 32
0.0
 13
-223.5621032714844
 23
113.64697265625
 33
0.0
  0
SOLID
  5
163
330
22
100
AcDbEntity
  8
0
  6
Continuous
 62
     7
100
AcDbTrace
 10
-221.7197723388672
 20
113.2055358886719
 30
0.0
 11
-223.1956481933594
 21
113.2055358886719
 31
0.0
 12
-221.5184936523439
 22
113.4045181274414
 32
0.0
 13
-223.3969268798828
 23
113.4045181274414
 33
0.0
  0
SOLID
  5
164
330
22
100
AcDbEntity
  8
0
  6
Continuous
 62
     7
100
AcDbTrace
 10
-221.9494171142578
 20
113.0576782226563
 30
0.0
 11
-222.9660034179688
 21
113.0576782226563
 31
0.0
 12
-221.7197723388672
 22
113.2055358886719
 32
0.0
 13
-223.1956481933594
 23
113.2055358886719
 33
0.0
  0
SOLID
  5
165
330
22
100
AcDbEntity
  8
0
  6
Continuous
 62
     7
100
AcDbTrace
 10
-222.1985778808594
 20
112.9666290283203
 30
0.0
 11
-222.7168426513672
 21
112.9666290283203
 31
0.0
 12
-221.9494171142578
 22
113.0576782226563
 32
0.0
 13
-222.9660034179688
 23
113.0576782226563
 33
0.0
  0
SOLID
  5
166
330
22
100
AcDbEntity
  8
0
  6
Continuous
 62
     7
100
AcDbTrace
 10
-244.8110198974609
 20
115.1022644042969
 30
0.0
 11
-245.3170471191406
 21
115.1022644042969
 31
0.0
 12
-245.0640411376953
 22
115.1358871459961
 32
0.0
 13
-245.0640411376953
 23
115.1358871459961
 33
0.0
  0
SOLID
  5
167
330
22
100
AcDbEntity
  8
0
  6
Continuous
 62
     7
100
AcDbTrace
 10
-245.0640411376953
 20
111.6358871459961
 30
0.0
 11
-245.3170471191406
 21
111.6695098876953
 31
0.0
 12
-244.8110198974609
 22
111.6695098876953
 32
0.0
 13
-244.8110198974609
 23
111.6695098876953
 33
0.0
  0
SOLID
  5
168
330
22
100
AcDbEntity
  8
0
  6
Continuous
 62
     7
100
AcDbTrace
 10
-244.5677337646484
 20
115.0026779174805
 30
0.0
 11
-245.5603332519531
 21
115.0026779174805
 31
0.0
 12
-244.8110198974609
 22
115.1022644042969
 32
0.0
 13
-245.3170471191406
 23
115.1022644042969
 33
0.0
  0
SOLID
  5
169
330
22
100
AcDbEntity
  8
0
  6
Continuous
 62
     7
100
AcDbTrace
 10
-244.3435211181641
 20
114.8409576416016
 30
0.0
 11
-245.7845458984375
 21
114.8409576416016
 31
0.0
 12
-244.5677337646484
 22
115.0026779174805
 32
0.0
 13
-245.5603332519531
 23
115.0026779174805
 33
0.0
  0
SOLID
  5
16A
330
22
100
AcDbEntity
  8
0
  6
Continuous
 62
     7
100
AcDbTrace
 10
-244.1469879150391
 20
114.6233215332031
 30
0.0
 11
-245.9810791015625
 21
114.6233215332031
 31
0.0
 12
-244.3435211181641
 22
114.8409576416016
 32
0.0
 13
-245.7845458984375
 23
114.8409576416016
 33
0.0
  0
SOLID
  5
16B
330
22
100
AcDbEntity
  8
0
  6
Continuous
 62
     7
100
AcDbTrace
 10
-243.9857025146484
 20
114.3581390380859
 30
0.0
 11
-246.1423645019531
 21
114.3581390380859
 31
0.0
 12
-244.1469879150391
 22
114.6233215332031
 32
0.0
 13
-245.9810791015625
 23
114.6233215332031
 33
0.0
  0
SOLID
  5
16C
330
22
100
AcDbEntity
  8
0
  6
Continuous
 62
     7
100
AcDbTrace
 10
-243.8658599853516
 20
114.0555801391602
 30
0.0
 11
-246.26220703125
 21
114.0555801391602
 31
0.0
 12
-243.9857025146484
 22
114.3581390380859
 32
0.0
 13
-246.1423645019531
 23
114.3581390380859
 33
0.0
  0
SOLID
  5
16D
330
22
100
AcDbEntity
  8
0
  6
Continuous
 62
     7
100
AcDbTrace
 10
-243.7920684814453
 20
113.727294921875
 30
0.0
 11
-246.3360137939453
 21
113.727294921875
 31
0.0
 12
-243.8658599853516
 22
114.0555801391602
 32
0.0
 13
-246.26220703125
 23
114.0555801391602
 33
0.0
  0
SOLID
  5
16E
330
22
100
AcDbEntity
  8
0
  6
Continuous
 62
     7
100
AcDbTrace
 10
-243.7671356201172
 20
113.3858871459961
 30
0.0
 11
-246.3609313964844
 21
113.3858871459961
 31
0.0
 12
-243.7920684814453
 22
113.727294921875
 32
0.0
 13
-246.3360137939453
 23
113.727294921875
 33
0.0
  0
SOLID
  5
16F
330
22
100
AcDbEntity
  8
0
  6
Continuous
 62
     7
100
AcDbTrace
 10
-243.7920684814453
 20
113.0444793701172
 30
0.0
 11
-246.3360137939453
 21
113.0444793701172
 31
0.0
 12
-243.7671356201172
 22
113.3858871459961
 32
0.0
 13
-246.3609313964844
 23
113.3858871459961
 33
0.0
  0
SOLID
  5
170
330
22
100
AcDbEntity
  8
0
  6
Continuous
 62
     7
100
AcDbTrace
 10
-243.8658599853516
 20
112.716194152832
 30
0.0
 11
-246.26220703125
 21
112.716194152832
 31
0.0
 12
-243.7920684814453
 22
113.0444793701172
 32
0.0
 13
-246.3360137939453
 23
113.0444793701172
 33
0.0
  0
SOLID
  5
171
330
22
100
AcDbEntity
  8
0
  6
Continuous
 62
     7
100
AcDbTrace
 10
-243.9857025146484
 20
112.4136428833008
 30
0.0
 11
-246.1423645019531
 21
112.4136428833008
 31
0.0
 12
-243.8658599853516
 22
112.716194152832
 32
0.0
 13
-246.26220703125
 23
112.716194152832
 33
0.0
  0
SOLID
  5
172
330
22
100
AcDbEntity
  8
0
  6
Continuous
 62
     7
100
AcDbTrace
 10
-244.1469879150391
 20
112.1484527587891
 30
0.0
 11
-245.9810791015625
 21
112.1484527587891
 31
0.0
 12
-243.9857025146484
 22
112.4136428833008
 32
0.0
 13
-246.1423645019531
 23
112.4136428833008
 33
0.0
  0
SOLID
  5
173
330
22
100
AcDbEntity
  8
0
  6
Continuous
 62
     7
100
AcDbTrace
 10
-244.3435211181641
 20
111.9308166503905
 30
0.0
 11
-245.7845458984375
 21
111.9308166503905
 31
0.0
 12
-244.1469879150391
 22
112.1484527587891
 32
0.0
 13
-245.9810791015625
 23
112.1484527587891
 33
0.0
  0
SOLID
  5
174
330
22
100
AcDbEntity
  8
0
  6
Continuous
 62
     7
100
AcDbTrace
 10
-244.5677337646484
 20
111.7690963745117
 30
0.0
 11
-245.5603332519531
 21
111.7690963745117
 31
0.0
 12
-244.3435211181641
 22
111.9308166503905
 32
0.0
 13
-245.7845458984375
 23
111.9308166503905
 33
0.0
  0
SOLID
  5
175
330
22
100
AcDbEntity
  8
0
  6
Continuous
 62
     7
100
AcDbTrace
 10
-244.8110198974609
 20
111.6695098876953
 30
0.0
 11
-245.3170471191406
 21
111.6695098876953
 31
0.0
 12
-244.5677337646484
 22
111.7690963745117
 32
0.0
 13
-245.5603332519531
 23
111.7690963745117
 33
0.0
  0
DIMENSION
  5
176
330
22
100
AcDbEntity
  8
0
  6
Continuous
 62
     7
100
AcDbDimension
  2
*D1
 10
-278.9767510472761
 20
227.3271583475074
 30
0.0
 11
-194.3867034912109
 21
187.5104370117188
 31
0.0
 70
     3
 71
     5
 42
-1.0
  3
DIMSTYLE1
100
AcDbDiametricDimension
 15
-244.5951483667864
 25
211.1436668478051
 35
0.0
 40
0.0
  0
DIMENSION
  5
177
330
22
100
AcDbEntity
  8
0
  6
Continuous
 62
     7
100
AcDbDimension
  2
*D2
 10
-313.7038073663905
 20
189.1597544778117
 30
0.0
 11
-193.7772216796875
 21
258.6323852539063
 31
0.0
 70
     3
 71
     5
 42
-1.0
  3
DIMSTYLE2
100
AcDbDiametricDimension
 15
-209.868092047672
 25
249.3110707175008
 35
0.0
 40
0.0
  0
DIMENSION
  5
178
330
22
100
AcDbEntity
  8
0
  6
Continuous
 62
     7
100
AcDbDimension
  2
*D3
 10
-301.7766609079851
 20
210.1942280711738
 30
0.0
 11
-187.7936096191406
 21
235.9637451171875
 31
0.0
 70
     3
 71
     5
 42
-1.0
  3
DIMSTYLE3
100
AcDbDiametricDimension
 15
-221.7952385060774
 25
228.2765971241387
 35
0.0
 40
0.0
  0
DIMENSION
  5
179
330
22
100
AcDbEntity
  8
0
  6
Continuous
 62
     7
100
AcDbDimension
  2
*D4
 10
-354.9178771972656
 20
119.1358871459961
 30
0.0
 11
-354.9178771972656
 21
90.63588714599609
 31
0.0
 71
     5
 42
-1.0
  3
DIMSTYLE4
100
AcDbAlignedDimension
 13
-318.2859497070313
 23
62.13588714599609
 33
0.0
 14
-321.2859497070313
 24
119.1358871459961
 34
0.0
 50
90.0
100
AcDbRotatedDimension
  0
INSERT
  5
17A
330
22
100
AcDbEntity
  8
0
  6
Continuous
 62
     7
100
AcDbBlockReference
  2
KOZU0001
 10
-219.6379547119141
 20
75.23588562011719
 30
0.0
  0
ENDSEC
  0
SECTION
  2
OBJECTS
  0
DICTIONARY
  5
C
330
0
100
AcDbDictionary
281
     1
  3
ACAD_COLOR
350
1B
  3
ACAD_GROUP
350
D
  3
ACAD_LAYOUT
350
19
  3
ACAD_MATERIAL
350
1A
  3
ACAD_MLINESTYLE
350
16
  3
ACAD_PLOTSETTINGS
350
18
  3
ACAD_PLOTSTYLENAME
350
E
  3
ACAD_TABLESTYLE
350
1C
  3
AcDbVariableDictionary
350
186
  0
DICTIONARY
  5
1B
102
{ACAD_REACTORS
330
C
102
}
330
C
100
AcDbDictionary
281
     1
  0
DICTIONARY
  5
D
102
{ACAD_REACTORS
330
C
102
}
330
C
100
AcDbDictionary
281
     1
  0
DICTIONARY
  5
19
102
{ACAD_REACTORS
330
C
102
}
330
C
100
AcDbDictionary
281
     1
  3
Model
350
25
  3
レイアウト1
350
21
  0
DICTIONARY
  5
1A
102
{ACAD_REACTORS
330
C
102
}
330
C
100
AcDbDictionary
281
     1
  0
DICTIONARY
  5
16
102
{ACAD_REACTORS
330
C
102
}
330
C
100
AcDbDictionary
281
     1
  3
Standard
350
17
  0
DICTIONARY
  5
18
102
{ACAD_REACTORS
330
C
102
}
330
C
100
AcDbDictionary
281
     1
  0
ACDBDICTIONARYWDFLT
  5
E
102
{ACAD_REACTORS
330
C
102
}
330
C
100
AcDbDictionary
281
     1
  3
Normal
350
F
100
AcDbDictionaryWithDefault
340
F
  0
DICTIONARY
  5
1C
102
{ACAD_REACTORS
330
C
102
}
330
C
100
AcDbDictionary
281
     1
  3
Standard
350
1D
  0
DICTIONARY
  5
186
102
{ACAD_REACTORS
330
C
102
}
330
C
100
AcDbDictionary
281
     1
  3
CTABLESTYLE
350
187
  0
LAYOUT
  5
25
102
{ACAD_REACTORS
330
19
102
}
330
19
100
AcDbPlotSettings
  1

  2
PDF reDirect v2
  4
A3
  6

 40
3.174999952316284
 41
3.174999952316284
 42
3.17498779296875
 43
3.17498779296875
 44
297.0530090332031
 45
420.1583251953125
 46
0.0
 47
0.0
 48
0.0
 49
0.0
140
0.0
141
0.0
142
1.0
143
1.0
 70
 11952
 72
     1
 73
     1
 74
     2
  7
C:\Users\ck\AppData\Roaming\Autodesk\AutoCAD 2005\R16.1\jpn\Plot Styles\black.ctb
 75
    16
147
1.0
 76
     0
 77
     2
 78
   300
148
423.0
149
2.0
100
AcDbLayout
  1
Model
 70
     1
 71
     0
 10
0.0
 20
0.0
 11
12.0
 21
9.0
 12
0.0
 22
0.0
 32
0.0
 14
0.0
 24
0.0
 34
0.0
 15
0.0
 25
0.0
 35
0.0
146
0.0
 13
0.0
 23
0.0
 33
0.0
 16
1.0
 26
0.0
 36
0.0
 17
0.0
 27
1.0
 37
0.0
 76
     0
330
22
1001
ACAD_PSEXT
1000
PDF reDirect v2
1000
PDF reDirect Pro
1000
PDF_REDIRECT_PORT:
1000
PDF reDirect provided by EXP Systems
1070
     0
  0
LAYOUT
  5
21
102
{ACAD_REACTORS
330
19
102
}
330
19
100
AcDbPlotSettings
  1

  2
PDF reDirect v2
  4

  6

 40
0.0
 41
0.0
 42
0.0
 43
0.0
 44
0.0
 45
0.0
 46
0.0
 47
0.0
 48
0.0
 49
0.0
140
0.0
141
0.0
142
1.0
143
1.0
 70
   688
 72
     0
 73
     0
 74
     5
  7
C:\Users\ck\AppData\Roaming\Autodesk\AutoCAD 2005\R16.1\jpn\Plot Styles\black.ctb
 75
    16
147
1.0
 76
     0
 77
     2
 78
   300
148
0.0
149
0.0
100
AcDbLayout
  1
レイアウト1
 70
     1
 71
     1
 10
-423.0
 20
-2.0
 11
-5.0
 21
293.0
 12
0.0
 22
0.0
 32
0.0
 14
1.000000000000000E+20
 24
1.000000000000000E+20
 34
1.000000000000000E+20
 15
-1.000000000000000E+20
 25
-1.000000000000000E+20
 35
-1.000000000000000E+20
146
0.0
 13
0.0
 23
0.0
 33
0.0
 16
1.0
 26
0.0
 36
0.0
 17
0.0
 27
1.0
 37
0.0
 76
     0
330
1E
  0
MLINESTYLE
  5
17
102
{ACAD_REACTORS
330
16
102
}
330
16
100
AcDbMlineStyle
  2
STANDARD
 70
     0
  3

 62
   256
 51
90.0
 52
90.0
 71
     2
 49
0.5
 62
   256
  6
BYLAYER
 49
-0.5
 62
   256
  6
BYLAYER
  0
ACDBPLACEHOLDER
  5
F
102
{ACAD_REACTORS
330
E
102
}
330
E
  0
TABLESTYLE
  5
1D
102
{ACAD_REACTORS
330
1C
102
}
330
1C
100
AcDbTableStyle
  3
Standard
 70
     0
 71
     0
 40
0.06
 41
0.06
280
     0
281
     0
  7
STANDARD
140
0.18
170
     2
 62
     0
 63
     7
283
     0
274
    -2
284
     1
 64
     0
275
    -2
285
     1
 65
     0
276
    -2
286
     1
 66
     0
277
    -2
287
     1
 67
     0
278
    -2
288
     1
 68
     0
279
    -2
289
     1
 69
     0
  7
STANDARD
140
0.25
170
     5
 62
     0
 63
     7
283
     0
274
    -2
284
     1
 64
     0
275
    -2
285
     1
 65
     0
276
    -2
286
     1
 66
     0
277
    -2
287
     1
 67
     0
278
    -2
288
     1
 68
     0
279
    -2
289
     1
 69
     0
  7
STANDARD
140
0.18
170
     5
 62
     0
 63
     7
283
     0
274
    -2
284
     1
 64
     0
275
    -2
285
     1
 65
     0
276
    -2
286
     1
 66
     0
277
    -2
287
     1
 67
     0
278
    -2
288
     1
 68
     0
279
    -2
289
     1
 69
     0
  0
DICTIONARYVAR
  5
187
102
{ACAD_REACTORS
330
186
102
}
330
186
100
DictionaryVariables
280
     0
  1
STANDARD
  0
ENDSEC
  0
EOF
