  0
SECTION
  2
HEADER
  9
$ACADVER
  1
AC1018
  9
$ACADMAINTVER
 70
    39
  9
$DWGCODEPAGE
  3
ANSI_932
  9
$INSBASE
 10
0.0
 20
0.0
 30
0.0
  9
$EXTMIN
 10
-540.6080909608959
 20
31.58986042159359
 30
-0.0015258207003583
  9
$EXTMAX
 10
-271.7634871324567
 20
543.0876630634158
 30
0.0000000349246037
  9
$LIMMIN
 10
-839.0
 20
0.0
  9
$LIMMAX
 10
0.0
 20
591.0
  9
$ORTHOMODE
 70
     0
  9
$REGENMODE
 70
     1
  9
$FILLMODE
 70
     1
  9
$QTEXTMODE
 70
     0
  9
$MIRRTEXT
 70
     0
  9
$LTSCALE
 40
1.0
  9
$ATTMODE
 70
     1
  9
$TEXTSIZE
 40
0.2
  9
$TRACEWID
 40
0.05
  9
$TEXTSTYLE
  7
STANDARD
  9
$CLAYER
  8
0
  9
$CELTYPE
  6
CONTINUOUS
  9
$CECOLOR
 62
   256
  9
$CELTSCALE
 40
1.0
  9
$DISPSILH
 70
     0
  9
$DIMSCALE
 40
1.0
  9
$DIMASZ
 40
1.0
  9
$DIMEXO
 40
2.54
  9
$DIMDLI
 40
0.38
  9
$DIMRND
 40
0.0
  9
$DIMDLE
 40
0.0
  9
$DIMEXE
 40
2.54
  9
$DIMTP
 40
0.0
  9
$DIMTM
 40
0.0
  9
$DIMTXT
 40
3.0
  9
$DIMCEN
 40
0.09
  9
$DIMTSZ
 40
0.0
  9
$DIMTOL
 70
     0
  9
$DIMLIM
 70
     0
  9
$DIMTIH
 70
     0
  9
$DIMTOH
 70
     0
  9
$DIMSE1
 70
     0
  9
$DIMSE2
 70
     0
  9
$DIMTAD
 70
     1
  9
$DIMZIN
 70
     0
  9
$DIMBLK
  1

  9
$DIMASO
 70
     1
  9
$DIMSHO
 70
     0
  9
$DIMPOST
  1

  9
$DIMAPOST
  1

  9
$DIMALT
 70
     0
  9
$DIMALTD
 70
     2
  9
$DIMALTF
 40
25.4
  9
$DIMLFAC
 40
1.0
  9
$DIMTOFL
 70
     0
  9
$DIMTVP
 40
1.0
  9
$DIMTIX
 70
     0
  9
$DIMSOXD
 70
     0
  9
$DIMSAH
 70
     1
  9
$DIMBLK1
  1

  9
$DIMBLK2
  1

  9
$DIMSTYLE
  2
DIMSTYLE1
  9
$DIMCLRD
 70
     0
  9
$DIMCLRE
 70
     0
  9
$DIMCLRT
 70
     0
  9
$DIMTFAC
 40
1.0
  9
$DIMGAP
 40
1.5
  9
$DIMJUST
 70
     0
  9
$DIMSD1
 70
     0
  9
$DIMSD2
 70
     0
  9
$DIMTOLJ
 70
     1
  9
$DIMTZIN
 70
     0
  9
$DIMALTZ
 70
     0
  9
$DIMALTTZ
 70
     0
  9
$DIMUPT
 70
     0
  9
$DIMDEC
 70
     4
  9
$DIMTDEC
 70
     4
  9
$DIMALTU
 70
     2
  9
$DIMALTTD
 70
     2
  9
$DIMTXSTY
  7
STANDARD
  9
$DIMAUNIT
 70
     0
  9
$DIMADEC
 70
     0
  9
$DIMALTRND
 40
0.0
  9
$DIMAZIN
 70
     0
  9
$DIMDSEP
 70
    46
  9
$DIMATFIT
 70
     3
  9
$DIMFRAC
 70
     0
  9
$DIMLDRBLK
  1

  9
$DIMLUNIT
 70
     2
  9
$DIMLWD
 70
    -2
  9
$DIMLWE
 70
    -2
  9
$DIMTMOVE
 70
     0
  9
$LUNITS
 70
     2
  9
$LUPREC
 70
     4
  9
$SKETCHINC
 40
0.1
  9
$FILLETRAD
 40
0.0
  9
$AUNITS
 70
     0
  9
$AUPREC
 70
     0
  9
$MENU
  1
.
  9
$ELEVATION
 40
0.0
  9
$PELEVATION
 40
0.0
  9
$THICKNESS
 40
0.0
  9
$LIMCHECK
 70
     0
  9
$CHAMFERA
 40
0.0
  9
$CHAMFERB
 40
0.0
  9
$CHAMFERC
 40
0.0
  9
$CHAMFERD
 40
0.0
  9
$SKPOLY
 70
     0
  9
$TDCREATE
 40
2457843.937404827
  9
$TDUCREATE
 40
2457843.562404827
  9
$TDUPDATE
 40
2457843.937885764
  9
$TDUUPDATE
 40
2457843.562885764
  9
$TDINDWG
 40
0.0004817477
  9
$TDUSRTIMER
 40
0.0004817477
  9
$USRTIMER
 70
     1
  9
$ANGBASE
 50
0.0
  9
$ANGDIR
 70
     0
  9
$PDMODE
 70
     0
  9
$PDSIZE
 40
0.0
  9
$PLINEWID
 40
0.0
  9
$SPLFRAME
 70
     0
  9
$SPLINETYPE
 70
     6
  9
$SPLINESEGS
 70
     8
  9
$HANDSEED
  5
2B6
  9
$SURFTAB1
 70
     6
  9
$SURFTAB2
 70
     6
  9
$SURFTYPE
 70
     6
  9
$SURFU
 70
     6
  9
$SURFV
 70
     6
  9
$UCSBASE
  2

  9
$UCSNAME
  2

  9
$UCSORG
 10
0.0
 20
0.0
 30
0.0
  9
$UCSXDIR
 10
1.0
 20
0.0
 30
0.0
  9
$UCSYDIR
 10
0.0
 20
1.0
 30
0.0
  9
$UCSORTHOREF
  2

  9
$UCSORTHOVIEW
 70
     0
  9
$UCSORGTOP
 10
0.0
 20
0.0
 30
0.0
  9
$UCSORGBOTTOM
 10
0.0
 20
0.0
 30
0.0
  9
$UCSORGLEFT
 10
0.0
 20
0.0
 30
0.0
  9
$UCSORGRIGHT
 10
0.0
 20
0.0
 30
0.0
  9
$UCSORGFRONT
 10
0.0
 20
0.0
 30
0.0
  9
$UCSORGBACK
 10
0.0
 20
0.0
 30
0.0
  9
$PUCSBASE
  2

  9
$PUCSNAME
  2

  9
$PUCSORG
 10
0.0
 20
0.0
 30
0.0
  9
$PUCSXDIR
 10
1.0
 20
0.0
 30
0.0
  9
$PUCSYDIR
 10
0.0
 20
1.0
 30
0.0
  9
$PUCSORTHOREF
  2

  9
$PUCSORTHOVIEW
 70
     0
  9
$PUCSORGTOP
 10
0.0
 20
0.0
 30
0.0
  9
$PUCSORGBOTTOM
 10
0.0
 20
0.0
 30
0.0
  9
$PUCSORGLEFT
 10
0.0
 20
0.0
 30
0.0
  9
$PUCSORGRIGHT
 10
0.0
 20
0.0
 30
0.0
  9
$PUCSORGFRONT
 10
0.0
 20
0.0
 30
0.0
  9
$PUCSORGBACK
 10
0.0
 20
0.0
 30
0.0
  9
$USERI1
 70
     0
  9
$USERI2
 70
     0
  9
$USERI3
 70
     0
  9
$USERI4
 70
     0
  9
$USERI5
 70
     0
  9
$USERR1
 40
0.0
  9
$USERR2
 40
0.0
  9
$USERR3
 40
0.0
  9
$USERR4
 40
0.0
  9
$USERR5
 40
0.0
  9
$WORLDVIEW
 70
     1
  9
$SHADEDGE
 70
     3
  9
$SHADEDIF
 70
    70
  9
$TILEMODE
 70
     1
  9
$MAXACTVP
 70
    64
  9
$PINSBASE
 10
0.0
 20
0.0
 30
0.0
  9
$PLIMCHECK
 70
     0
  9
$PEXTMIN
 10
1.000000000000000E+20
 20
1.000000000000000E+20
 30
1.000000000000000E+20
  9
$PEXTMAX
 10
-1.000000000000000E+20
 20
-1.000000000000000E+20
 30
-1.000000000000000E+20
  9
$PLIMMIN
 10
-839.0
 20
0.0
  9
$PLIMMAX
 10
0.0
 20
591.0
  9
$UNITMODE
 70
     0
  9
$VISRETAIN
 70
     1
  9
$PLINEGEN
 70
     0
  9
$PSLTSCALE
 70
     1
  9
$TREEDEPTH
 70
  3020
  9
$CMLSTYLE
  2
Standard
  9
$CMLJUST
 70
     0
  9
$CMLSCALE
 40
1.0
  9
$PROXYGRAPHICS
 70
     1
  9
$MEASUREMENT
 70
     0
  9
$CELWEIGHT
370
    -1
  9
$ENDCAPS
280
     0
  9
$JOINSTYLE
280
     0
  9
$LWDISPLAY
290
     0
  9
$INSUNITS
 70
     0
  9
$HYPERLINKBASE
  1

  9
$STYLESHEET
  1

  9
$XEDIT
290
     1
  9
$CEPSNTYPE
380
     0
  9
$PSTYLEMODE
290
     1
  9
$FINGERPRINTGUID
  2
{6C60AB25-3042-4B2D-87C7-F29F7D8CCCE3}
  9
$VERSIONGUID
  2
{ECECAC30-8CB4-4332-87E5-7D138938E283}
  9
$EXTNAMES
290
     1
  9
$PSVPSCALE
 40
0.0
  9
$OLESTARTUP
290
     0
  9
$SORTENTS
280
   127
  9
$INDEXCTL
280
     0
  9
$HIDETEXT
280
     0
  9
$XCLIPFRAME
290
     0
  9
$HALOGAP
280
     0
  9
$OBSCOLOR
 70
   257
  9
$OBSLTYPE
280
     0
  9
$INTERSECTIONDISPLAY
280
     0
  9
$INTERSECTIONCOLOR
 70
   257
  9
$DIMASSOC
280
     1
  9
$PROJECTNAME
  1

  0
ENDSEC
  0
SECTION
  2
CLASSES
  0
CLASS
  1
ACDBDICTIONARYWDFLT
  2
AcDbDictionaryWithDefault
  3
ObjectDBX Classes
 90
        0
 91
        1
280
     0
281
     0
  0
CLASS
  1
TABLESTYLE
  2
AcDbTableStyle
  3
ObjectDBX Classes
 90
     2047
 91
        1
280
     0
281
     0
  0
CLASS
  1
DICTIONARYVAR
  2
AcDbDictionaryVar
  3
ObjectDBX Classes
 90
        0
 91
        1
280
     0
281
     0
  0
ENDSEC
  0
SECTION
  2
TABLES
  0
TABLE
  2
VPORT
  5
8
330
0
100
AcDbSymbolTable
 70
     2
  0
VPORT
  5
2B5
330
8
100
AcDbSymbolTableRecord
100
AcDbViewportTableRecord
  2
*Active
 70
     0
 10
0.0
 20
0.0
 11
1.0
 21
1.0
 12
-419.5
 22
295.5
 13
0.0
 23
0.0
 14
1.0
 24
1.0
 15
0.0
 25
0.0
 16
0.0
 26
0.0
 36
1.0
 17
0.0
 27
0.0
 37
0.0
 40
595.6719367588932
 41
1.707124010554089
 42
50.0
 43
0.0
 44
0.0
 50
0.0
 51
0.0
 71
     0
 72
   100
 73
     1
 74
     1
 75
     0
 76
     0
 77
     0
 78
     0
281
     0
 65
     1
110
0.0
120
0.0
130
0.0
111
1.0
121
0.0
131
0.0
112
0.0
122
1.0
132
0.0
 79
     0
146
0.0
  0
ENDTAB
  0
TABLE
  2
LTYPE
  5
5
330
0
100
AcDbSymbolTable
 70
     6
  0
LTYPE
  5
13
330
5
100
AcDbSymbolTableRecord
100
AcDbLinetypeTableRecord
  2
ByBlock
 70
     0
  3

 72
    65
 73
     0
 40
0.0
  0
LTYPE
  5
14
330
5
100
AcDbSymbolTableRecord
100
AcDbLinetypeTableRecord
  2
ByLayer
 70
     0
  3

 72
    65
 73
     0
 40
0.0
  0
LTYPE
  5
15
330
5
100
AcDbSymbolTableRecord
100
AcDbLinetypeTableRecord
  2
CONTINUOUS
 70
     0
  3
Solid line
 72
    65
 73
     0
 40
0.0
  0
LTYPE
  5
26
330
5
100
AcDbSymbolTableRecord
100
AcDbLinetypeTableRecord
  2
DASHED
 70
     0
  3
__ __ __ __ __ __ __ __ __ __ __ __ __ __ __
 72
    65
 73
     2
 40
3.5
 49
2.0
 74
     0
 49
-1.5
 74
     0
  0
LTYPE
  5
27
330
5
100
AcDbSymbolTableRecord
100
AcDbLinetypeTableRecord
  2
CENTER
 70
     0
  3
____ _ ____ _ ____ _ ____ _ ____ _ ____ _ ____
 72
    65
 73
     4
 40
17.5
 49
13.0
 74
     0
 49
-1.5
 74
     0
 49
1.5
 74
     0
 49
-1.5
 74
     0
  0
LTYPE
  5
28
330
5
100
AcDbSymbolTableRecord
100
AcDbLinetypeTableRecord
  2
PHANTOM
 70
     0
  3
_____ _ _ _____ _ _ _____ _ _ _____ _ _ ____  
 72
    65
 73
     6
 40
15.5
 49
8.0
 74
     0
 49
-1.5
 74
     0
 49
1.5
 74
     0
 49
-1.5
 74
     0
 49
1.5
 74
     0
 49
-1.5
 74
     0
  0
LTYPE
  5
29
330
5
100
AcDbSymbolTableRecord
100
AcDbLinetypeTableRecord
  2
DOT
 70
     0
  3
. . . . . . . . . . . . . . . . . . . . . . . .
 72
    65
 73
     2
 40
0.25
 49
0.0
 74
     0
 49
-0.25
 74
     0
  0
LTYPE
  5
2A
330
5
100
AcDbSymbolTableRecord
100
AcDbLinetypeTableRecord
  2
HIDDEN
 70
     0
  3
__ __ __ __ __ __ __ __ __ __ __ __ __ __ __
 72
    65
 73
     2
 40
3.5
 49
2.0
 74
     0
 49
-1.5
 74
     0
  0
ENDTAB
  0
TABLE
  2
LAYER
  5
2
330
0
100
AcDbSymbolTable
 70
     2
  0
LAYER
  5
10
330
2
100
AcDbSymbolTableRecord
100
AcDbLayerTableRecord
  2
0
 70
     0
 62
     7
  6
CONTINUOUS
370
    -3
390
F
  0
LAYER
  5
2B
330
2
100
AcDbSymbolTableRecord
100
AcDbLayerTableRecord
  2
DEFPOINTS
 70
     0
 62
     7
  6
CONTINUOUS
290
     0
370
    -3
390
F
  0
ENDTAB
  0
TABLE
  2
STYLE
  5
3
330
0
100
AcDbSymbolTable
 70
     2
  0
STYLE
  5
11
330
3
100
AcDbSymbolTableRecord
100
AcDbTextStyleTableRecord
  2
STANDARD
 70
     0
 40
0.0
 41
1.0
 50
0.0
 71
     0
 42
0.2
  3

  4

1001
ACAD
1000
MS Gothic
1071
    32817
  0
ENDTAB
  0
TABLE
  2
VIEW
  5
6
330
0
100
AcDbSymbolTable
 70
     0
  0
ENDTAB
  0
TABLE
  2
UCS
  5
7
330
0
100
AcDbSymbolTable
 70
     0
  0
ENDTAB
  0
TABLE
  2
APPID
  5
9
330
0
100
AcDbSymbolTable
 70
     2
  0
APPID
  5
12
330
9
100
AcDbSymbolTableRecord
100
AcDbRegAppTableRecord
  2
ACAD
 70
     0
  0
APPID
  5
2AA
330
9
100
AcDbSymbolTableRecord
100
AcDbRegAppTableRecord
  2
ACAD_PSEXT
 70
     0
  0
ENDTAB
  0
TABLE
  2
DIMSTYLE
  5
A
330
0
100
AcDbSymbolTable
 70
    13
100
AcDbDimStyleTable
 71
     1
340
2C
  0
DIMSTYLE
105
2C
102
{ACAD_REACTORS
330
29A
102
}
330
A
100
AcDbSymbolTableRecord
100
AcDbDimStyleTableRecord
  2
DIMSTYLE1
 70
     0
 41
1.0
 42
2.54
 44
2.54
 73
     0
 74
     0
 75
     1
 76
     1
 77
     1
140
3.0
145
1.0
147
1.5
172
     1
173
     1
279
     2
340
11
  0
DIMSTYLE
105
2D
102
{ACAD_REACTORS
330
29B
102
}
330
A
100
AcDbSymbolTableRecord
100
AcDbDimStyleTableRecord
  2
DIMSTYLE2
 70
     0
 41
1.0
 42
2.54
 44
2.54
 73
     0
 74
     0
 77
     1
140
3.0
145
1.0
147
1.5
172
     1
173
     1
279
     2
340
11
  0
DIMSTYLE
105
2E
102
{ACAD_REACTORS
330
29D
102
}
330
A
100
AcDbSymbolTableRecord
100
AcDbDimStyleTableRecord
  2
DIMSTYLE3
 70
     0
 41
1.0
 42
2.54
 44
2.54
 73
     0
 74
     0
 75
     1
 76
     1
 77
     1
140
3.0
145
1.0
147
1.5
172
     1
173
     1
279
     2
340
11
  0
DIMSTYLE
105
2F
102
{ACAD_REACTORS
330
29E
102
}
330
A
100
AcDbSymbolTableRecord
100
AcDbDimStyleTableRecord
  2
DIMSTYLE4
 70
     0
 41
1.0
 42
2.54
 44
2.54
 73
     0
 74
     0
 75
     1
 76
     1
 77
     1
140
3.0
145
1.0
147
1.5
172
     1
173
     1
279
     2
340
11
  0
DIMSTYLE
105
30
102
{ACAD_REACTORS
330
29F
102
}
330
A
100
AcDbSymbolTableRecord
100
AcDbDimStyleTableRecord
  2
DIMSTYLE5
 70
     0
 41
1.0
 42
2.54
 44
2.54
 73
     0
 74
     0
 75
     1
 76
     1
 77
     1
140
3.0
145
1.0
147
1.5
172
     1
173
     1
279
     2
340
11
  0
DIMSTYLE
105
31
102
{ACAD_REACTORS
330
2A0
102
}
330
A
100
AcDbSymbolTableRecord
100
AcDbDimStyleTableRecord
  2
DIMSTYLE6
 70
     0
 41
1.0
 42
2.54
 44
2.54
 73
     0
 74
     0
 75
     1
 76
     1
 77
     1
140
3.0
145
1.0
147
1.5
172
     1
173
     1
279
     2
340
11
  0
DIMSTYLE
105
32
102
{ACAD_REACTORS
330
2A1
102
}
330
A
100
AcDbSymbolTableRecord
100
AcDbDimStyleTableRecord
  2
DIMSTYLE7
 70
     0
 41
1.0
 42
2.54
 44
2.54
 73
     0
 74
     0
 77
     1
140
3.0
145
1.0
147
1.5
172
     1
173
     1
279
     2
340
11
  0
DIMSTYLE
105
33
102
{ACAD_REACTORS
330
2A2
102
}
330
A
100
AcDbSymbolTableRecord
100
AcDbDimStyleTableRecord
  2
DIMSTYLE8
 70
     0
 41
1.0
 42
2.54
 44
2.54
 73
     0
 74
     0
 77
     1
140
3.0
145
1.0
147
1.5
172
     1
173
     1
279
     2
340
11
  0
DIMSTYLE
105
34
102
{ACAD_REACTORS
330
2A3
102
}
330
A
100
AcDbSymbolTableRecord
100
AcDbDimStyleTableRecord
  2
DIMSTYLE9
 70
     0
 41
1.0
 42
2.54
 44
2.54
 73
     0
 74
     0
 77
     1
140
3.0
145
1.0
147
1.5
172
     1
173
     1
279
     2
340
11
  0
DIMSTYLE
105
35
102
{ACAD_REACTORS
330
2A4
102
}
330
A
100
AcDbSymbolTableRecord
100
AcDbDimStyleTableRecord
  2
DIMSTYLE10
 70
     0
 41
1.0
 42
2.54
 44
2.54
 73
     0
 74
     0
 77
     1
140
3.0
145
1.0
147
1.5
172
     1
173
     1
279
     2
340
11
  0
DIMSTYLE
105
36
102
{ACAD_REACTORS
330
2A5
102
}
330
A
100
AcDbSymbolTableRecord
100
AcDbDimStyleTableRecord
  2
DIMSTYLE11
 70
     0
 41
1.0
 42
2.54
 44
2.54
 73
     0
 74
     0
 77
     1
140
3.0
145
1.0
147
1.5
172
     1
173
     1
279
     2
340
11
  0
DIMSTYLE
105
37
102
{ACAD_REACTORS
330
2A7
102
}
330
A
100
AcDbSymbolTableRecord
100
AcDbDimStyleTableRecord
  2
DIMSTYLE12
 70
     0
 41
1.0
 42
2.54
 44
2.54
 73
     0
 74
     0
 77
     1
140
3.0
145
1.0
147
1.5
172
     1
173
     1
279
     2
340
11
  0
ENDTAB
  0
TABLE
  2
BLOCK_RECORD
  5
1
330
0
100
AcDbSymbolTable
 70
    16
  0
BLOCK_RECORD
  5
22
330
1
100
AcDbSymbolTableRecord
100
AcDbBlockTableRecord
  2
*Model_Space
340
25
  0
BLOCK_RECORD
  5
1E
330
1
100
AcDbSymbolTableRecord
100
AcDbBlockTableRecord
  2
*Paper_Space
340
21
  0
BLOCK_RECORD
  5
3B
330
1
100
AcDbSymbolTableRecord
100
AcDbBlockTableRecord
  2
_OPEN30
340
0
102
{BLKREFS
331
45
331
46
331
4E
331
4F
331
59
331
5A
331
63
331
64
331
6C
331
6D
331
75
331
76
331
7E
331
7F
331
8B
331
8D
331
98
331
99
331
A3
331
A4
331
AE
331
AF
331
BA
331
BB
102
}
  0
BLOCK_RECORD
  5
41
330
1
100
AcDbSymbolTableRecord
100
AcDbBlockTableRecord
  2
*D1
340
0
  0
BLOCK_RECORD
  5
4B
330
1
100
AcDbSymbolTableRecord
100
AcDbBlockTableRecord
  2
*D2
340
0
  0
BLOCK_RECORD
  5
55
330
1
100
AcDbSymbolTableRecord
100
AcDbBlockTableRecord
  2
*D3
340
0
  0
BLOCK_RECORD
  5
5F
330
1
100
AcDbSymbolTableRecord
100
AcDbBlockTableRecord
  2
*D4
340
0
  0
BLOCK_RECORD
  5
69
330
1
100
AcDbSymbolTableRecord
100
AcDbBlockTableRecord
  2
*D5
340
0
  0
BLOCK_RECORD
  5
72
330
1
100
AcDbSymbolTableRecord
100
AcDbBlockTableRecord
  2
*D6
340
0
  0
BLOCK_RECORD
  5
7B
330
1
100
AcDbSymbolTableRecord
100
AcDbBlockTableRecord
  2
*D7
340
0
  0
BLOCK_RECORD
  5
87
330
1
100
AcDbSymbolTableRecord
100
AcDbBlockTableRecord
  2
*D8
340
0
  0
BLOCK_RECORD
  5
95
330
1
100
AcDbSymbolTableRecord
100
AcDbBlockTableRecord
  2
*D9
340
0
  0
BLOCK_RECORD
  5
A0
330
1
100
AcDbSymbolTableRecord
100
AcDbBlockTableRecord
  2
*D10
340
0
  0
BLOCK_RECORD
  5
AB
330
1
100
AcDbSymbolTableRecord
100
AcDbBlockTableRecord
  2
*D11
340
0
  0
BLOCK_RECORD
  5
B7
330
1
100
AcDbSymbolTableRecord
100
AcDbBlockTableRecord
  2
*D12
340
0
  0
BLOCK_RECORD
  5
C3
330
1
100
AcDbSymbolTableRecord
100
AcDbBlockTableRecord
  2
KOZU0001
340
0
102
{BLKREFS
331
29C
102
}
  0
BLOCK_RECORD
  5
CB
330
1
100
AcDbSymbolTableRecord
100
AcDbBlockTableRecord
  2
KOZU0002
340
0
102
{BLKREFS
331
2A6
102
}
  0
ENDTAB
  0
ENDSEC
  0
SECTION
  2
BLOCKS
  0
BLOCK
  5
23
330
22
100
AcDbEntity
  8
0
100
AcDbBlockBegin
  2
*Model_Space
 70
     0
 10
0.0
 20
0.0
 30
0.0
  3
*Model_Space
  1

  0
ENDBLK
  5
24
330
22
100
AcDbEntity
  8
0
100
AcDbBlockEnd
  0
BLOCK
  5
1F
330
1E
100
AcDbEntity
 67
     1
  8
0
100
AcDbBlockBegin
  2
*Paper_Space
 70
     0
 10
0.0
 20
0.0
 30
0.0
  3
*Paper_Space
  1

  0
ENDBLK
  5
20
330
1E
100
AcDbEntity
 67
     1
  8
0
100
AcDbBlockEnd
  0
BLOCK
  5
3C
330
3B
100
AcDbEntity
  8
0
100
AcDbBlockBegin
  2
_OPEN30
 70
     0
 10
0.0
 20
0.0
 30
0.0
  3
_OPEN30
  1

  0
LINE
  5
3D
330
3B
100
AcDbEntity
  8
0
  6
ByBlock
 62
     0
100
AcDbLine
 10
0.0
 20
0.0
 30
0.0
 11
-2.999999999999993
 21
-1.000000000000017
 31
0.0
  0
LINE
  5
3E
330
3B
100
AcDbEntity
  8
0
  6
ByBlock
 62
     0
100
AcDbLine
 10
0.0
 20
0.0
 30
0.0
 11
-3.000000000000006
 21
0.9999999999999815
 31
0.0
  0
LINE
  5
3F
330
3B
100
AcDbEntity
  8
0
  6
ByBlock
 62
     0
100
AcDbLine
 10
0.0
 20
0.0
 30
0.0
 11
-3.0
 21
0.0
 31
0.0
  0
ENDBLK
  5
40
330
3B
100
AcDbEntity
  8
0
100
AcDbBlockEnd
  0
BLOCK
  5
42
330
41
100
AcDbEntity
  8
0
100
AcDbBlockBegin
  2
*D1
 70
     1
 10
0.0
 20
0.0
 30
0.0
  3
*D1
  1

  0
LINE
  5
43
330
41
100
AcDbEntity
  8
0
  6
Continuous
 62
     7
100
AcDbLine
 10
-437.1743164062499
 20
415.9341735839843
 30
0.0
 11
-443.080810546875
 21
405.6299438476562
 31
0.0
  0
LINE
  5
44
330
41
100
AcDbEntity
  8
0
  6
Continuous
 62
     7
100
AcDbLine
 10
-419.768676148783
 20
446.2993401605173
 30
0.0
 11
-435.6824041734825
 21
418.5369025152637
 31
0.0
  0
INSERT
  5
45
330
41
100
AcDbEntity
  8
0
  6
Continuous
 62
     7
100
AcDbBlockReference
  2
_OPEN30
 10
-418.2767639160156
 20
448.9020690917969
 30
0.0
 50
60.17820108304536
  0
INSERT
  5
46
330
41
100
AcDbEntity
  8
0
  6
Continuous
 62
     7
100
AcDbBlockReference
  2
_OPEN30
 10
-437.1743164062499
 20
415.9341735839843
 30
0.0
 50
240.1782010830461
  0
TEXT
  5
47
330
41
100
AcDbEntity
  8
0
  6
Continuous
 62
     7
100
AcDbText
 10
-443.7302707117961
 20
406.0019049986734
 30
0.0
 40
3.0
  1
%%C38
 50
60.20000326892843
 41
0.9498249830693319
100
AcDbText
  0
POINT
  5
48
330
41
100
AcDbEntity
  8
DEFPOINTS
  6
Continuous
 62
     7
100
AcDbPoint
 10
-418.2767639160156
 20
448.9020690917969
 30
0.0
  0
POINT
  5
49
330
41
100
AcDbEntity
  8
DEFPOINTS
  6
Continuous
 62
     7
100
AcDbPoint
 10
-437.1743164062499
 20
415.9341735839843
 30
0.0
  0
ENDBLK
  5
4A
330
41
100
AcDbEntity
  8
0
100
AcDbBlockEnd
  0
BLOCK
  5
4C
330
4B
100
AcDbEntity
  8
0
100
AcDbBlockBegin
  2
*D2
 70
     1
 10
0.0
 20
0.0
 30
0.0
  3
*D2
  1

  0
LINE
  5
4D
330
4B
100
AcDbEntity
  8
0
  6
Continuous
 62
     7
100
AcDbLine
 10
-401.8214416503906
 20
115.3186111450195
 30
0.0
 11
-401.8214416503906
 21
209.318603515625
 31
0.0
  0
INSERT
  5
4E
330
4B
100
AcDbEntity
  8
0
  6
Continuous
 62
     7
100
AcDbBlockReference
  2
_OPEN30
 10
-401.8214416503906
 20
112.3186111450195
 30
0.0
 50
270.0000000000005
  0
INSERT
  5
4F
330
4B
100
AcDbEntity
  8
0
  6
Continuous
 62
     7
100
AcDbBlockReference
  2
_OPEN30
 10
-401.8214416503906
 20
212.318603515625
 30
0.0
 50
90.00000000000019
  0
TEXT
  5
50
330
4B
100
AcDbEntity
  8
0
  6
Continuous
 62
     7
100
AcDbText
 10
-402.5714414724852
 20
158.2486033111801
 30
0.0
 40
3.0
  1
100
 50
90.00000250447815
 41
1.320000017011488
100
AcDbText
  0
POINT
  5
51
330
4B
100
AcDbEntity
  8
DEFPOINTS
  6
Continuous
 62
     7
100
AcDbPoint
 10
-390.6720275878906
 20
112.3186111450195
 30
0.0
  0
POINT
  5
52
330
4B
100
AcDbEntity
  8
DEFPOINTS
  6
Continuous
 62
     7
100
AcDbPoint
 10
-404.2399597167968
 20
212.318603515625
 30
0.0
  0
POINT
  5
53
330
4B
100
AcDbEntity
  8
DEFPOINTS
  6
Continuous
 62
     7
100
AcDbPoint
 10
-401.8214416503906
 20
212.318603515625
 30
0.0
  0
ENDBLK
  5
54
330
4B
100
AcDbEntity
  8
0
100
AcDbBlockEnd
  0
BLOCK
  5
56
330
55
100
AcDbEntity
  8
0
100
AcDbBlockBegin
  2
*D3
 70
     1
 10
0.0
 20
0.0
 30
0.0
  3
*D3
  1

  0
LINE
  5
57
330
55
100
AcDbEntity
  8
0
  6
Continuous
 62
     7
100
AcDbLine
 10
-342.2891540527344
 20
409.6768493652343
 30
0.0
 11
-311.50390625
 21
401.4298706054687
 31
0.0
  0
LINE
  5
58
330
55
100
AcDbEntity
  8
0
  6
Continuous
 62
     7
100
AcDbLine
 10
-508.4309737955206
 20
454.184068911787
 30
0.0
 11
-345.1869766439325
 21
410.4531381194631
 31
0.0
  0
INSERT
  5
59
330
55
100
AcDbEntity
  8
0
  6
Continuous
 62
     7
100
AcDbBlockReference
  2
_OPEN30
 10
-511.3287963867188
 20
454.9603576660156
 30
0.0
 50
165.0033292584203
  0
INSERT
  5
5A
330
55
100
AcDbEntity
  8
0
  6
Continuous
 62
     7
100
AcDbBlockReference
  2
_OPEN30
 10
-342.2891540527344
 20
409.6768493652343
 30
0.0
 50
345.003329258421
  0
TEXT
  5
5B
330
55
100
AcDbEntity
  8
0
  6
Continuous
 62
     7
100
AcDbText
 10
-327.8658833040198
 20
406.5900151909261
 30
0.0
 40
3.0
  1
PCD175
 50
344.999999582587
 41
1.07125000655651
100
AcDbText
  0
POINT
  5
5C
330
55
100
AcDbEntity
  8
DEFPOINTS
  6
Continuous
 62
     7
100
AcDbPoint
 10
-511.3287963867188
 20
454.9603576660156
 30
0.0
  0
POINT
  5
5D
330
55
100
AcDbEntity
  8
DEFPOINTS
  6
Continuous
 62
     7
100
AcDbPoint
 10
-342.2891540527344
 20
409.6768493652343
 30
0.0
  0
ENDBLK
  5
5E
330
55
100
AcDbEntity
  8
0
100
AcDbBlockEnd
  0
BLOCK
  5
60
330
5F
100
AcDbEntity
  8
0
100
AcDbBlockBegin
  2
*D4
 70
     1
 10
0.0
 20
0.0
 30
0.0
  3
*D4
  1

  0
LINE
  5
61
330
5F
100
AcDbEntity
  8
0
  6
Continuous
 62
     7
100
AcDbLine
 10
-346.5897521972656
 20
487.7363586425781
 30
0.0
 11
-316.102294921875
 21
508.7979736328125
 31
0.0
  0
LINE
  5
62
330
5F
100
AcDbEntity
  8
0
  6
Continuous
 62
     7
100
AcDbLine
 10
-504.5599146289809
 20
378.6060099659942
 30
0.0
 11
-349.0580358104721
 21
486.0311970652558
 31
0.0
  0
INSERT
  5
63
330
5F
100
AcDbEntity
  8
0
  6
Continuous
 62
     7
100
AcDbBlockReference
  2
_OPEN30
 10
-507.0281982421875
 20
376.9008483886719
 30
0.0
 50
214.6378361826175
  0
INSERT
  5
64
330
5F
100
AcDbEntity
  8
0
  6
Continuous
 62
     7
100
AcDbBlockReference
  2
_OPEN30
 10
-346.5897521972656
 20
487.7363586425781
 30
0.0
 50
34.63783618261681
  0
TEXT
  5
65
330
5F
100
AcDbEntity
  8
0
  6
Continuous
 62
     7
100
AcDbText
 10
-342.977750939308
 20
491.1561043775702
 30
0.0
 40
3.0
  1
%%C１９５（防水皿外径）
 50
34.60000005214083
 41
0.8440126077968535
100
AcDbText
  0
POINT
  5
66
330
5F
100
AcDbEntity
  8
DEFPOINTS
  6
Continuous
 62
     7
100
AcDbPoint
 10
-507.0281982421875
 20
376.9008483886719
 30
0.0
  0
POINT
  5
67
330
5F
100
AcDbEntity
  8
DEFPOINTS
  6
Continuous
 62
     7
100
AcDbPoint
 10
-346.5897521972656
 20
487.7363586425781
 30
0.0
  0
ENDBLK
  5
68
330
5F
100
AcDbEntity
  8
0
100
AcDbBlockEnd
  0
BLOCK
  5
6A
330
69
100
AcDbEntity
  8
0
100
AcDbBlockBegin
  2
*D5
 70
     1
 10
0.0
 20
0.0
 30
0.0
  3
*D5
  1

  0
LINE
  5
6B
330
69
100
AcDbEntity
  8
0
  6
Continuous
 62
     7
100
AcDbLine
 10
-480.8171087573828
 20
414.0941309993762
 30
0.0
 11
-372.8008721996483
 21
450.5431065494517
 31
0.0
  0
INSERT
  5
6C
330
69
100
AcDbEntity
  8
0
  6
Continuous
 62
     7
100
AcDbBlockReference
  2
_OPEN30
 10
-483.6596374511718
 20
413.1349487304688
 30
0.0
 50
198.6464413871966
  0
INSERT
  5
6D
330
69
100
AcDbEntity
  8
0
  6
Continuous
 62
     7
100
AcDbBlockReference
  2
_OPEN30
 10
-369.9583435058594
 20
451.5022888183593
 30
0.0
 50
18.6464413871959
  0
TEXT
  5
6E
330
69
100
AcDbEntity
  8
0
  6
Continuous
 62
     7
100
AcDbText
 10
-387.4301854935913
 20
446.4028813112591
 30
0.0
 40
3.0
  1
%%C120
 50
18.6000001760827
 41
1.088244881625285
100
AcDbText
  0
POINT
  5
6F
330
69
100
AcDbEntity
  8
DEFPOINTS
  6
Continuous
 62
     7
100
AcDbPoint
 10
-483.6596374511718
 20
413.1349487304688
 30
0.0
  0
POINT
  5
70
330
69
100
AcDbEntity
  8
DEFPOINTS
  6
Continuous
 62
     7
100
AcDbPoint
 10
-369.9583435058594
 20
451.5022888183593
 30
0.0
  0
ENDBLK
  5
71
330
69
100
AcDbEntity
  8
0
100
AcDbBlockEnd
  0
BLOCK
  5
73
330
72
100
AcDbEntity
  8
0
100
AcDbBlockBegin
  2
*D6
 70
     1
 10
0.0
 20
0.0
 30
0.0
  3
*D6
  1

  0
LINE
  5
74
330
72
100
AcDbEntity
  8
0
  6
Continuous
 62
     7
100
AcDbLine
 10
-456.7860115986811
 20
455.6719405885226
 30
0.0
 11
-396.83196935835
 21
408.9652664427273
 31
0.0
  0
INSERT
  5
75
330
72
100
AcDbEntity
  8
0
  6
Continuous
 62
     7
100
AcDbBlockReference
  2
_OPEN30
 10
-459.1526184082031
 20
457.515625
 30
0.0
 50
142.0799371373195
  0
INSERT
  5
76
330
72
100
AcDbEntity
  8
0
  6
Continuous
 62
     7
100
AcDbBlockReference
  2
_OPEN30
 10
-394.4653625488281
 20
407.12158203125
 30
0.0
 50
322.0799371373201
  0
TEXT
  5
77
330
72
100
AcDbEntity
  8
0
  6
Continuous
 62
     7
100
AcDbText
 10
-408.2079507933334
 20
418.776554721279
 30
0.0
 40
3.0
  1
%%C82
 50
322.1000008805567
 41
0.9498249830693319
100
AcDbText
  0
POINT
  5
78
330
72
100
AcDbEntity
  8
DEFPOINTS
  6
Continuous
 62
     7
100
AcDbPoint
 10
-459.1526184082031
 20
457.515625
 30
0.0
  0
POINT
  5
79
330
72
100
AcDbEntity
  8
DEFPOINTS
  6
Continuous
 62
     7
100
AcDbPoint
 10
-394.4653625488281
 20
407.12158203125
 30
0.0
  0
ENDBLK
  5
7A
330
72
100
AcDbEntity
  8
0
100
AcDbBlockEnd
  0
BLOCK
  5
7C
330
7B
100
AcDbEntity
  8
0
100
AcDbBlockBegin
  2
*D7
 70
     1
 10
0.0
 20
0.0
 30
0.0
  3
*D7
  1

  0
LINE
  5
7D
330
7B
100
AcDbEntity
  8
0
  6
Continuous
 62
     7
100
AcDbLine
 10
-299.5950317382813
 20
108.3186111450195
 30
0.0
 11
-299.5950317382813
 21
252.318603515625
 31
0.0
  0
INSERT
  5
7E
330
7B
100
AcDbEntity
  8
0
  6
Continuous
 62
     7
100
AcDbBlockReference
  2
_OPEN30
 10
-299.5950317382813
 20
105.3186111450195
 30
0.0
 50
270.0000000000005
  0
INSERT
  5
7F
330
7B
100
AcDbEntity
  8
0
  6
Continuous
 62
     7
100
AcDbBlockReference
  2
_OPEN30
 10
-299.5950317382813
 20
255.318603515625
 30
0.0
 50
90.00000000000019
  0
LINE
  5
80
330
7B
100
AcDbEntity
  8
0
  6
Continuous
 62
     7
100
AcDbLine
 10
-326.7689904785156
 20
105.3186111450195
 30
0.0
 11
-297.3090209960938
 21
105.3186111450195
 31
0.0
  0
LINE
  5
81
330
7B
100
AcDbEntity
  8
0
  6
Continuous
 62
     7
100
AcDbLine
 10
-364.7689904785156
 20
255.318603515625
 30
0.0
 11
-297.3090209960938
 21
255.318603515625
 31
0.0
  0
TEXT
  5
82
330
7B
100
AcDbEntity
  8
0
  6
Continuous
 62
     7
100
AcDbText
 10
-300.345030904705
 20
161.2486027151337
 30
0.0
 40
3.0
  1
１５０　（１３５～１５５）
 50
90.00000250447815
 41
0.8434321120058422
100
AcDbText
  0
POINT
  5
83
330
7B
100
AcDbEntity
  8
DEFPOINTS
  6
Continuous
 62
     7
100
AcDbPoint
 10
-329.3089904785156
 20
105.3186111450195
 30
0.0
  0
POINT
  5
84
330
7B
100
AcDbEntity
  8
DEFPOINTS
  6
Continuous
 62
     7
100
AcDbPoint
 10
-367.3089904785156
 20
255.318603515625
 30
0.0
  0
POINT
  5
85
330
7B
100
AcDbEntity
  8
DEFPOINTS
  6
Continuous
 62
     7
100
AcDbPoint
 10
-299.5950317382813
 20
255.318603515625
 30
0.0
  0
ENDBLK
  5
86
330
7B
100
AcDbEntity
  8
0
100
AcDbBlockEnd
  0
BLOCK
  5
88
330
87
100
AcDbEntity
  8
0
100
AcDbBlockBegin
  2
*D8
 70
     1
 10
0.0
 20
0.0
 30
0.0
  3
*D8
  1

  0
LINE
  5
89
330
87
100
AcDbEntity
  8
0
  6
Continuous
 62
     7
100
AcDbLine
 10
-299.5950317382813
 20
102.3186111450195
 30
0.0
 11
-299.5950317382813
 21
94.05526733398437
 31
0.0
  0
LINE
  5
8A
330
87
100
AcDbEntity
  8
0
  6
Continuous
 62
     7
100
AcDbLine
 10
-299.5950317382813
 20
105.3186111450195
 30
0.0
 11
-299.5950317382813
 21
102.3186111450195
 31
0.0
  0
INSERT
  5
8B
330
87
100
AcDbEntity
  8
0
  6
Continuous
 62
     7
100
AcDbBlockReference
  2
_OPEN30
 10
-299.5950317382813
 20
105.3186111450195
 30
0.0
 50
270.0000000000002
  0
LINE
  5
8C
330
87
100
AcDbEntity
  8
0
  6
Continuous
 62
     7
100
AcDbLine
 10
-299.5950317382813
 20
108.3186111450195
 30
0.0
 11
-299.5950317382813
 21
111.6686111450195
 31
0.0
  0
INSERT
  5
8D
330
87
100
AcDbEntity
  8
0
  6
Continuous
 62
     7
100
AcDbBlockReference
  2
_OPEN30
 10
-299.5950317382813
 20
102.3186111450195
 30
0.0
 50
90.00000000000049
  0
LINE
  5
8E
330
87
100
AcDbEntity
  8
0
  6
Continuous
 62
     7
100
AcDbLine
 10
-299.5950317382813
 20
99.31861114501952
 30
0.0
 11
-299.5950317382812
 21
95.96861114501955
 31
0.0
  0
LINE
  5
8F
330
87
100
AcDbEntity
  8
0
  6
Continuous
 62
     7
100
AcDbLine
 10
-326.7689904785156
 20
102.3186111450195
 30
0.0
 11
-297.3090209960938
 21
102.3186111450195
 31
0.0
  0
TEXT
  5
90
330
87
100
AcDbEntity
  8
0
  6
Continuous
 62
     7
100
AcDbText
 10
-300.3450316915102
 20
94.05526694357297
 30
0.0
 40
3.0
  1
3
 50
90.00000250447815
100
AcDbText
  0
POINT
  5
91
330
87
100
AcDbEntity
  8
DEFPOINTS
  6
Continuous
 62
     7
100
AcDbPoint
 10
-297.3090209960938
 20
105.3186111450195
 30
0.0
  0
POINT
  5
92
330
87
100
AcDbEntity
  8
DEFPOINTS
  6
Continuous
 62
     7
100
AcDbPoint
 10
-329.3089904785156
 20
102.3186111450195
 30
0.0
  0
POINT
  5
93
330
87
100
AcDbEntity
  8
DEFPOINTS
  6
Continuous
 62
     7
100
AcDbPoint
 10
-299.5950317382813
 20
102.3186111450195
 30
0.0
  0
ENDBLK
  5
94
330
87
100
AcDbEntity
  8
0
100
AcDbBlockEnd
  0
BLOCK
  5
96
330
95
100
AcDbEntity
  8
0
100
AcDbBlockBegin
  2
*D9
 70
     1
 10
0.0
 20
0.0
 30
0.0
  3
*D9
  1

  0
LINE
  5
97
330
95
100
AcDbEntity
  8
0
  6
Continuous
 62
     7
100
AcDbLine
 10
-311.6893310546875
 20
252.318603515625
 30
0.0
 11
-311.6893310546875
 21
201.318603515625
 31
0.0
  0
INSERT
  5
98
330
95
100
AcDbEntity
  8
0
  6
Continuous
 62
     7
100
AcDbBlockReference
  2
_OPEN30
 10
-311.6893310546875
 20
255.318603515625
 30
0.0
 50
90.00000000000019
  0
INSERT
  5
99
330
95
100
AcDbEntity
  8
0
  6
Continuous
 62
     7
100
AcDbBlockReference
  2
_OPEN30
 10
-311.6893310546875
 20
198.318603515625
 30
0.0
 50
270.0000000000005
  0
LINE
  5
9A
330
95
100
AcDbEntity
  8
0
  6
Continuous
 62
     7
100
AcDbLine
 10
-367.7689904785156
 20
198.318603515625
 30
0.0
 11
-309.4033203125
 21
198.318603515625
 31
0.0
  0
TEXT
  5
9B
330
95
100
AcDbEntity
  8
0
  6
Continuous
 62
     7
100
AcDbText
 10
-312.4393309423492
 20
224.2486033707847
 30
0.0
 40
3.0
  1
57
 50
90.00000250447815
 41
1.028000020980834
100
AcDbText
  0
POINT
  5
9C
330
95
100
AcDbEntity
  8
DEFPOINTS
  6
Continuous
 62
     7
100
AcDbPoint
 10
-297.3090209960938
 20
255.318603515625
 30
0.0
  0
POINT
  5
9D
330
95
100
AcDbEntity
  8
DEFPOINTS
  6
Continuous
 62
     7
100
AcDbPoint
 10
-370.3089904785156
 20
198.318603515625
 30
0.0
  0
POINT
  5
9E
330
95
100
AcDbEntity
  8
DEFPOINTS
  6
Continuous
 62
     7
100
AcDbPoint
 10
-311.6893310546875
 20
198.318603515625
 30
0.0
  0
ENDBLK
  5
9F
330
95
100
AcDbEntity
  8
0
100
AcDbBlockEnd
  0
BLOCK
  5
A1
330
A0
100
AcDbEntity
  8
0
100
AcDbBlockBegin
  2
*D10
 70
     1
 10
0.0
 20
0.0
 30
0.0
  3
*D10
  1

  0
LINE
  5
A2
330
A0
100
AcDbEntity
  8
0
  6
Continuous
 62
     7
100
AcDbLine
 10
-311.6893310546875
 20
108.3186111450195
 30
0.0
 11
-311.6893310546875
 21
135.318603515625
 31
0.0
  0
INSERT
  5
A3
330
A0
100
AcDbEntity
  8
0
  6
Continuous
 62
     7
100
AcDbBlockReference
  2
_OPEN30
 10
-311.6893310546875
 20
105.3186111450195
 30
0.0
 50
270.0000000000005
  0
INSERT
  5
A4
330
A0
100
AcDbEntity
  8
0
  6
Continuous
 62
     7
100
AcDbBlockReference
  2
_OPEN30
 10
-311.6893310546875
 20
138.318603515625
 30
0.0
 50
90.00000000000019
  0
LINE
  5
A5
330
A0
100
AcDbEntity
  8
0
  6
Continuous
 62
     7
100
AcDbLine
 10
-375.7689904785156
 20
138.318603515625
 30
0.0
 11
-309.4033203125
 21
138.318603515625
 31
0.0
  0
TEXT
  5
A6
330
A0
100
AcDbEntity
  8
0
  6
Continuous
 62
     7
100
AcDbText
 10
-312.4393309423492
 20
119.2486110001793
 30
0.0
 40
3.0
  1
33
 50
90.00000250447815
 41
1.028000020980834
100
AcDbText
  0
POINT
  5
A7
330
A0
100
AcDbEntity
  8
DEFPOINTS
  6
Continuous
 62
     7
100
AcDbPoint
 10
-297.3090209960938
 20
105.3186111450195
 30
0.0
  0
POINT
  5
A8
330
A0
100
AcDbEntity
  8
DEFPOINTS
  6
Continuous
 62
     7
100
AcDbPoint
 10
-378.3089904785156
 20
138.318603515625
 30
0.0
  0
POINT
  5
A9
330
A0
100
AcDbEntity
  8
DEFPOINTS
  6
Continuous
 62
     7
100
AcDbPoint
 10
-311.6893310546875
 20
138.318603515625
 30
0.0
  0
ENDBLK
  5
AA
330
A0
100
AcDbEntity
  8
0
100
AcDbBlockEnd
  0
BLOCK
  5
AC
330
AB
100
AcDbEntity
  8
0
100
AcDbBlockBegin
  2
*D11
 70
     1
 10
0.0
 20
0.0
 30
0.0
  3
*D11
  1

  0
LINE
  5
AD
330
AB
100
AcDbEntity
  8
0
  6
Continuous
 62
     7
100
AcDbLine
 10
-472.3089904785156
 20
33.87714385986328
 30
0.0
 11
-381.3089904785156
 21
33.87714385986326
 31
0.0
  0
INSERT
  5
AE
330
AB
100
AcDbEntity
  8
0
  6
Continuous
 62
     7
100
AcDbBlockReference
  2
_OPEN30
 10
-475.3089904785156
 20
33.87714385986328
 30
0.0
 50
180.0000000000004
  0
INSERT
  5
AF
330
AB
100
AcDbEntity
  8
0
  6
Continuous
 62
     7
100
AcDbBlockReference
  2
_OPEN30
 10
-378.3089904785156
 20
33.87714385986328
 30
0.0
  0
LINE
  5
B0
330
AB
100
AcDbEntity
  8
0
  6
Continuous
 62
     7
100
AcDbLine
 10
-475.3089904785156
 20
54.77861114501953
 30
0.0
 11
-475.3089904785156
 21
31.59114456176758
 31
0.0
  0
LINE
  5
B1
330
AB
100
AcDbEntity
  8
0
  6
Continuous
 62
     7
100
AcDbLine
 10
-378.3089904785156
 20
54.77861114501953
 30
0.0
 11
-378.3089904785156
 21
31.59114456176758
 31
0.0
  0
TEXT
  5
B2
330
AB
100
AcDbEntity
  8
0
  6
Continuous
 62
     7
100
AcDbText
 10
-430.878990650177
 20
34.62714385986328
 30
0.0
 40
3.0
  1
%%C97
 41
0.9498249830693319
100
AcDbText
  0
POINT
  5
B3
330
AB
100
AcDbEntity
  8
DEFPOINTS
  6
Continuous
 62
     7
100
AcDbPoint
 10
-475.3089904785156
 20
57.31861114501953
 30
0.0
  0
POINT
  5
B4
330
AB
100
AcDbEntity
  8
DEFPOINTS
  6
Continuous
 62
     7
100
AcDbPoint
 10
-378.3089904785156
 20
57.31861114501953
 30
0.0
  0
POINT
  5
B5
330
AB
100
AcDbEntity
  8
DEFPOINTS
  6
Continuous
 62
     7
100
AcDbPoint
 10
-378.3089904785156
 20
33.87714385986328
 30
0.0
  0
ENDBLK
  5
B6
330
AB
100
AcDbEntity
  8
0
100
AcDbBlockEnd
  0
BLOCK
  5
B8
330
B7
100
AcDbEntity
  8
0
100
AcDbBlockBegin
  2
*D12
 70
     1
 10
0.0
 20
0.0
 30
0.0
  3
*D12
  1

  0
LINE
  5
B9
330
B7
100
AcDbEntity
  8
0
  6
Continuous
 62
     7
100
AcDbLine
 10
-536.3845825195313
 20
60.31861114501953
 30
0.0
 11
-536.3845825195313
 21
135.318603515625
 31
0.0
  0
INSERT
  5
BA
330
B7
100
AcDbEntity
  8
0
  6
Continuous
 62
     7
100
AcDbBlockReference
  2
_OPEN30
 10
-536.3845825195313
 20
57.31861114501953
 30
0.0
 50
270.0000000000005
  0
INSERT
  5
BB
330
B7
100
AcDbEntity
  8
0
  6
Continuous
 62
     7
100
AcDbBlockReference
  2
_OPEN30
 10
-536.3845825195313
 20
138.318603515625
 30
0.0
 50
90.00000000000019
  0
LINE
  5
BC
330
B7
100
AcDbEntity
  8
0
  6
Continuous
 62
     7
100
AcDbLine
 10
-477.8489904785157
 20
57.31861114501953
 30
0.0
 11
-538.6705932617188
 21
57.31861114501953
 31
0.0
  0
LINE
  5
BD
330
B7
100
AcDbEntity
  8
0
  6
Continuous
 62
     7
100
AcDbLine
 10
-477.8489904785157
 20
138.318603515625
 30
0.0
 11
-538.6705932617188
 21
138.318603515625
 31
0.0
  0
TEXT
  5
BE
330
B7
100
AcDbEntity
  8
0
  6
Continuous
 62
     7
100
AcDbText
 10
-537.1345824071929
 20
95.24861100017924
 30
0.0
 40
3.0
  1
81
 50
90.00000250447815
 41
1.186153870362501
100
AcDbText
  0
POINT
  5
BF
330
B7
100
AcDbEntity
  8
DEFPOINTS
  6
Continuous
 62
     7
100
AcDbPoint
 10
-475.3089904785156
 20
57.31861114501953
 30
0.0
  0
POINT
  5
C0
330
B7
100
AcDbEntity
  8
DEFPOINTS
  6
Continuous
 62
     7
100
AcDbPoint
 10
-475.3089904785156
 20
138.318603515625
 30
0.0
  0
POINT
  5
C1
330
B7
100
AcDbEntity
  8
DEFPOINTS
  6
Continuous
 62
     7
100
AcDbPoint
 10
-536.3845825195313
 20
138.318603515625
 30
0.0
  0
ENDBLK
  5
C2
330
B7
100
AcDbEntity
  8
0
100
AcDbBlockEnd
  0
BLOCK
  5
C4
330
C3
100
AcDbEntity
  8
0
100
AcDbBlockBegin
  2
KOZU0001
 70
     0
 10
0.0
 20
0.0
 30
0.0
  3
KOZU0001
  1

  0
LINE
  5
C5
330
C3
100
AcDbEntity
  8
0
  6
Continuous
 62
     7
100
AcDbLine
 10
0.0
 20
0.0
 30
0.0
 11
16.59823608398438
 21
23.47979736328125
 31
0.0
  0
LINE
  5
C6
330
C3
100
AcDbEntity
  8
0
  6
Continuous
 62
     7
100
AcDbLine
 10
16.59823608398438
 20
23.47979736328125
 30
0.0
 11
37.78533935546875
 21
23.47979736328125
 31
0.0
  0
LINE
  5
C7
330
C3
100
AcDbEntity
  8
0
  6
Continuous
 62
     7
100
AcDbLine
 10
0.0
 20
0.0
 30
0.0
 11
0.9151684908523019
 21
3.026956661954565
 31
0.0
  0
LINE
  5
C8
330
C3
100
AcDbEntity
  8
0
  6
Continuous
 62
     7
100
AcDbLine
 10
0.0
 20
0.0
 30
0.0
 11
2.548308789854579
 21
1.87246423505227
 31
0.0
  0
TEXT
  5
C9
330
C3
100
AcDbEntity
  8
0
  6
Continuous
 62
     7
100
AcDbText
 10
18.92533802986145
 20
24.22979736328125
 30
0.0
 40
3.0
  1
３－Ｍ５皿穴
 41
0.8472565548642696
100
AcDbText
  0
ENDBLK
  5
CA
330
C3
100
AcDbEntity
  8
0
100
AcDbBlockEnd
  0
BLOCK
  5
CC
330
CB
100
AcDbEntity
  8
0
100
AcDbBlockBegin
  2
KOZU0002
 70
     0
 10
0.0
 20
0.0
 30
0.0
  3
KOZU0002
  1

  0
LINE
  5
CD
330
CB
100
AcDbEntity
  8
0
  6
Continuous
 62
     7
100
AcDbLine
 10
0.0
 20
0.0
 30
0.0
 11
19.47036743164063
 21
-10.46193695068359
 31
0.0
  0
LINE
  5
CE
330
CB
100
AcDbEntity
  8
0
  6
Continuous
 62
     7
100
AcDbLine
 10
19.47036743164063
 20
-10.46193695068359
 30
0.0
 11
48.21817016601563
 21
-10.46193695068359
 31
0.0
  0
LINE
  5
CF
330
CB
100
AcDbEntity
  8
0
  6
Continuous
 62
     7
100
AcDbLine
 10
0.0
 20
0.0
 30
0.0
 11
3.115989064099953
 21
-0.5390845503346392
 31
0.0
  0
LINE
  5
D0
330
CB
100
AcDbEntity
  8
0
  6
Continuous
 62
     7
100
AcDbLine
 10
0.0
 20
0.0
 30
0.0
 11
2.169340521079178
 21
-2.300861078727683
 31
0.0
  0
TEXT
  5
D1
330
CB
100
AcDbEntity
  8
0
  6
Continuous
 62
     7
100
AcDbText
 10
23.35816884040833
 20
-9.711936950683593
 30
0.0
 40
3.0
  1
配管接続口
 41
0.8487395020950888
100
AcDbText
  0
TEXT
  5
D2
330
CB
100
AcDbEntity
  8
0
  6
Continuous
 62
     7
100
AcDbText
 10
23.35816884040833
 20
-14.97693695068359
 30
0.0
 40
3.0
  1
Ｒｃ３（８０Ａ）
 41
0.8454512278006642
100
AcDbText
  0
ENDBLK
  5
D3
330
CB
100
AcDbEntity
  8
0
100
AcDbBlockEnd
  0
ENDSEC
  0
SECTION
  2
ENTITIES
  0
POINT
  5
D4
330
22
100
AcDbEntity
  8
0
  6
Continuous
 62
     7
100
AcDbPoint
 10
-426.8089904785155
 20
432.318603515625
 30
0.0
  0
POINT
  5
D5
330
22
100
AcDbEntity
  8
0
  6
Continuous
 62
     7
100
AcDbPoint
 10
-426.8089904785155
 20
102.3186111450195
 30
0.0
  0
POINT
  5
D6
330
22
100
AcDbEntity
  8
0
  6
Continuous
 62
     7
100
AcDbPoint
 10
-426.8089904785155
 20
432.318603515625
 30
0.0
  0
POINT
  5
D7
330
22
100
AcDbEntity
  8
0
  6
Continuous
 62
     7
100
AcDbPoint
 10
-426.8089904785155
 20
102.3186111450195
 30
0.0
  0
POINT
  5
D8
330
22
100
AcDbEntity
  8
0
  6
Continuous
 62
     7
100
AcDbPoint
 10
-383.7932434082031
 20
85.57830047607422
 30
0.0
  0
POINT
  5
D9
330
22
100
AcDbEntity
  8
0
  6
Continuous
 62
     7
100
AcDbPoint
 10
-383.6166076660156
 20
79.92636108398437
 30
0.0
  0
POINT
  5
DA
330
22
100
AcDbEntity
  8
0
  6
Continuous
 62
     7
100
AcDbPoint
 10
-383.4399719238281
 20
74.27442169189453
 30
0.0
  0
POINT
  5
DB
330
22
100
AcDbEntity
  8
0
  6
Continuous
 62
     7
100
AcDbPoint
 10
-383.2633361816406
 20
68.62248229980469
 30
0.0
  0
POINT
  5
DC
330
22
100
AcDbEntity
  8
0
  6
Continuous
 62
     7
100
AcDbPoint
 10
-383.0867004394531
 20
62.97054672241211
 30
0.0
  0
POINT
  5
DD
330
22
100
AcDbEntity
  8
0
  6
Continuous
 62
     7
100
AcDbPoint
 10
-382.9100952148438
 20
57.31861114501953
 30
0.0
  0
POINT
  5
DE
330
22
100
AcDbEntity
  8
0
  6
Continuous
 62
     7
100
AcDbPoint
 10
-426.8089904785155
 20
255.318603515625
 30
0.0
  0
LINE
  5
DF
330
22
100
AcDbEntity
  8
0
  6
CENTER
 62
     7
100
AcDbLine
 10
-475.0794372558593
 20
515.9254760742189
 30
0.0
 11
-465.8490295410156
 21
499.9379577636719
 31
0.0
  0
LINE
  5
E0
330
22
100
AcDbEntity
  8
0
  6
CENTER
 62
     7
100
AcDbLine
 10
-473.8595581054688
 20
350.8246154785156
 30
0.0
 11
-466.0109252929688
 21
364.4188842773438
 31
0.0
  0
LINE
  5
E1
330
22
100
AcDbEntity
  8
0
  6
Continuous
 62
     7
100
AcDbLine
 10
-420.3089904785156
 20
429.2190856933594
 30
0.0
 11
-422.8089904785155
 21
429.2190856933594
 31
0.0
  0
LINE
  5
E2
330
22
100
AcDbEntity
  8
0
  6
Continuous
 62
     7
100
AcDbLine
 10
-423.0637817382812
 20
435.53173828125
 30
0.0
 11
-419.4156799316406
 21
435.4237365722656
 31
0.0
  0
LINE
  5
E3
330
22
100
AcDbEntity
  8
0
  6
Continuous
 62
     7
100
AcDbLine
 10
-434.1238403320312
 20
429.3765563964844
 30
0.0
 11
-430.8089904785155
 21
429.2190856933594
 31
0.0
  0
LINE
  5
E4
330
22
100
AcDbEntity
  8
0
  6
CENTER
 62
     7
100
AcDbLine
 10
-426.8089904785155
 20
543.0793457031249
 30
0.0
 11
-426.8089904785155
 21
318.2744750976563
 31
0.0
  0
LINE
  5
E5
330
22
100
AcDbEntity
  8
0
  6
Continuous
 62
     7
100
AcDbLine
 10
-434.3086853027343
 20
435.3831481933593
 30
0.0
 11
-430.3099060058594
 21
435.7888793945313
 31
0.0
  0
LINE
  5
E6
330
22
100
AcDbEntity
  8
0
  6
CENTER
 62
     7
100
AcDbLine
 10
-540.6022949218749
 20
432.318603515625
 30
0.0
 11
-311.5557861328125
 21
432.318603515625
 31
0.0
  0
LINE
  5
E7
330
22
100
AcDbEntity
  8
0
  6
Continuous
 62
     7
100
AcDbLine
 10
-385.2662963867188
 20
218.318603515625
 30
0.0
 11
-384.9942626953125
 21
218.0465850830078
 31
0.0
  0
LINE
  5
E8
330
22
100
AcDbEntity
  8
0
  6
Continuous
 62
     7
100
AcDbLine
 10
-389.5089416503907
 20
218.318603515625
 30
0.0
 11
-384.8573913574219
 21
213.6670684814453
 31
0.0
  0
LINE
  5
E9
330
22
100
AcDbEntity
  8
0
  6
Continuous
 62
     7
100
AcDbLine
 10
-390.8089904785157
 20
215.3760223388672
 30
0.0
 11
-384.7205200195313
 21
209.2875671386719
 31
0.0
  0
LINE
  5
EA
330
22
100
AcDbEntity
  8
0
  6
Continuous
 62
     7
100
AcDbLine
 10
-390.8089904785157
 20
211.1333770751953
 30
0.0
 11
-384.5836791992188
 21
204.9080505371094
 31
0.0
  0
LINE
  5
EB
330
22
100
AcDbEntity
  8
0
  6
Continuous
 62
     7
100
AcDbLine
 10
-390.8089904785157
 20
206.8907318115234
 30
0.0
 11
-384.4468078613281
 21
200.5285491943359
 31
0.0
  0
LINE
  5
EC
330
22
100
AcDbEntity
  8
0
  6
Continuous
 62
     7
100
AcDbLine
 10
-390.8089904785157
 20
202.6481018066406
 30
0.0
 11
-384.3099365234375
 21
196.1490478515625
 31
0.0
  0
LINE
  5
ED
330
22
100
AcDbEntity
  8
0
  6
Continuous
 62
     7
100
AcDbLine
 10
-390.8089904785157
 20
198.4054565429688
 30
0.0
 11
-384.1730651855469
 21
191.76953125
 31
0.0
  0
LINE
  5
EE
330
22
100
AcDbEntity
  8
0
  6
Continuous
 62
     7
100
AcDbLine
 10
-390.8089904785157
 20
194.1628112792969
 30
0.0
 11
-382.2589721679688
 21
185.6128082275391
 31
0.0
  0
LINE
  5
EF
330
22
100
AcDbEntity
  8
0
  6
Continuous
 62
     7
100
AcDbLine
 10
-390.8089904785157
 20
189.920166015625
 30
0.0
 11
-382.2589721679688
 21
181.3701782226563
 31
0.0
  0
LINE
  5
F0
330
22
100
AcDbEntity
  8
0
  6
Continuous
 62
     7
100
AcDbLine
 10
-390.8089904785157
 20
185.6775360107422
 30
0.0
 11
-382.2589721679688
 21
177.1275329589844
 31
0.0
  0
LINE
  5
F1
330
22
100
AcDbEntity
  8
0
  6
Continuous
 62
     7
100
AcDbLine
 10
-390.8089904785157
 20
181.4348907470703
 30
0.0
 11
-383.5258483886719
 21
174.1517486572266
 31
0.0
  0
LINE
  5
F2
330
22
100
AcDbEntity
  8
0
  6
Continuous
 62
     7
100
AcDbLine
 10
-390.8089904785157
 20
177.1922454833984
 30
0.0
 11
-384.3589782714844
 21
170.7422485351563
 31
0.0
  0
LINE
  5
F3
330
22
100
AcDbEntity
  8
0
  6
Continuous
 62
     7
100
AcDbLine
 10
-390.8089904785157
 20
172.9496154785156
 30
0.0
 11
-384.3589782714844
 21
166.4996032714844
 31
0.0
  0
LINE
  5
F4
330
22
100
AcDbEntity
  8
0
  6
Continuous
 62
     7
100
AcDbLine
 10
-390.8089904785157
 20
168.7069702148438
 30
0.0
 11
-384.3589782714844
 21
162.2569732666016
 31
0.0
  0
LINE
  5
F5
330
22
100
AcDbEntity
  8
0
  6
Continuous
 62
     7
100
AcDbLine
 10
-390.8089904785157
 20
164.4643249511719
 30
0.0
 11
-384.3589782714844
 21
158.0143280029297
 31
0.0
  0
LINE
  5
F6
330
22
100
AcDbEntity
  8
0
  6
Continuous
 62
     7
100
AcDbLine
 10
-390.8089904785157
 20
160.2216949462891
 30
0.0
 11
-384.3589782714844
 21
153.7716827392578
 31
0.0
  0
LINE
  5
F7
330
22
100
AcDbEntity
  8
0
  6
Continuous
 62
     7
100
AcDbLine
 10
-390.8089904785157
 20
155.9790496826172
 30
0.0
 11
-384.3589782714844
 21
149.529052734375
 31
0.0
  0
LINE
  5
F8
330
22
100
AcDbEntity
  8
0
  6
Continuous
 62
     7
100
AcDbLine
 10
-390.8089904785157
 20
151.7364044189453
 30
0.0
 11
-384.3589782714844
 21
145.2864074707031
 31
0.0
  0
LINE
  5
F9
330
22
100
AcDbEntity
  8
0
  6
Continuous
 62
     7
100
AcDbLine
 10
-390.8089904785157
 20
147.4937591552734
 30
0.0
 11
-384.3589782714844
 21
141.0437622070313
 31
0.0
  0
LINE
  5
FA
330
22
100
AcDbEntity
  8
0
  6
Continuous
 62
     7
100
AcDbLine
 10
-390.8089904785157
 20
143.2511291503906
 30
0.0
 11
-384.3589782714844
 21
136.8011322021484
 31
0.0
  0
LINE
  5
FB
330
22
100
AcDbEntity
  8
0
  6
Continuous
 62
     7
100
AcDbLine
 10
-390.8089904785157
 20
139.0084838867188
 30
0.0
 11
-384.4015197753906
 21
132.6010284423828
 31
0.0
  0
LINE
  5
FC
330
22
100
AcDbEntity
  8
0
  6
Continuous
 62
     7
100
AcDbLine
 10
-390.8089904785157
 20
134.7658386230469
 30
0.0
 11
-384.4015197753906
 21
128.3583831787109
 31
0.0
  0
LINE
  5
FD
330
22
100
AcDbEntity
  8
0
  6
Continuous
 62
     7
100
AcDbLine
 10
-390.8089904785157
 20
130.5232086181641
 30
0.0
 11
-384.4015197753906
 21
124.1157455444336
 31
0.0
  0
LINE
  5
FE
330
22
100
AcDbEntity
  8
0
  6
Continuous
 62
     7
100
AcDbLine
 10
-390.8089904785157
 20
126.2805633544922
 30
0.0
 11
-384.4015197753906
 21
119.8731079101563
 31
0.0
  0
LINE
  5
FF
330
22
100
AcDbEntity
  8
0
  6
Continuous
 62
     7
100
AcDbLine
 10
-390.8089904785157
 20
122.0379257202148
 30
0.0
 11
-387.0896606445313
 21
118.3186111450195
 31
0.0
  0
LINE
  5
100
330
22
100
AcDbEntity
  8
0
  6
Continuous
 62
     7
100
AcDbLine
 10
-387.3876037597656
 20
218.318603515625
 30
0.0
 11
-384.9258422851563
 21
215.8568267822266
 31
0.0
  0
LINE
  5
101
330
22
100
AcDbEntity
  8
0
  6
Continuous
 62
     7
100
AcDbLine
 10
-390.8089904785157
 20
213.2546997070313
 30
0.0
 11
-384.652099609375
 21
207.0978088378906
 31
0.0
  0
LINE
  5
102
330
22
100
AcDbEntity
  8
0
  6
Continuous
 62
     7
100
AcDbLine
 10
-390.8089904785157
 20
209.0120544433594
 30
0.0
 11
-384.5152282714844
 21
202.7183074951172
 31
0.0
  0
LINE
  5
103
330
22
100
AcDbEntity
  8
0
  6
Continuous
 62
     7
100
AcDbLine
 10
-390.8089904785157
 20
204.7694091796875
 30
0.0
 11
-384.3783569335938
 21
198.3387908935547
 31
0.0
  0
LINE
  5
104
330
22
100
AcDbEntity
  8
0
  6
Continuous
 62
     7
100
AcDbLine
 10
-390.8089904785157
 20
200.5267791748047
 30
0.0
 11
-384.2414855957031
 21
193.9592895507813
 31
0.0
  0
LINE
  5
105
330
22
100
AcDbEntity
  8
0
  6
Continuous
 62
     7
100
AcDbLine
 10
-390.8089904785157
 20
196.2841339111328
 30
0.0
 11
-382.2589721679688
 21
187.734130859375
 31
0.0
  0
LINE
  5
106
330
22
100
AcDbEntity
  8
0
  6
Continuous
 62
     7
100
AcDbLine
 10
-390.8089904785157
 20
192.0414886474609
 30
0.0
 11
-382.2589721679688
 21
183.4915008544922
 31
0.0
  0
LINE
  5
107
330
22
100
AcDbEntity
  8
0
  6
Continuous
 62
     7
100
AcDbLine
 10
-390.8089904785157
 20
187.7988586425781
 30
0.0
 11
-382.2589721679688
 21
179.2488555908203
 31
0.0
  0
LINE
  5
108
330
22
100
AcDbEntity
  8
0
  6
Continuous
 62
     7
100
AcDbLine
 10
-390.8089904785157
 20
183.5562133789063
 30
0.0
 11
-382.4651794433594
 21
175.2124176025391
 31
0.0
  0
LINE
  5
109
330
22
100
AcDbEntity
  8
0
  6
Continuous
 62
     7
100
AcDbLine
 10
-390.8089904785157
 20
179.3135681152344
 30
0.0
 11
-384.3589782714844
 21
172.8635711669921
 31
0.0
  0
LINE
  5
10A
330
22
100
AcDbEntity
  8
0
  6
Continuous
 62
     7
100
AcDbLine
 10
-390.8089904785157
 20
175.0709381103516
 30
0.0
 11
-384.3589782714844
 21
168.6209259033203
 31
0.0
  0
LINE
  5
10B
330
22
100
AcDbEntity
  8
0
  6
Continuous
 62
     7
100
AcDbLine
 10
-390.8089904785157
 20
170.8282928466797
 30
0.0
 11
-384.3589782714844
 21
164.3782958984375
 31
0.0
  0
LINE
  5
10C
330
22
100
AcDbEntity
  8
0
  6
Continuous
 62
     7
100
AcDbLine
 10
-390.8089904785157
 20
166.5856475830078
 30
0.0
 11
-384.3589782714844
 21
160.1356506347656
 31
0.0
  0
LINE
  5
10D
330
22
100
AcDbEntity
  8
0
  6
Continuous
 62
     7
100
AcDbLine
 10
-390.8089904785157
 20
162.3430023193359
 30
0.0
 11
-384.3589782714844
 21
155.8930053710938
 31
0.0
  0
LINE
  5
10E
330
22
100
AcDbEntity
  8
0
  6
Continuous
 62
     7
100
AcDbLine
 10
-390.8089904785157
 20
158.1003723144531
 30
0.0
 11
-384.3589782714844
 21
151.6503753662109
 31
0.0
  0
LINE
  5
10F
330
22
100
AcDbEntity
  8
0
  6
Continuous
 62
     7
100
AcDbLine
 10
-390.8089904785157
 20
153.8577270507813
 30
0.0
 11
-384.3589782714844
 21
147.4077301025391
 31
0.0
  0
LINE
  5
110
330
22
100
AcDbEntity
  8
0
  6
Continuous
 62
     7
100
AcDbLine
 10
-390.8089904785157
 20
149.6150817871094
 30
0.0
 11
-384.3589782714844
 21
143.1650848388672
 31
0.0
  0
LINE
  5
111
330
22
100
AcDbEntity
  8
0
  6
Continuous
 62
     7
100
AcDbLine
 10
-390.8089904785157
 20
145.3724517822266
 30
0.0
 11
-384.3589782714844
 21
138.9224395751953
 31
0.0
  0
LINE
  5
112
330
22
100
AcDbEntity
  8
0
  6
Continuous
 62
     7
100
AcDbLine
 10
-390.8089904785157
 20
141.1298065185547
 30
0.0
 11
-384.4015197753906
 21
134.7223510742187
 31
0.0
  0
LINE
  5
113
330
22
100
AcDbEntity
  8
0
  6
Continuous
 62
     7
100
AcDbLine
 10
-390.8089904785157
 20
136.8871612548828
 30
0.0
 11
-384.4015197753906
 21
130.4797058105469
 31
0.0
  0
LINE
  5
114
330
22
100
AcDbEntity
  8
0
  6
Continuous
 62
     7
100
AcDbLine
 10
-390.8089904785157
 20
132.64453125
 30
0.0
 11
-384.4015197753906
 21
126.2370681762695
 31
0.0
  0
LINE
  5
115
330
22
100
AcDbEntity
  8
0
  6
Continuous
 62
     7
100
AcDbLine
 10
-390.8089904785157
 20
128.4018859863281
 30
0.0
 11
-384.4015197753906
 21
121.9944229125977
 31
0.0
  0
LINE
  5
116
330
22
100
AcDbEntity
  8
0
  6
Continuous
 62
     7
100
AcDbLine
 10
-390.8089904785157
 20
124.1592407226563
 30
0.0
 11
-384.9683532714844
 21
118.3186111450195
 31
0.0
  0
LINE
  5
117
330
22
100
AcDbEntity
  8
0
  6
Continuous
 62
     7
100
AcDbLine
 10
-390.8089904785157
 20
119.9166030883789
 30
0.0
 11
-389.2109985351563
 21
118.3186111450195
 31
0.0
  0
LINE
  5
118
330
22
100
AcDbEntity
  8
0
  6
Continuous
 62
     7
100
AcDbLine
 10
-366.8089904785156
 20
245.318603515625
 30
0.0
 11
-368.3089904785156
 21
245.318603515625
 31
0.0
  0
LINE
  5
119
330
22
100
AcDbEntity
  8
0
  6
Continuous
 62
     7
100
AcDbLine
 10
-344.5462646484375
 20
105.3186111450195
 30
0.0
 11
-342.0589904785156
 21
102.8313369750977
 31
0.0
  0
LINE
  5
11A
330
22
100
AcDbEntity
  8
0
  6
Continuous
 62
     7
100
AcDbLine
 10
-345.8460693359375
 20
104.4971084594727
 30
0.0
 11
-343.6675720214844
 21
102.3186111450195
 31
0.0
  0
LINE
  5
11B
330
22
100
AcDbEntity
  8
0
  6
Continuous
 62
     7
100
AcDbLine
 10
-347.3746948242188
 20
105.3186111450195
 30
0.0
 11
-344.3746948242188
 21
102.3186111450195
 31
0.0
  0
LINE
  5
11C
330
22
100
AcDbEntity
  8
0
  6
Continuous
 62
     7
100
AcDbLine
 10
-349.4960021972656
 20
105.3186111450195
 30
0.0
 11
-346.4960021972656
 21
102.3186111450195
 31
0.0
  0
LINE
  5
11D
330
22
100
AcDbEntity
  8
0
  6
Continuous
 62
     7
100
AcDbLine
 10
-350.203125
 20
105.3186111450195
 30
0.0
 11
-347.203125
 21
102.3186111450195
 31
0.0
  0
LINE
  5
11E
330
22
100
AcDbEntity
  8
0
  6
Continuous
 62
     7
100
AcDbLine
 10
-352.3244323730469
 20
105.3186111450195
 30
0.0
 11
-349.3244323730469
 21
102.3186111450195
 31
0.0
  0
LINE
  5
11F
330
22
100
AcDbEntity
  8
0
  6
Continuous
 62
     7
100
AcDbLine
 10
-353.0315246582031
 20
105.3186111450195
 30
0.0
 11
-350.0315246582031
 21
102.3186111450195
 31
0.0
  0
LINE
  5
120
330
22
100
AcDbEntity
  8
0
  6
Continuous
 62
     7
100
AcDbLine
 10
-355.1528625488281
 20
105.3186111450195
 30
0.0
 11
-352.1528625488281
 21
102.3186111450195
 31
0.0
  0
LINE
  5
121
330
22
100
AcDbEntity
  8
0
  6
Continuous
 62
     7
100
AcDbLine
 10
-355.8599548339844
 20
105.3186111450195
 30
0.0
 11
-352.8599548339844
 21
102.3186111450195
 31
0.0
  0
LINE
  5
122
330
22
100
AcDbEntity
  8
0
  6
Continuous
 62
     7
100
AcDbLine
 10
-357.9812927246094
 20
105.3186111450195
 30
0.0
 11
-354.9812927246094
 21
102.3186111450195
 31
0.0
  0
LINE
  5
123
330
22
100
AcDbEntity
  8
0
  6
Continuous
 62
     7
100
AcDbLine
 10
-358.6883850097656
 20
105.3186111450195
 30
0.0
 11
-355.6883850097656
 21
102.3186111450195
 31
0.0
  0
LINE
  5
124
330
22
100
AcDbEntity
  8
0
  6
Continuous
 62
     7
100
AcDbLine
 10
-360.8097229003906
 20
105.3186111450195
 30
0.0
 11
-357.8097229003906
 21
102.3186111450195
 31
0.0
  0
LINE
  5
125
330
22
100
AcDbEntity
  8
0
  6
Continuous
 62
     7
100
AcDbLine
 10
-361.5168151855469
 20
105.3186111450195
 30
0.0
 11
-358.5168151855469
 21
102.3186111450195
 31
0.0
  0
LINE
  5
126
330
22
100
AcDbEntity
  8
0
  6
Continuous
 62
     7
100
AcDbLine
 10
-363.6381530761719
 20
105.3186111450195
 30
0.0
 11
-360.6381530761719
 21
102.3186111450195
 31
0.0
  0
LINE
  5
127
330
22
100
AcDbEntity
  8
0
  6
Continuous
 62
     7
100
AcDbLine
 10
-364.3452453613281
 20
105.3186111450195
 30
0.0
 11
-361.3452453613281
 21
102.3186111450195
 31
0.0
  0
LINE
  5
128
330
22
100
AcDbEntity
  8
0
  6
Continuous
 62
     7
100
AcDbLine
 10
-366.4665832519531
 20
105.3186111450195
 30
0.0
 11
-363.4665832519531
 21
102.3186111450195
 31
0.0
  0
LINE
  5
129
330
22
100
AcDbEntity
  8
0
  6
Continuous
 62
     7
100
AcDbLine
 10
-367.1736755371094
 20
105.3186111450195
 30
0.0
 11
-364.1736755371094
 21
102.3186111450195
 31
0.0
  0
LINE
  5
12A
330
22
100
AcDbEntity
  8
0
  6
Continuous
 62
     7
100
AcDbLine
 10
-369.2949829101563
 20
105.3186111450195
 30
0.0
 11
-366.2949829101563
 21
102.3186111450195
 31
0.0
  0
LINE
  5
12B
330
22
100
AcDbEntity
  8
0
  6
Continuous
 62
     7
100
AcDbLine
 10
-370.0021057128906
 20
105.3186111450195
 30
0.0
 11
-367.0021057128906
 21
102.3186111450195
 31
0.0
  0
LINE
  5
12C
330
22
100
AcDbEntity
  8
0
  6
Continuous
 62
     7
100
AcDbLine
 10
-372.1234130859375
 20
105.3186111450195
 30
0.0
 11
-369.1234130859375
 21
102.3186111450195
 31
0.0
  0
LINE
  5
12D
330
22
100
AcDbEntity
  8
0
  6
Continuous
 62
     7
100
AcDbLine
 10
-372.8305358886719
 20
105.3186111450195
 30
0.0
 11
-369.8305358886719
 21
102.3186111450195
 31
0.0
  0
LINE
  5
12E
330
22
100
AcDbEntity
  8
0
  6
Continuous
 62
     7
100
AcDbLine
 10
-374.9518432617188
 20
105.3186111450195
 30
0.0
 11
-371.9518432617188
 21
102.3186111450195
 31
0.0
  0
LINE
  5
12F
330
22
100
AcDbEntity
  8
0
  6
Continuous
 62
     7
100
AcDbLine
 10
-375.6589660644531
 20
105.3186111450195
 30
0.0
 11
-372.6589660644531
 21
102.3186111450195
 31
0.0
  0
LINE
  5
130
330
22
100
AcDbEntity
  8
0
  6
Continuous
 62
     7
100
AcDbLine
 10
-377.7802734375
 20
105.3186111450195
 30
0.0
 11
-374.7802734375
 21
102.3186111450195
 31
0.0
  0
LINE
  5
131
330
22
100
AcDbEntity
  8
0
  6
Continuous
 62
     7
100
AcDbLine
 10
-378.3089904785156
 20
105.1402130126953
 30
0.0
 11
-375.4873962402344
 21
102.3186111450195
 31
0.0
  0
LINE
  5
132
330
22
100
AcDbEntity
  8
0
  6
Continuous
 62
     7
100
AcDbLine
 10
-378.3089904785156
 20
103.0188903808594
 30
0.0
 11
-377.6087036132813
 21
102.3186111450195
 31
0.0
  0
LINE
  5
133
330
22
100
AcDbEntity
  8
0
  6
Continuous
 62
     7
100
AcDbLine
 10
-329.3089904785156
 20
102.3186111450195
 30
0.0
 11
-378.3089904785156
 21
102.3186111450195
 31
0.0
  0
LINE
  5
134
330
22
100
AcDbEntity
  8
0
  6
Continuous
 62
     7
100
AcDbLine
 10
-329.3089904785156
 20
105.3186111450195
 30
0.0
 11
-378.3089904785156
 21
105.3186111450195
 31
0.0
  0
LINE
  5
135
330
22
100
AcDbEntity
  8
0
  6
Continuous
 62
     7
100
AcDbLine
 10
-370.3089904785156
 20
198.318603515625
 30
0.0
 11
-370.3089904785156
 21
243.318603515625
 31
0.0
  0
LINE
  5
136
330
22
100
AcDbEntity
  8
0
  6
Continuous
 62
     7
100
AcDbLine
 10
-370.3089904785156
 20
198.318603515625
 30
0.0
 11
-382.8869934082031
 21
198.318603515625
 31
0.0
  0
LINE
  5
137
330
22
100
AcDbEntity
  8
0
  6
Continuous
 62
     7
100
AcDbLine
 10
-368.3472595214844
 20
255.318603515625
 30
0.0
 11
-366.8089904785156
 21
253.7803344726563
 31
0.0
  0
LINE
  5
138
330
22
100
AcDbEntity
  8
0
  6
Continuous
 62
     7
100
AcDbLine
 10
-369.0543518066406
 20
255.318603515625
 30
0.0
 11
-366.8089904785156
 21
253.0732421875
 31
0.0
  0
LINE
  5
139
330
22
100
AcDbEntity
  8
0
  6
Continuous
 62
     7
100
AcDbLine
 10
-371.1756896972656
 20
255.318603515625
 30
0.0
 11
-366.8089904785156
 21
250.9519195556641
 31
0.0
  0
LINE
  5
13A
330
22
100
AcDbEntity
  8
0
  6
Continuous
 62
     7
100
AcDbLine
 10
-371.8827819824219
 20
255.318603515625
 30
0.0
 11
-366.8089904785156
 21
250.2448120117188
 31
0.0
  0
LINE
  5
13B
330
22
100
AcDbEntity
  8
0
  6
Continuous
 62
     7
100
AcDbLine
 10
-374.0041198730469
 20
255.318603515625
 30
0.0
 11
-366.8089904785156
 21
248.1234893798828
 31
0.0
  0
LINE
  5
13C
330
22
100
AcDbEntity
  8
0
  6
Continuous
 62
     7
100
AcDbLine
 10
-374.7112121582031
 20
255.318603515625
 30
0.0
 11
-366.8089904785156
 21
247.4163818359375
 31
0.0
  0
LINE
  5
13D
330
22
100
AcDbEntity
  8
0
  6
Continuous
 62
     7
100
AcDbLine
 10
-376.83251953125
 20
255.318603515625
 30
0.0
 11
-366.83251953125
 21
245.318603515625
 31
0.0
  0
LINE
  5
13E
330
22
100
AcDbEntity
  8
0
  6
Continuous
 62
     7
100
AcDbLine
 10
-377.5396423339844
 20
255.318603515625
 30
0.0
 11
-367.5396423339844
 21
245.318603515625
 31
0.0
  0
LINE
  5
13F
330
22
100
AcDbEntity
  8
0
  6
Continuous
 62
     7
100
AcDbLine
 10
-379.6609497070313
 20
255.318603515625
 30
0.0
 11
-369.3347473144531
 21
244.9923858642578
 31
0.0
  0
LINE
  5
140
330
22
100
AcDbEntity
  8
0
  6
Continuous
 62
     7
100
AcDbLine
 10
-380.3680725097656
 20
255.318603515625
 30
0.0
 11
-369.7468566894531
 21
244.6974029541016
 31
0.0
  0
LINE
  5
141
330
22
100
AcDbEntity
  8
0
  6
Continuous
 62
     7
100
AcDbLine
 10
-382.4893798828125
 20
255.318603515625
 30
0.0
 11
-370.3089904785156
 21
243.1381988525391
 31
0.0
  0
LINE
  5
142
330
22
100
AcDbEntity
  8
0
  6
Continuous
 62
     7
100
AcDbLine
 10
-383.1965026855469
 20
255.318603515625
 30
0.0
 11
-370.3089904785156
 21
242.4311065673828
 31
0.0
  0
LINE
  5
143
330
22
100
AcDbEntity
  8
0
  6
Continuous
 62
     7
100
AcDbLine
 10
-385.3178100585938
 20
255.318603515625
 30
0.0
 11
-370.3089904785156
 21
240.3097839355469
 31
0.0
  0
LINE
  5
144
330
22
100
AcDbEntity
  8
0
  6
Continuous
 62
     7
100
AcDbLine
 10
-385.8263549804688
 20
255.1200408935547
 30
0.0
 11
-370.3089904785156
 21
239.6026763916016
 31
0.0
  0
LINE
  5
145
330
22
100
AcDbEntity
  8
0
  6
Continuous
 62
     7
100
AcDbLine
 10
-385.9970092773438
 20
253.1693878173828
 30
0.0
 11
-370.3089904785156
 21
237.4813537597656
 31
0.0
  0
LINE
  5
146
330
22
100
AcDbEntity
  8
0
  6
Continuous
 62
     7
100
AcDbLine
 10
-386.0538940429688
 20
252.5191650390625
 30
0.0
 11
-370.3089904785156
 21
236.7742462158203
 31
0.0
  0
LINE
  5
147
330
22
100
AcDbEntity
  8
0
  6
Continuous
 62
     7
100
AcDbLine
 10
-386.1860046386719
 20
250.5299377441406
 30
0.0
 11
-370.3089904785156
 21
234.6529235839844
 31
0.0
  0
LINE
  5
148
330
22
100
AcDbEntity
  8
0
  6
Continuous
 62
     7
100
AcDbLine
 10
-386.2814636230469
 20
249.9182891845703
 30
0.0
 11
-370.3089904785156
 21
233.9458160400391
 31
0.0
  0
LINE
  5
149
330
22
100
AcDbEntity
  8
0
  6
Continuous
 62
     7
100
AcDbLine
 10
-386.4521179199219
 20
247.9676208496094
 30
0.0
 11
-370.3089904785156
 21
231.8244934082031
 31
0.0
  0
LINE
  5
14A
330
22
100
AcDbEntity
  8
0
  6
Continuous
 62
     7
100
AcDbLine
 10
-386.5090026855469
 20
247.3173980712891
 30
0.0
 11
-370.3089904785156
 21
231.1173858642578
 31
0.0
  0
LINE
  5
14B
330
22
100
AcDbEntity
  8
0
  6
Continuous
 62
     7
100
AcDbLine
 10
-386.6796569824219
 20
245.3667449951172
 30
0.0
 11
-370.3089904785156
 21
228.9960632324219
 31
0.0
  0
LINE
  5
14C
330
22
100
AcDbEntity
  8
0
  6
Continuous
 62
     7
100
AcDbLine
 10
-386.7365417480469
 20
244.7165222167969
 30
0.0
 11
-370.3089904785156
 21
228.2889709472656
 31
0.0
  0
LINE
  5
14D
330
22
100
AcDbEntity
  8
0
  6
Continuous
 62
     7
100
AcDbLine
 10
-386.9071960449219
 20
242.765869140625
 30
0.0
 11
-370.3089904785156
 21
226.1676483154297
 31
0.0
  0
LINE
  5
14E
330
22
100
AcDbEntity
  8
0
  6
Continuous
 62
     7
100
AcDbLine
 10
-386.9640808105469
 20
242.1156463623047
 30
0.0
 11
-370.3089904785156
 21
225.4605407714844
 31
0.0
  0
LINE
  5
14F
330
22
100
AcDbEntity
  8
0
  6
Continuous
 62
     7
100
AcDbLine
 10
-387.2883911132813
 20
240.318603515625
 30
0.0
 11
-370.3089904785156
 21
223.3392181396484
 31
0.0
  0
LINE
  5
150
330
22
100
AcDbEntity
  8
0
  6
Continuous
 62
     7
100
AcDbLine
 10
-387.9954833984375
 20
240.318603515625
 30
0.0
 11
-370.3089904785156
 21
222.6321105957031
 31
0.0
  0
LINE
  5
151
330
22
100
AcDbEntity
  8
0
  6
Continuous
 62
     7
100
AcDbLine
 10
-390.1167907714844
 20
240.318603515625
 30
0.0
 11
-370.3089904785156
 21
220.5107879638672
 31
0.0
  0
LINE
  5
152
330
22
100
AcDbEntity
  8
0
  6
Continuous
 62
     7
100
AcDbLine
 10
-390.8239135742188
 20
240.318603515625
 30
0.0
 11
-370.3089904785156
 21
219.8036804199219
 31
0.0
  0
LINE
  5
153
330
22
100
AcDbEntity
  8
0
  6
Continuous
 62
     7
100
AcDbLine
 10
-391.3089904785156
 20
238.6823577880859
 30
0.0
 11
-370.3089904785156
 21
217.6823577880859
 31
0.0
  0
LINE
  5
154
330
22
100
AcDbEntity
  8
0
  6
Continuous
 62
     7
100
AcDbLine
 10
-391.3089904785156
 20
237.9752502441406
 30
0.0
 11
-370.3089904785156
 21
216.9752502441406
 31
0.0
  0
LINE
  5
155
330
22
100
AcDbEntity
  8
0
  6
Continuous
 62
     7
100
AcDbLine
 10
-383.8017272949219
 20
228.3466796875
 30
0.0
 11
-370.3089904785156
 21
214.8539276123047
 31
0.0
  0
LINE
  5
156
330
22
100
AcDbEntity
  8
0
  6
Continuous
 62
     7
100
AcDbLine
 10
-391.3089904785156
 20
235.8539276123047
 30
0.0
 11
-385.7736511230469
 21
230.318603515625
 31
0.0
  0
LINE
  5
157
330
22
100
AcDbEntity
  8
0
  6
Continuous
 62
     7
100
AcDbLine
 10
-383.7790222167969
 20
227.6168670654297
 30
0.0
 11
-370.3089904785156
 21
214.1468353271484
 31
0.0
  0
LINE
  5
158
330
22
100
AcDbEntity
  8
0
  6
Continuous
 62
     7
100
AcDbLine
 10
-391.3089904785156
 20
235.1468353271484
 30
0.0
 11
-386.4807739257813
 21
230.318603515625
 31
0.0
  0
LINE
  5
159
330
22
100
AcDbEntity
  8
0
  6
Continuous
 62
     7
100
AcDbLine
 10
-383.7108459472656
 20
225.4273834228516
 30
0.0
 11
-370.3089904785156
 21
212.0255126953125
 31
0.0
  0
LINE
  5
15A
330
22
100
AcDbEntity
  8
0
  6
Continuous
 62
     7
100
AcDbLine
 10
-391.3089904785156
 20
233.0255126953125
 30
0.0
 11
-388.6020812988281
 21
230.318603515625
 31
0.0
  0
LINE
  5
15B
330
22
100
AcDbEntity
  8
0
  6
Continuous
 62
     7
100
AcDbLine
 10
-383.6881408691406
 20
224.6975555419922
 30
0.0
 11
-370.3089904785156
 21
211.3184051513672
 31
0.0
  0
LINE
  5
15C
330
22
100
AcDbEntity
  8
0
  6
Continuous
 62
     7
100
AcDbLine
 10
-391.3089904785156
 20
232.3184051513672
 30
0.0
 11
-389.3092041015625
 21
230.318603515625
 31
0.0
  0
LINE
  5
15D
330
22
100
AcDbEntity
  8
0
  6
Continuous
 62
     7
100
AcDbLine
 10
-383.6199951171875
 20
222.5080871582031
 30
0.0
 11
-370.3089904785156
 21
209.1970825195313
 31
0.0
  0
LINE
  5
15E
330
22
100
AcDbEntity
  8
0
  6
Continuous
 62
     7
100
AcDbLine
 10
-383.5972595214844
 20
221.7782592773438
 30
0.0
 11
-370.3089904785156
 21
208.4899749755859
 31
0.0
  0
LINE
  5
15F
330
22
100
AcDbEntity
  8
0
  6
Continuous
 62
     7
100
AcDbLine
 10
-383.5291137695313
 20
219.5887756347656
 30
0.0
 11
-370.3089904785156
 21
206.36865234375
 31
0.0
  0
LINE
  5
160
330
22
100
AcDbEntity
  8
0
  6
Continuous
 62
     7
100
AcDbLine
 10
-383.5063781738281
 20
218.8589477539063
 30
0.0
 11
-370.3089904785156
 21
205.6615447998047
 31
0.0
  0
LINE
  5
161
330
22
100
AcDbEntity
  8
0
  6
Continuous
 62
     7
100
AcDbLine
 10
-383.438232421875
 20
216.6694793701172
 30
0.0
 11
-370.3089904785156
 21
203.5402221679688
 31
0.0
  0
LINE
  5
162
330
22
100
AcDbEntity
  8
0
  6
Continuous
 62
     7
100
AcDbLine
 10
-383.41552734375
 20
215.9396514892578
 30
0.0
 11
-370.3089904785156
 21
202.8331146240234
 31
0.0
  0
LINE
  5
163
330
22
100
AcDbEntity
  8
0
  6
Continuous
 62
     7
100
AcDbLine
 10
-383.3473510742188
 20
213.7501678466797
 30
0.0
 11
-370.3089904785156
 21
200.7117919921875
 31
0.0
  0
LINE
  5
164
330
22
100
AcDbEntity
  8
0
  6
Continuous
 62
     7
100
AcDbLine
 10
-383.3246459960938
 20
213.0203399658203
 30
0.0
 11
-370.3089904785156
 21
200.0046997070313
 31
0.0
  0
LINE
  5
165
330
22
100
AcDbEntity
  8
0
  6
Continuous
 62
     7
100
AcDbLine
 10
-383.2564697265625
 20
210.8308715820313
 30
0.0
 11
-370.7442321777344
 21
198.318603515625
 31
0.0
  0
LINE
  5
166
330
22
100
AcDbEntity
  8
0
  6
Continuous
 62
     7
100
AcDbLine
 10
-383.2337646484375
 20
210.1010437011719
 30
0.0
 11
-371.4513244628906
 21
198.318603515625
 31
0.0
  0
LINE
  5
167
330
22
100
AcDbEntity
  8
0
  6
Continuous
 62
     7
100
AcDbLine
 10
-383.1656188964844
 20
207.9115600585939
 30
0.0
 11
-373.5726623535156
 21
198.318603515625
 31
0.0
  0
LINE
  5
168
330
22
100
AcDbEntity
  8
0
  6
Continuous
 62
     7
100
AcDbLine
 10
-383.1428833007813
 20
207.1817474365234
 30
0.0
 11
-374.2797546386719
 21
198.318603515625
 31
0.0
  0
LINE
  5
169
330
22
100
AcDbEntity
  8
0
  6
Continuous
 62
     7
100
AcDbLine
 10
-383.0747375488281
 20
204.9922637939453
 30
0.0
 11
-376.4010620117188
 21
198.318603515625
 31
0.0
  0
LINE
  5
16A
330
22
100
AcDbEntity
  8
0
  6
Continuous
 62
     7
100
AcDbLine
 10
-383.052001953125
 20
204.2624359130859
 30
0.0
 11
-377.1081848144531
 21
198.318603515625
 31
0.0
  0
LINE
  5
16B
330
22
100
AcDbEntity
  8
0
  6
Continuous
 62
     7
100
AcDbLine
 10
-382.9838562011719
 20
202.0729675292969
 30
0.0
 11
-379.2294921875
 21
198.318603515625
 31
0.0
  0
LINE
  5
16C
330
22
100
AcDbEntity
  8
0
  6
Continuous
 62
     7
100
AcDbLine
 10
-382.9611206054688
 20
201.3431396484375
 30
0.0
 11
-379.9366149902344
 21
198.318603515625
 31
0.0
  0
LINE
  5
16D
330
22
100
AcDbEntity
  8
0
  6
Continuous
 62
     7
100
AcDbLine
 10
-382.8929748535156
 20
199.1536560058594
 30
0.0
 11
-382.0579223632813
 21
198.318603515625
 31
0.0
  0
LINE
  5
16E
330
22
100
AcDbEntity
  8
0
  6
Continuous
 62
     7
100
AcDbLine
 10
-386.1214599609375
 20
252.318603515625
 30
0.0
 11
-388.8089904785156
 21
252.318603515625
 31
0.0
  0
LINE
  5
16F
330
22
100
AcDbEntity
  8
0
  6
Continuous
 62
     7
100
AcDbLine
 10
-388.8089904785156
 20
252.318603515625
 30
0.0
 11
-388.8089904785156
 21
249.1186065673828
 31
0.0
  0
LINE
  5
170
330
22
100
AcDbEntity
  8
0
  6
Continuous
 62
     7
100
AcDbLine
 10
-388.8089904785156
 20
249.1186065673828
 30
0.0
 11
-386.4014282226563
 21
249.1186065673828
 31
0.0
  0
LINE
  5
171
330
22
100
AcDbEntity
  8
0
  6
Continuous
 62
     7
100
AcDbLine
 10
-385.8589782714844
 20
255.318603515625
 30
0.0
 11
-386.1214599609375
 21
252.318603515625
 31
0.0
  0
LINE
  5
172
330
22
100
AcDbEntity
  8
0
  6
Continuous
 62
     7
100
AcDbLine
 10
-382.2589721679688
 20
175.4186096191406
 30
0.0
 11
-382.2589721679688
 21
187.9376983642578
 31
0.0
  0
LINE
  5
173
330
22
100
AcDbEntity
  8
0
  6
Continuous
 62
     7
100
AcDbLine
 10
-384.3589782714844
 20
173.318603515625
 30
0.0
 11
-382.2589721679688
 21
175.4186096191406
 31
0.0
  0
LINE
  5
174
330
22
100
AcDbEntity
  8
0
  6
Continuous
 62
     7
100
AcDbLine
 10
-385.3335571289063
 20
87.11860656738281
 30
0.0
 11
-385.3335571289063
 21
100.3186111450195
 31
0.0
  0
LINE
  5
175
330
22
100
AcDbEntity
  8
0
  6
Continuous
 62
     7
100
AcDbLine
 10
-385.3335571289063
 20
100.3186111450195
 30
0.0
 11
-384.4015197753906
 21
100.3186111450195
 31
0.0
  0
LINE
  5
176
330
22
100
AcDbEntity
  8
0
  6
Continuous
 62
     7
100
AcDbLine
 10
-382.9100952148438
 20
57.31861114501953
 30
0.0
 11
-384.4503784179688
 21
58.85891723632813
 31
0.0
  0
LINE
  5
177
330
22
100
AcDbEntity
  8
0
  6
Continuous
 62
     7
100
AcDbLine
 10
-385.3335571289063
 20
87.11860656738281
 30
0.0
 11
-384.4503784179688
 21
58.85891723632813
 31
0.0
  0
LINE
  5
178
330
22
100
AcDbEntity
  8
0
  6
Continuous
 62
     7
100
AcDbLine
 10
-383.7932434082031
 20
85.57830047607422
 30
0.0
 11
-382.9100952148438
 21
57.31861114501953
 31
0.0
  0
LINE
  5
179
330
22
100
AcDbEntity
  8
0
  6
Continuous
 62
     7
100
AcDbLine
 10
-382.8689880371094
 20
119.8086090087891
 30
0.0
 11
-382.8689880371094
 21
174.8086090087891
 31
0.0
  0
LINE
  5
17A
330
22
100
AcDbEntity
  8
0
  6
Continuous
 62
     7
100
AcDbLine
 10
-384.3589782714844
 20
118.3186111450195
 30
0.0
 11
-384.3589782714844
 21
173.318603515625
 31
0.0
  0
LINE
  5
17B
330
22
100
AcDbEntity
  8
0
  6
Continuous
 62
     7
100
AcDbLine
 10
-384.4015197753906
 20
136.4186096191406
 30
0.0
 11
-384.4015197753906
 21
100.3186111450195
 31
0.0
  0
LINE
  5
17C
330
22
100
AcDbEntity
  8
0
  6
Continuous
 62
     7
100
AcDbLine
 10
-382.9100952148438
 20
138.318603515625
 30
0.0
 11
-382.9100952148438
 21
101.8100509643555
 31
0.0
  0
LINE
  5
17D
330
22
100
AcDbEntity
  8
0
  6
Continuous
 62
     7
100
AcDbLine
 10
-384.3589782714844
 20
118.3186111450195
 30
0.0
 11
-382.8689880371094
 21
119.8086090087891
 31
0.0
  0
LINE
  5
17E
330
22
100
AcDbEntity
  8
0
  6
Continuous
 62
     7
100
AcDbLine
 10
-384.4015197753906
 20
136.4186096191406
 30
0.0
 11
-382.9100952148438
 21
138.318603515625
 31
0.0
  0
LINE
  5
17F
330
22
100
AcDbEntity
  8
0
  6
Continuous
 62
     7
100
AcDbLine
 10
-384.1112060546875
 20
189.7899169921875
 30
0.0
 11
-382.2589721679688
 21
187.9376983642578
 31
0.0
  0
LINE
  5
180
330
22
100
AcDbEntity
  8
0
  6
Continuous
 62
     7
100
AcDbLine
 10
-385.8089904785156
 20
255.318603515625
 30
0.0
 11
-387.1213073730469
 21
240.318603515625
 31
0.0
  0
LINE
  5
181
330
22
100
AcDbEntity
  8
0
  6
Continuous
 62
     7
100
AcDbLine
 10
-386.4014282226563
 20
249.1186065673828
 30
0.0
 11
-387.1713256835938
 21
240.318603515625
 31
0.0
  0
LINE
  5
182
330
22
100
AcDbEntity
  8
0
  6
Continuous
 62
     7
100
AcDbLine
 10
-383.8631286621094
 20
230.318603515625
 30
0.0
 11
-382.8669738769531
 21
198.318603515625
 31
0.0
  0
LINE
  5
183
330
22
100
AcDbEntity
  8
0
  6
Continuous
 62
     7
100
AcDbLine
 10
-391.3089904785156
 20
240.318603515625
 30
0.0
 11
-391.3089904785156
 21
230.318603515625
 31
0.0
  0
LINE
  5
184
330
22
100
AcDbEntity
  8
0
  6
Continuous
 62
     7
100
AcDbLine
 10
-390.8089904785157
 20
118.3186111450195
 30
0.0
 11
-390.8089904785157
 21
218.318603515625
 31
0.0
  0
LINE
  5
185
330
22
100
AcDbEntity
  8
0
  6
Continuous
 62
     7
100
AcDbLine
 10
-366.8089904785156
 20
245.318603515625
 30
0.0
 11
-366.8089904785156
 21
254.818603515625
 31
0.0
  0
LINE
  5
186
330
22
100
AcDbEntity
  8
0
  6
Continuous
 62
     7
100
AcDbLine
 10
-346.0245666503906
 20
104.3186111450195
 30
0.0
 11
-347.0245666503906
 21
105.3186111450195
 31
0.0
  0
LINE
  5
187
330
22
100
AcDbEntity
  8
0
  6
Continuous
 62
     7
100
AcDbLine
 10
-345.0245666503906
 20
105.3186111450195
 30
0.0
 11
-346.0245666503906
 21
104.3186111450195
 31
0.0
  0
LINE
  5
188
330
22
100
AcDbEntity
  8
0
  6
Continuous
 62
     7
100
AcDbLine
 10
-361.6089782714844
 20
105.3186111450195
 30
0.0
 11
-362.6089782714844
 21
104.3186111450195
 31
0.0
  0
LINE
  5
189
330
22
100
AcDbEntity
  8
0
  6
Continuous
 62
     7
100
AcDbLine
 10
-362.6089782714844
 20
104.3186111450195
 30
0.0
 11
-363.6089782714844
 21
105.3186111450195
 31
0.0
  0
LINE
  5
18A
330
22
100
AcDbEntity
  8
0
  6
Continuous
 62
     7
100
AcDbLine
 10
-329.3089904785156
 20
105.3186111450195
 30
0.0
 11
-329.3089904785156
 21
102.3186111450195
 31
0.0
  0
LINE
  5
18B
330
22
100
AcDbEntity
  8
0
  6
Continuous
 62
     7
100
AcDbLine
 10
-334.3089904785156
 20
105.3191146850586
 30
0.0
 11
-336.5589904785156
 21
103.0691146850586
 31
0.0
  0
LINE
  5
18C
330
22
100
AcDbEntity
  8
0
  6
Continuous
 62
     7
100
AcDbLine
 10
-344.3089904785156
 20
105.3191146850586
 30
0.0
 11
-342.0589904785156
 21
103.0691146850586
 31
0.0
  0
LINE
  5
18D
330
22
100
AcDbEntity
  8
0
  6
CENTER
 62
     7
100
AcDbLine
 10
-339.3089904785156
 20
106.5013961791992
 30
0.0
 11
-339.3089904785156
 21
101.0716857910155
 31
0.0
  0
LINE
  5
18E
330
22
100
AcDbEntity
  8
0
  6
Continuous
 62
     7
100
AcDbLine
 10
-342.0589904785156
 20
102.3191146850586
 30
0.0
 11
-342.0589904785156
 21
103.0691146850586
 31
0.0
  0
LINE
  5
18F
330
22
100
AcDbEntity
  8
0
  6
Continuous
 62
     7
100
AcDbLine
 10
-330.2724914550781
 20
105.3186111450195
 30
0.0
 11
-329.3089904785156
 21
104.3551177978516
 31
0.0
  0
LINE
  5
190
330
22
100
AcDbEntity
  8
0
  6
Continuous
 62
     7
100
AcDbLine
 10
-330.9795837402344
 20
105.3186111450195
 30
0.0
 11
-329.3089904785156
 21
103.6480102539063
 31
0.0
  0
LINE
  5
191
330
22
100
AcDbEntity
  8
0
  6
Continuous
 62
     7
100
AcDbLine
 10
-333.1008911132813
 20
105.3186111450195
 30
0.0
 11
-330.1008911132813
 21
102.3186111450195
 31
0.0
  0
LINE
  5
192
330
22
100
AcDbEntity
  8
0
  6
Continuous
 62
     7
100
AcDbLine
 10
-333.8080139160156
 20
105.3186111450195
 30
0.0
 11
-330.8080139160156
 21
102.3186111450195
 31
0.0
  0
LINE
  5
193
330
22
100
AcDbEntity
  8
0
  6
Continuous
 62
     7
100
AcDbLine
 10
-335.1194152832031
 20
104.5086898803711
 30
0.0
 11
-332.9293212890625
 21
102.3186111450195
 31
0.0
  0
LINE
  5
194
330
22
100
AcDbEntity
  8
0
  6
Continuous
 62
     7
100
AcDbLine
 10
-335.4729614257813
 20
104.1551361083984
 30
0.0
 11
-333.6364440917969
 21
102.3186111450195
 31
0.0
  0
LINE
  5
195
330
22
100
AcDbEntity
  8
0
  6
Continuous
 62
     7
100
AcDbLine
 10
-336.5336303710938
 20
103.0944747924805
 30
0.0
 11
-335.7577514648438
 21
102.3186111450195
 31
0.0
  0
LINE
  5
196
330
22
100
AcDbEntity
  8
0
  6
Continuous
 62
     7
100
AcDbLine
 10
-382.5723876953125
 20
188.2510986328125
 30
0.0
 11
-383.4639587402344
 21
216.77978515625
 31
0.0
  0
LINE
  5
197
330
22
100
AcDbEntity
  8
0
  6
Continuous
 62
     7
100
AcDbLine
 10
-382.9100952148438
 20
137.5682830810547
 30
0.0
 11
-382.1597595214844
 21
138.318603515625
 31
0.0
  0
LINE
  5
198
330
22
100
AcDbEntity
  8
0
  6
Continuous
 62
     7
100
AcDbLine
 10
-382.9100952148438
 20
134.7398681640625
 30
0.0
 11
-379.3313293457031
 21
138.318603515625
 31
0.0
  0
LINE
  5
199
330
22
100
AcDbEntity
  8
0
  6
Continuous
 62
     7
100
AcDbLine
 10
-382.9100952148438
 20
131.9114379882813
 30
0.0
 11
-378.3089904785156
 21
136.5125274658202
 31
0.0
  0
LINE
  5
19A
330
22
100
AcDbEntity
  8
0
  6
Continuous
 62
     7
100
AcDbLine
 10
-382.9100952148438
 20
129.0830078125
 30
0.0
 11
-378.3089904785156
 21
133.6840972900391
 31
0.0
  0
LINE
  5
19B
330
22
100
AcDbEntity
  8
0
  6
Continuous
 62
     7
100
AcDbLine
 10
-382.9100952148438
 20
126.2545776367188
 30
0.0
 11
-378.3089904785156
 21
130.8556823730469
 31
0.0
  0
LINE
  5
19C
330
22
100
AcDbEntity
  8
0
  6
Continuous
 62
     7
100
AcDbLine
 10
-382.9100952148438
 20
123.426155090332
 30
0.0
 11
-378.3089904785156
 21
128.0272521972656
 31
0.0
  0
LINE
  5
19D
330
22
100
AcDbEntity
  8
0
  6
Continuous
 62
     7
100
AcDbLine
 10
-382.9100952148438
 20
120.5977249145508
 30
0.0
 11
-378.3089904785156
 21
125.1988220214844
 31
0.0
  0
LINE
  5
19E
330
22
100
AcDbEntity
  8
0
  6
Continuous
 62
     7
100
AcDbLine
 10
-382.9100952148438
 20
117.7692947387695
 30
0.0
 11
-378.3089904785156
 21
122.3703994750977
 31
0.0
  0
LINE
  5
19F
330
22
100
AcDbEntity
  8
0
  6
Continuous
 62
     7
100
AcDbLine
 10
-382.9100952148438
 20
114.9408721923828
 30
0.0
 11
-378.3089904785156
 21
119.5419692993164
 31
0.0
  0
LINE
  5
1A0
330
22
100
AcDbEntity
  8
0
  6
Continuous
 62
     7
100
AcDbLine
 10
-382.9100952148438
 20
112.1124420166016
 30
0.0
 11
-378.3089904785156
 21
116.7135391235352
 31
0.0
  0
LINE
  5
1A1
330
22
100
AcDbEntity
  8
0
  6
Continuous
 62
     7
100
AcDbLine
 10
-382.9100952148438
 20
109.2840194702148
 30
0.0
 11
-378.3089904785156
 21
113.8851165771484
 31
0.0
  0
LINE
  5
1A2
330
22
100
AcDbEntity
  8
0
  6
Continuous
 62
     7
100
AcDbLine
 10
-382.9100952148438
 20
106.4555892944336
 30
0.0
 11
-378.3089904785156
 21
111.0566864013672
 31
0.0
  0
LINE
  5
1A3
330
22
100
AcDbEntity
  8
0
  6
Continuous
 62
     7
100
AcDbLine
 10
-382.9100952148438
 20
103.6271591186523
 30
0.0
 11
-378.3089904785156
 21
108.2282638549805
 31
0.0
  0
LINE
  5
1A4
330
22
100
AcDbEntity
  8
0
  6
Continuous
 62
     7
100
AcDbLine
 10
-385.3335571289063
 20
98.37526702880859
 30
0.0
 11
-378.3089904785156
 21
105.3998336791992
 31
0.0
  0
LINE
  5
1A5
330
22
100
AcDbEntity
  8
0
  6
Continuous
 62
     7
100
AcDbLine
 10
-385.3335571289063
 20
95.54683685302734
 30
0.0
 11
-378.3089904785156
 21
102.571403503418
 31
0.0
  0
LINE
  5
1A6
330
22
100
AcDbEntity
  8
0
  6
Continuous
 62
     7
100
AcDbLine
 10
-385.3335571289063
 20
92.71841430664064
 30
0.0
 11
-378.3089904785156
 21
99.74298095703124
 31
0.0
  0
LINE
  5
1A7
330
22
100
AcDbEntity
  8
0
  6
Continuous
 62
     7
100
AcDbLine
 10
-385.3335571289063
 20
89.88998413085937
 30
0.0
 11
-378.3089904785156
 21
96.91455078125001
 31
0.0
  0
LINE
  5
1A8
330
22
100
AcDbEntity
  8
0
  6
Continuous
 62
     7
100
AcDbLine
 10
-385.3050231933594
 20
87.09008026123047
 30
0.0
 11
-378.3089904785156
 21
94.08612823486327
 31
0.0
  0
LINE
  5
1A9
330
22
100
AcDbEntity
  8
0
  6
Continuous
 62
     7
100
AcDbLine
 10
-383.8908081054688
 20
85.67587280273437
 30
0.0
 11
-378.3089904785156
 21
91.25769805908204
 31
0.0
  0
LINE
  5
1AA
330
22
100
AcDbEntity
  8
0
  6
Continuous
 62
     7
100
AcDbLine
 10
-383.7134399414063
 20
83.02481079101562
 30
0.0
 11
-378.3089904785156
 21
88.42926788330078
 31
0.0
  0
LINE
  5
1AB
330
22
100
AcDbEntity
  8
0
  6
Continuous
 62
     7
100
AcDbLine
 10
-383.6277160644531
 20
80.28209686279296
 30
0.0
 11
-378.3089904785156
 21
85.60084533691407
 31
0.0
  0
LINE
  5
1AC
330
22
100
AcDbEntity
  8
0
  6
Continuous
 62
     7
100
AcDbLine
 10
-383.5420227050781
 20
77.53939056396484
 30
0.0
 11
-378.3089904785156
 21
82.77241516113281
 31
0.0
  0
LINE
  5
1AD
330
22
100
AcDbEntity
  8
0
  6
Continuous
 62
     7
100
AcDbLine
 10
-383.456298828125
 20
74.79667663574218
 30
0.0
 11
-378.3089904785156
 21
79.94399261474609
 31
0.0
  0
LINE
  5
1AE
330
22
100
AcDbEntity
  8
0
  6
Continuous
 62
     7
100
AcDbLine
 10
-383.3705749511718
 20
72.05396270751953
 30
0.0
 11
-378.3089904785156
 21
77.11556243896485
 31
0.0
  0
LINE
  5
1AF
330
22
100
AcDbEntity
  8
0
  6
Continuous
 62
     7
100
AcDbLine
 10
-383.2848815917969
 20
69.31124877929689
 30
0.0
 11
-378.3089904785156
 21
74.28713226318359
 31
0.0
  0
LINE
  5
1B0
330
22
100
AcDbEntity
  8
0
  6
Continuous
 62
     7
100
AcDbLine
 10
-383.1991577148438
 20
66.56853485107422
 30
0.0
 11
-378.3089904785156
 21
71.45870971679688
 31
0.0
  0
LINE
  5
1B1
330
22
100
AcDbEntity
  8
0
  6
Continuous
 62
     7
100
AcDbLine
 10
-383.1134338378906
 20
63.82582092285156
 30
0.0
 11
-378.3089904785156
 21
68.63027954101564
 31
0.0
  0
LINE
  5
1B2
330
22
100
AcDbEntity
  8
0
  6
Continuous
 62
     7
100
AcDbLine
 10
-383.0277404785156
 20
61.08311080932617
 30
0.0
 11
-378.3089904785156
 21
65.80185699462891
 31
0.0
  0
LINE
  5
1B3
330
22
100
AcDbEntity
  8
0
  6
Continuous
 62
     7
100
AcDbLine
 10
-382.9420166015625
 20
58.34039688110352
 30
0.0
 11
-378.3089904785156
 21
62.97342681884765
 31
0.0
  0
LINE
  5
1B4
330
22
100
AcDbEntity
  8
0
  6
Continuous
 62
     7
100
AcDbLine
 10
-381.1353759765625
 20
57.31861114501953
 30
0.0
 11
-378.3089904785156
 21
60.14500045776367
 31
0.0
  0
LINE
  5
1B5
330
22
100
AcDbEntity
  8
0
  6
Continuous
 62
     7
100
AcDbLine
 10
-378.3089904785156
 20
138.318603515625
 30
0.0
 11
-382.8689880371094
 21
138.318603515625
 31
0.0
  0
LINE
  5
1B6
330
22
100
AcDbEntity
  8
0
  6
Continuous
 62
     7
100
AcDbLine
 10
-384.4015197753906
 20
100.3186111450195
 30
0.0
 11
-382.9100952148438
 21
101.8100509643555
 31
0.0
  0
LINE
  5
1B7
330
22
100
AcDbEntity
  8
0
  6
Continuous
 62
     7
100
AcDbLine
 10
-385.1334533691406
 20
228.818603515625
 30
0.0
 11
-384.3459777832031
 21
199.818603515625
 31
0.0
  0
LINE
  5
1B8
330
22
100
AcDbEntity
  8
0
  6
Continuous
 62
     7
100
AcDbLine
 10
-384.1112060546875
 20
189.7899169921875
 30
0.0
 11
-385.0027770996094
 21
218.318603515625
 31
0.0
  0
LINE
  5
1B9
330
22
100
AcDbEntity
  8
0
  6
Continuous
 62
     7
100
AcDbLine
 10
-385.3335571289063
 20
87.11860656738281
 30
0.0
 11
-383.7932434082031
 21
85.57830047607422
 31
0.0
  0
LINE
  5
1BA
330
22
100
AcDbEntity
  8
0
  6
Continuous
 62
     7
100
AcDbLine
 10
-384.3459777832031
 20
230.318603515625
 30
0.0
 11
-385.1334533691406
 21
228.818603515625
 31
0.0
  0
LINE
  5
1BB
330
22
100
AcDbEntity
  8
0
  6
Continuous
 62
     7
100
AcDbLine
 10
-385.0027770996094
 20
218.318603515625
 30
0.0
 11
-383.4639587402344
 21
216.77978515625
 31
0.0
  0
LINE
  5
1BC
330
22
100
AcDbEntity
  8
0
  6
Continuous
 62
     7
100
AcDbLine
 10
-384.3847045898438
 20
199.818603515625
 30
0.0
 11
-382.8669738769531
 21
198.318603515625
 31
0.0
  0
LINE
  5
1BD
330
22
100
AcDbEntity
  8
0
  6
Continuous
 62
     7
100
AcDbLine
 10
-378.3089904785156
 20
138.318603515625
 30
0.0
 11
-378.3089904785156
 21
57.31861114501953
 31
0.0
  0
LINE
  5
1BE
330
22
100
AcDbEntity
  8
0
  6
Continuous
 62
     7
100
AcDbLine
 10
-471.0455932617188
 20
188.2510986328125
 30
0.0
 11
-470.7309570312499
 21
198.318603515625
 31
0.0
  0
LINE
  5
1BF
330
22
100
AcDbEntity
  8
0
  6
Continuous
 62
     7
100
AcDbLine
 10
-469.5067749023437
 20
189.7899169921875
 30
0.0
 11
-469.240234375
 21
198.318603515625
 31
0.0
  0
LINE
  5
1C0
330
22
100
AcDbEntity
  8
0
  6
Continuous
 62
     7
100
AcDbLine
 10
-426.8089904785155
 20
102.3186111450195
 30
0.0
 11
-524.3089599609374
 21
102.3186111450195
 31
0.0
  0
LINE
  5
1C1
330
22
100
AcDbEntity
  8
0
  6
Continuous
 62
     7
100
AcDbLine
 10
-426.8089904785155
 20
105.3186111450195
 30
0.0
 11
-524.3089599609374
 21
105.3186111450195
 31
0.0
  0
LINE
  5
1C2
330
22
100
AcDbEntity
  8
0
  6
Continuous
 62
     7
100
AcDbLine
 10
-469.2589721679688
 20
173.318603515625
 30
0.0
 11
-471.3589782714843
 21
175.4186096191406
 31
0.0
  0
LINE
  5
1C3
330
22
100
AcDbEntity
  8
0
  6
Continuous
 62
     7
100
AcDbLine
 10
-471.3589782714843
 20
175.4186096191406
 30
0.0
 11
-471.3589782714843
 21
187.9376983642578
 31
0.0
  0
LINE
  5
1C4
330
22
100
AcDbEntity
  8
0
  6
Continuous
 62
     7
100
AcDbLine
 10
-336.5589904785156
 20
102.3191146850586
 30
0.0
 11
-336.5589904785156
 21
103.0691146850586
 31
0.0
  0
LINE
  5
1C5
330
22
100
AcDbEntity
  8
0
  6
Continuous
 62
     7
100
AcDbLine
 10
-367.3089904785156
 20
255.318603515625
 30
0.0
 11
-366.8089904785156
 21
254.818603515625
 31
0.0
  0
LINE
  5
1C6
330
22
100
AcDbEntity
  8
0
  6
Continuous
 62
     7
100
AcDbLine
 10
-470.7489929199218
 20
138.318603515625
 30
0.0
 11
-470.7489929199218
 21
174.8086090087891
 31
0.0
  0
LINE
  5
1C7
330
22
100
AcDbEntity
  8
0
  6
Continuous
 62
     7
100
AcDbLine
 10
-483.3089904785156
 20
198.318603515625
 30
0.0
 11
-426.8089904785155
 21
198.318603515625
 31
0.0
  0
LINE
  5
1C8
330
22
100
AcDbEntity
  8
0
  6
Continuous
 62
     7
100
AcDbLine
 10
-485.3089904785156
 20
245.318603515625
 30
0.0
 11
-426.8089904785155
 21
245.318603515625
 31
0.0
  0
LINE
  5
1C9
330
22
100
AcDbEntity
  8
0
  6
Continuous
 62
     7
100
AcDbLine
 10
-411.3839721679688
 20
251.318603515625
 30
0.0
 11
-411.3839721679688
 21
247.818603515625
 31
0.0
  0
LINE
  5
1CA
330
22
100
AcDbEntity
  8
0
  6
Continuous
 62
     7
100
AcDbLine
 10
-411.3839721679688
 20
241.318603515625
 30
0.0
 11
-411.3839721679688
 21
220.318603515625
 31
0.0
  0
LINE
  5
1CB
330
22
100
AcDbEntity
  8
0
  6
Continuous
 62
     7
100
AcDbLine
 10
-411.3839721679688
 20
247.818603515625
 30
0.0
 11
-408.7901611328125
 21
247.818603515625
 31
0.0
  0
LINE
  5
1CC
330
22
100
AcDbEntity
  8
0
  6
Continuous
 62
     7
100
AcDbLine
 10
-408.3089904785156
 20
253.318603515625
 30
0.0
 11
-408.4839477539063
 21
251.318603515625
 31
0.0
  0
LINE
  5
1CD
330
22
100
AcDbEntity
  8
0
  6
Continuous
 62
     7
100
AcDbLine
 10
-406.3089904785156
 20
253.318603515625
 30
0.0
 11
-408.3089904785156
 21
253.318603515625
 31
0.0
  0
LINE
  5
1CE
330
22
100
AcDbEntity
  8
0
  6
Continuous
 62
     7
100
AcDbLine
 10
-406.3089904785156
 20
255.318603515625
 30
0.0
 11
-406.3089904785156
 21
253.318603515625
 31
0.0
  0
LINE
  5
1CF
330
22
100
AcDbEntity
  8
0
  6
Continuous
 62
     7
100
AcDbLine
 10
-426.9089965820312
 20
233.318603515625
 30
0.0
 11
-415.6190795898438
 21
233.318603515625
 31
0.0
  0
LINE
  5
1D0
330
22
100
AcDbEntity
  8
0
  6
Continuous
 62
     7
100
AcDbLine
 10
-415.7226867675781
 20
241.318603515625
 30
0.0
 11
-415.7226867675781
 21
233.318603515625
 31
0.0
  0
LINE
  5
1D1
330
22
100
AcDbEntity
  8
0
  6
Continuous
 62
     7
100
AcDbLine
 10
-417.4089965820312
 20
255.318603515625
 30
0.0
 11
-417.4089965820312
 21
251.318603515625
 31
0.0
  0
LINE
  5
1D2
330
22
100
AcDbEntity
  8
0
  6
Continuous
 62
     7
100
AcDbLine
 10
-415.7226867675781
 20
251.318603515625
 30
0.0
 11
-415.7226867675781
 21
233.1919708251953
 31
0.0
  0
LINE
  5
1D3
330
22
100
AcDbEntity
  8
0
  6
Continuous
 62
     7
100
AcDbLine
 10
-426.8089904785155
 20
255.318603515625
 30
0.0
 11
-486.3089904785156
 21
255.318603515625
 31
0.0
  0
LINE
  5
1D4
330
22
100
AcDbEntity
  8
0
  6
Continuous
 62
     7
100
AcDbLine
 10
-475.3089904785156
 20
138.318603515625
 30
0.0
 11
-475.3089904785156
 21
105.3186111450195
 31
0.0
  0
LINE
  5
1D5
330
22
100
AcDbEntity
  8
0
  6
Continuous
 62
     7
100
AcDbLine
 10
-524.3089599609374
 20
102.3186111450195
 30
0.0
 11
-524.3089599609374
 21
105.3186111450195
 31
0.0
  0
LINE
  5
1D6
330
22
100
AcDbEntity
  8
0
  6
Continuous
 62
     7
100
AcDbLine
 10
-483.3089904785156
 20
243.318603515625
 30
0.0
 11
-483.3089904785156
 21
198.318603515625
 31
0.0
  0
LINE
  5
1D7
330
22
100
AcDbEntity
  8
0
  6
Continuous
 62
     7
100
AcDbLine
 10
-475.3089904785156
 20
102.3186111450195
 30
0.0
 11
-475.3089904785156
 21
57.31861114501953
 31
0.0
  0
LINE
  5
1D8
330
22
100
AcDbEntity
  8
0
  6
Continuous
 62
     7
100
AcDbLine
 10
-486.3089904785156
 20
255.318603515625
 30
0.0
 11
-486.8089904785156
 21
254.818603515625
 31
0.0
  0
LINE
  5
1D9
330
22
100
AcDbEntity
  8
0
  6
Continuous
 62
     7
100
AcDbLine
 10
-486.8089904785156
 20
245.318603515625
 30
0.0
 11
-486.8089904785156
 21
254.818603515625
 31
0.0
  0
LINE
  5
1DA
330
22
100
AcDbEntity
  8
0
  6
Continuous
 62
     7
100
AcDbLine
 10
-486.8089904785156
 20
245.318603515625
 30
0.0
 11
-485.3089904785156
 21
245.318603515625
 31
0.0
  0
LINE
  5
1DB
330
22
100
AcDbEntity
  8
0
  6
Continuous
 62
     7
100
AcDbLine
 10
-426.8089904785155
 20
255.318603515625
 30
0.0
 11
-367.3089904785156
 21
255.318603515625
 31
0.0
  0
LINE
  5
1DC
330
22
100
AcDbEntity
  8
0
  6
CENTER
 62
     7
100
AcDbLine
 10
-426.8089904785155
 20
266.7489318847656
 30
0.0
 11
-426.8089904785155
 21
52.02488327026367
 31
0.0
  0
LINE
  5
1DD
330
22
100
AcDbEntity
  8
0
  6
Continuous
 62
     7
100
AcDbLine
 10
-426.8089904785155
 20
255.318603515625
 30
0.0
 11
-406.3089904785156
 21
255.318603515625
 31
0.0
  0
LINE
  5
1DE
330
22
100
AcDbEntity
  8
0
  6
Continuous
 62
     7
100
AcDbLine
 10
-406.2089843749999
 20
255.318603515625
 30
0.0
 11
-406.2089843749999
 21
253.318603515625
 31
0.0
  0
LINE
  5
1DF
330
22
100
AcDbEntity
  8
0
  6
Continuous
 62
     7
100
AcDbLine
 10
-408.3589782714843
 20
253.318603515625
 30
0.0
 11
-409.496337890625
 21
240.318603515625
 31
0.0
  0
LINE
  5
1E0
330
22
100
AcDbEntity
  8
0
  6
Continuous
 62
     7
100
AcDbLine
 10
-411.2619323730468
 20
221.3626861572266
 30
0.0
 11
-411.2619323730468
 21
217.3626861572266
 31
0.0
  0
LINE
  5
1E1
330
22
100
AcDbEntity
  8
0
  6
Continuous
 62
     7
100
AcDbLine
 10
-409.1838684082031
 20
243.318603515625
 30
0.0
 11
-409.3839721679688
 21
243.318603515625
 31
0.0
  0
LINE
  5
1E2
330
22
100
AcDbEntity
  8
0
  6
Continuous
 62
     7
100
AcDbLine
 10
-408.7901611328125
 20
247.818603515625
 30
0.0
 11
-409.1838684082031
 21
243.318603515625
 31
0.0
  0
LINE
  5
1E3
330
22
100
AcDbEntity
  8
0
  6
Continuous
 62
     7
100
AcDbLine
 10
-415.7226867675781
 20
251.318603515625
 30
0.0
 11
-426.9089965820312
 21
251.318603515625
 31
0.0
  0
LINE
  5
1E4
330
22
100
AcDbEntity
  8
0
  6
Continuous
 62
     7
100
AcDbLine
 10
-421.9089965820312
 20
255.318603515625
 30
0.0
 11
-421.9089965820312
 21
251.318603515625
 31
0.0
  0
LINE
  5
1E5
330
22
100
AcDbEntity
  8
0
  6
Continuous
 62
     7
100
AcDbLine
 10
-408.4839477539063
 20
251.318603515625
 30
0.0
 11
-411.3839721679688
 21
251.318603515625
 31
0.0
  0
LINE
  5
1E6
330
22
100
AcDbEntity
  8
0
  6
Continuous
 62
     7
100
AcDbLine
 10
-469.5067749023437
 20
189.7899169921875
 30
0.0
 11
-471.3589782714843
 21
187.9376983642578
 31
0.0
  0
LINE
  5
1E7
330
22
100
AcDbEntity
  8
0
  6
Continuous
 62
     7
100
AcDbLine
 10
-469.2589721679688
 20
138.318603515625
 30
0.0
 11
-469.2589721679688
 21
173.318603515625
 31
0.0
  0
LINE
  5
1E8
330
22
100
AcDbEntity
  8
0
  6
Continuous
 62
     7
100
AcDbLine
 10
-477.0089721679688
 20
198.318603515625
 30
0.0
 11
-426.8089904785155
 21
198.318603515625
 31
0.0
  0
LINE
  5
1E9
330
22
100
AcDbEntity
  8
0
  6
Continuous
 62
     7
100
AcDbLine
 10
-426.8089904785155
 20
138.318603515625
 30
0.0
 11
-475.3089904785156
 21
138.318603515625
 31
0.0
  0
LINE
  5
1EA
330
22
100
AcDbEntity
  8
0
  6
Continuous
 62
     7
100
AcDbLine
 10
-469.5067749023437
 20
189.7899169921875
 30
0.0
 11
-426.8089904785155
 21
189.7899169921875
 31
0.0
  0
LINE
  5
1EB
330
22
100
AcDbEntity
  8
0
  6
Continuous
 62
     7
100
AcDbLine
 10
-469.2589721679688
 20
173.318603515625
 30
0.0
 11
-426.8089904785155
 21
173.318603515625
 31
0.0
  0
LINE
  5
1EC
330
22
100
AcDbEntity
  8
0
  6
Continuous
 62
     7
100
AcDbLine
 10
-404.2619323730468
 20
221.3626861572266
 30
0.0
 11
-404.2619323730468
 21
217.3626861572266
 31
0.0
  0
LINE
  5
1ED
330
22
100
AcDbEntity
  8
0
  6
Continuous
 62
     7
100
AcDbLine
 10
-405.2619323730469
 20
221.3626861572266
 30
0.0
 11
-405.2619323730469
 21
217.3626861572266
 31
0.0
  0
LINE
  5
1EE
330
22
100
AcDbEntity
  8
0
  6
Continuous
 62
     7
100
AcDbLine
 10
-411.3839721679688
 20
221.3626861572266
 30
0.0
 11
-404.2619323730468
 21
221.3626861572266
 31
0.0
  0
LINE
  5
1EF
330
22
100
AcDbEntity
  8
0
  6
Continuous
 62
     7
100
AcDbLine
 10
-417.4089965820312
 20
254.5640106201172
 30
0.0
 11
-416.6543884277343
 21
255.318603515625
 31
0.0
  0
LINE
  5
1F0
330
22
100
AcDbEntity
  8
0
  6
Continuous
 62
     7
100
AcDbLine
 10
-417.4089965820312
 20
251.7355804443359
 30
0.0
 11
-413.825958251953
 21
255.318603515625
 31
0.0
  0
LINE
  5
1F1
330
22
100
AcDbEntity
  8
0
  6
Continuous
 62
     7
100
AcDbLine
 10
-415.7226867675781
 20
250.5934448242189
 30
0.0
 11
-410.9975280761719
 21
255.318603515625
 31
0.0
  0
LINE
  5
1F2
330
22
100
AcDbEntity
  8
0
  6
Continuous
 62
     7
100
AcDbLine
 10
-415.7226867675781
 20
247.7650299072266
 30
0.0
 11
-408.1690979003906
 21
255.318603515625
 31
0.0
  0
LINE
  5
1F3
330
22
100
AcDbEntity
  8
0
  6
Continuous
 62
     7
100
AcDbLine
 10
-407.3406677246094
 20
253.318603515625
 30
0.0
 11
-406.3089904785156
 21
254.3503112792969
 31
0.0
  0
LINE
  5
1F4
330
22
100
AcDbEntity
  8
0
  6
Continuous
 62
     7
100
AcDbLine
 10
-409.3406677246093
 20
251.318603515625
 30
0.0
 11
-408.4566040039063
 21
252.2026672363281
 31
0.0
  0
LINE
  5
1F5
330
22
100
AcDbEntity
  8
0
  6
Continuous
 62
     7
100
AcDbLine
 10
-415.7226867675781
 20
244.9365997314453
 30
0.0
 11
-411.3839721679688
 21
249.2753295898438
 31
0.0
  0
LINE
  5
1F6
330
22
100
AcDbEntity
  8
0
  6
Continuous
 62
     7
100
AcDbLine
 10
-415.7226867675781
 20
242.1081695556641
 30
0.0
 11
-410.0122375488281
 21
247.818603515625
 31
0.0
  0
LINE
  5
1F7
330
22
100
AcDbEntity
  8
0
  6
Continuous
 62
     7
100
AcDbLine
 10
-426.8089904785155
 20
231.0218811035156
 30
0.0
 11
-424.5122375488281
 21
233.318603515625
 31
0.0
  0
LINE
  5
1F8
330
22
100
AcDbEntity
  8
0
  6
Continuous
 62
     7
100
AcDbLine
 10
-415.7226867675781
 20
239.2797393798828
 30
0.0
 11
-408.9989624023438
 21
246.0034637451172
 31
0.0
  0
LINE
  5
1F9
330
22
100
AcDbEntity
  8
0
  6
Continuous
 62
     7
100
AcDbLine
 10
-426.8089904785155
 20
228.1934509277344
 30
0.0
 11
-421.683837890625
 21
233.318603515625
 31
0.0
  0
LINE
  5
1FA
330
22
100
AcDbEntity
  8
0
  6
Continuous
 62
     7
100
AcDbLine
 10
-415.7226867675781
 20
236.4513092041016
 30
0.0
 11
-411.3839721679688
 21
240.7900390625
 31
0.0
  0
LINE
  5
1FB
330
22
100
AcDbEntity
  8
0
  6
Continuous
 62
     7
100
AcDbLine
 10
-426.8089904785155
 20
225.3650207519531
 30
0.0
 11
-418.8554077148437
 21
233.318603515625
 31
0.0
  0
LINE
  5
1FC
330
22
100
AcDbEntity
  8
0
  6
Continuous
 62
     7
100
AcDbLine
 10
-415.7226867675781
 20
233.6228942871094
 30
0.0
 11
-411.3839721679688
 21
237.9616241455078
 31
0.0
  0
LINE
  5
1FD
330
22
100
AcDbEntity
  8
0
  6
Continuous
 62
     7
100
AcDbLine
 10
-426.8089904785155
 20
222.5365905761719
 30
0.0
 11
-416.0269775390625
 21
233.318603515625
 31
0.0
  0
LINE
  5
1FE
330
22
100
AcDbEntity
  8
0
  6
Continuous
 62
     7
100
AcDbLine
 10
-426.8089904785155
 20
219.7081756591797
 30
0.0
 11
-411.3839721679688
 21
235.1331939697266
 31
0.0
  0
LINE
  5
1FF
330
22
100
AcDbEntity
  8
0
  6
Continuous
 62
     7
100
AcDbLine
 10
-426.3260192871094
 20
217.3626861572266
 30
0.0
 11
-411.3839721679688
 21
232.3047637939453
 31
0.0
  0
LINE
  5
200
330
22
100
AcDbEntity
  8
0
  6
Continuous
 62
     7
100
AcDbLine
 10
-423.4976196289062
 20
217.3626861572266
 30
0.0
 11
-411.3839721679688
 21
229.4763336181641
 31
0.0
  0
LINE
  5
201
330
22
100
AcDbEntity
  8
0
  6
Continuous
 62
     7
100
AcDbLine
 10
-420.669189453125
 20
217.3626861572266
 30
0.0
 11
-411.3839721679688
 21
226.6479034423828
 31
0.0
  0
LINE
  5
202
330
22
100
AcDbEntity
  8
0
  6
Continuous
 62
     7
100
AcDbLine
 10
-417.8407592773438
 20
217.3626861572266
 30
0.0
 11
-411.3839721679688
 21
223.8194885253906
 31
0.0
  0
LINE
  5
203
330
22
100
AcDbEntity
  8
0
  6
Continuous
 62
     7
100
AcDbLine
 10
-415.0123291015624
 20
217.3626861572266
 30
0.0
 11
-411.3839721679688
 21
220.9910583496094
 31
0.0
  0
LINE
  5
204
330
22
100
AcDbEntity
  8
0
  6
Continuous
 62
     7
100
AcDbLine
 10
-412.1838989257812
 20
217.3626861572266
 30
0.0
 11
-411.2619323730468
 21
218.28466796875
 31
0.0
  0
LINE
  5
205
330
22
100
AcDbEntity
  8
0
  6
Continuous
 62
     7
100
AcDbLine
 10
-405.2619323730469
 20
218.6278076171875
 30
0.0
 11
-404.2619323730468
 21
219.6278076171875
 31
0.0
  0
LINE
  5
206
330
22
100
AcDbEntity
  8
0
  6
Continuous
 62
     7
100
AcDbLine
 10
-423.9083557128906
 20
217.3626861572266
 30
0.0
 11
-426.8089904785155
 21
220.2633209228516
 31
0.0
  0
LINE
  5
207
330
22
100
AcDbEntity
  8
0
  6
Continuous
 62
     7
100
AcDbLine
 10
-421.0799255371093
 20
217.3626861572266
 30
0.0
 11
-426.8089904785155
 21
223.0917510986328
 31
0.0
  0
LINE
  5
208
330
22
100
AcDbEntity
  8
0
  6
Continuous
 62
     7
100
AcDbLine
 10
-418.2514953613281
 20
217.3626861572266
 30
0.0
 11
-426.8089904785155
 21
225.920166015625
 31
0.0
  0
LINE
  5
209
330
22
100
AcDbEntity
  8
0
  6
Continuous
 62
     7
100
AcDbLine
 10
-415.4230651855469
 20
217.3626861572266
 30
0.0
 11
-426.8089904785155
 21
228.7485961914063
 31
0.0
  0
LINE
  5
20A
330
22
100
AcDbEntity
  8
0
  6
Continuous
 62
     7
100
AcDbLine
 10
-412.5946655273438
 20
217.3626861572266
 30
0.0
 11
-426.8089904785155
 21
231.5770263671875
 31
0.0
  0
LINE
  5
20B
330
22
100
AcDbEntity
  8
0
  6
Continuous
 62
     7
100
AcDbLine
 10
-411.2619323730468
 20
218.8583984375
 30
0.0
 11
-425.7221374511718
 21
233.318603515625
 31
0.0
  0
LINE
  5
20C
330
22
100
AcDbEntity
  8
0
  6
Continuous
 62
     7
100
AcDbLine
 10
-411.3839721679688
 20
221.8088531494141
 30
0.0
 11
-422.8937072753906
 21
233.318603515625
 31
0.0
  0
LINE
  5
20D
330
22
100
AcDbEntity
  8
0
  6
Continuous
 62
     7
100
AcDbLine
 10
-411.3839721679688
 20
224.6372833251953
 30
0.0
 11
-420.0652770996093
 21
233.318603515625
 31
0.0
  0
LINE
  5
20E
330
22
100
AcDbEntity
  8
0
  6
Continuous
 62
     7
100
AcDbLine
 10
-404.2619323730468
 20
217.5152435302734
 30
0.0
 11
-405.2619323730469
 21
218.5152435302734
 31
0.0
  0
LINE
  5
20F
330
22
100
AcDbEntity
  8
0
  6
Continuous
 62
     7
100
AcDbLine
 10
-411.3839721679688
 20
227.4657135009766
 30
0.0
 11
-417.2368469238281
 21
233.318603515625
 31
0.0
  0
LINE
  5
210
330
22
100
AcDbEntity
  8
0
  6
Continuous
 62
     7
100
AcDbLine
 10
-404.2619323730468
 20
220.3436737060547
 30
0.0
 11
-405.2619323730469
 21
221.3436737060547
 31
0.0
  0
LINE
  5
211
330
22
100
AcDbEntity
  8
0
  6
Continuous
 62
     7
100
AcDbLine
 10
-411.3839721679688
 20
230.2941436767578
 30
0.0
 11
-415.7226867675781
 21
234.6328735351563
 31
0.0
  0
LINE
  5
212
330
22
100
AcDbEntity
  8
0
  6
Continuous
 62
     7
100
AcDbLine
 10
-411.3839721679688
 20
233.1225738525391
 30
0.0
 11
-415.7226867675781
 21
237.4613037109375
 31
0.0
  0
LINE
  5
213
330
22
100
AcDbEntity
  8
0
  6
Continuous
 62
     7
100
AcDbLine
 10
-411.3839721679688
 20
235.9509887695313
 30
0.0
 11
-415.7226867675781
 21
240.2897186279297
 31
0.0
  0
LINE
  5
214
330
22
100
AcDbEntity
  8
0
  6
Continuous
 62
     7
100
AcDbLine
 10
-411.3839721679688
 20
238.7794189453125
 30
0.0
 11
-415.7226867675781
 21
243.1181488037109
 31
0.0
  0
LINE
  5
215
330
22
100
AcDbEntity
  8
0
  6
Continuous
 62
     7
100
AcDbLine
 10
-411.3580322265624
 20
241.5819091796875
 30
0.0
 11
-415.7226867675781
 21
245.9465789794922
 31
0.0
  0
LINE
  5
216
330
22
100
AcDbEntity
  8
0
  6
Continuous
 62
     7
100
AcDbLine
 10
-410.1222534179687
 20
243.1745758056641
 30
0.0
 11
-415.7226867675781
 21
248.7750091552734
 31
0.0
  0
LINE
  5
217
330
22
100
AcDbEntity
  8
0
  6
Continuous
 62
     7
100
AcDbLine
 10
-409.0893859863281
 20
244.9701232910156
 30
0.0
 11
-417.4089965820312
 21
253.2897186279297
 31
0.0
  0
LINE
  5
218
330
22
100
AcDbEntity
  8
0
  6
Continuous
 62
     7
100
AcDbLine
 10
-411.3839721679688
 20
250.0931243896484
 30
0.0
 11
-416.6094360351562
 21
255.318603515625
 31
0.0
  0
LINE
  5
219
330
22
100
AcDbEntity
  8
0
  6
Continuous
 62
     7
100
AcDbLine
 10
-408.8618469238281
 20
247.5709991455078
 30
0.0
 11
-409.1094360351562
 21
247.818603515625
 31
0.0
  0
LINE
  5
21A
330
22
100
AcDbEntity
  8
0
  6
Continuous
 62
     7
100
AcDbLine
 10
-409.781005859375
 20
251.318603515625
 30
0.0
 11
-413.781005859375
 21
255.318603515625
 31
0.0
  0
LINE
  5
21B
330
22
100
AcDbEntity
  8
0
  6
Continuous
 62
     7
100
AcDbLine
 10
-408.40673828125
 20
252.7727661132813
 30
0.0
 11
-410.9525756835938
 21
255.318603515625
 31
0.0
  0
LINE
  5
21C
330
22
100
AcDbEntity
  8
0
  6
Continuous
 62
     7
100
AcDbLine
 10
-406.3089904785156
 20
253.5034332275391
 30
0.0
 11
-408.1241455078124
 21
255.318603515625
 31
0.0
  0
LINE
  5
21D
330
22
100
AcDbEntity
  8
0
  6
Continuous
 62
     7
100
AcDbLine
 10
-404.2619323730468
 20
217.3626861572266
 30
0.0
 11
-426.7619323730468
 21
217.3626861572266
 31
0.0
  0
LINE
  5
21E
330
22
100
AcDbEntity
  8
0
  6
Continuous
 62
     7
100
AcDbLine
 10
-426.8089904785155
 20
255.318603515625
 30
0.0
 11
-385.8589782714844
 21
255.318603515625
 31
0.0
  0
LINE
  5
21F
330
22
100
AcDbEntity
  8
0
  6
Continuous
 62
     7
100
AcDbLine
 10
-387.1713256835938
 20
240.318603515625
 30
0.0
 11
-411.3839721679688
 21
240.318603515625
 31
0.0
  0
LINE
  5
220
330
22
100
AcDbEntity
  8
0
  6
Continuous
 62
     7
100
AcDbLine
 10
-404.2619323730468
 20
218.318603515625
 30
0.0
 11
-385.0027770996094
 21
218.318603515625
 31
0.0
  0
LINE
  5
221
330
22
100
AcDbEntity
  8
0
  6
Continuous
 62
     7
100
AcDbLine
 10
-385.3335571289063
 20
100.3186111450195
 30
0.0
 11
-426.8089904785155
 21
100.3186111450195
 31
0.0
  0
LINE
  5
222
330
22
100
AcDbEntity
  8
0
  6
Continuous
 62
     7
100
AcDbLine
 10
-382.9100952148438
 20
101.8100509643555
 30
0.0
 11
-426.8089904785155
 21
101.8100509643555
 31
0.0
  0
LINE
  5
223
330
22
100
AcDbEntity
  8
0
  6
Continuous
 62
     7
100
AcDbLine
 10
-383.7932434082031
 20
85.57830047607422
 30
0.0
 11
-426.8089904785155
 21
85.57830047607422
 31
0.0
  0
LINE
  5
224
330
22
100
AcDbEntity
  8
0
  6
Continuous
 62
     7
100
AcDbLine
 10
-384.4503784179688
 20
58.85891723632813
 30
0.0
 11
-426.8089904785155
 21
58.85891723632813
 31
0.0
  0
LINE
  5
225
330
22
100
AcDbEntity
  8
0
  6
Continuous
 62
     7
100
AcDbLine
 10
-426.8089904785155
 20
118.3186111450195
 30
0.0
 11
-384.3589782714844
 21
118.3186111450195
 31
0.0
  0
LINE
  5
226
330
22
100
AcDbEntity
  8
0
  6
Continuous
 62
     7
100
AcDbLine
 10
-387.1213073730469
 20
240.318603515625
 30
0.0
 11
-411.3839721679688
 21
240.318603515625
 31
0.0
  0
LINE
  5
227
330
22
100
AcDbEntity
  8
0
  6
Continuous
 62
     7
100
AcDbLine
 10
-411.3839721679688
 20
230.318603515625
 30
0.0
 11
-383.8631286621094
 21
230.318603515625
 31
0.0
  0
LINE
  5
228
330
22
100
AcDbEntity
  8
0
  6
Continuous
 62
     7
100
AcDbLine
 10
-411.3839721679688
 20
228.818603515625
 30
0.0
 11
-385.1334533691406
 21
228.818603515625
 31
0.0
  0
LINE
  5
229
330
22
100
AcDbEntity
  8
0
  6
Continuous
 62
     7
100
AcDbLine
 10
-408.5921936035155
 20
250.6528625488281
 30
0.0
 11
-403.9264526367188
 21
255.318603515625
 31
0.0
  0
LINE
  5
22A
330
22
100
AcDbEntity
  8
0
  6
Continuous
 62
     7
100
AcDbLine
 10
-408.727783203125
 20
249.1030578613281
 30
0.0
 11
-402.5122375488281
 21
255.318603515625
 31
0.0
  0
LINE
  5
22B
330
22
100
AcDbEntity
  8
0
  6
Continuous
 62
     7
100
AcDbLine
 10
-408.8085937499999
 20
247.6080474853516
 30
0.0
 11
-401.0980529785156
 21
255.318603515625
 31
0.0
  0
LINE
  5
22C
330
22
100
AcDbEntity
  8
0
  6
Continuous
 62
     7
100
AcDbLine
 10
-409.0797729492187
 20
244.5084533691406
 30
0.0
 11
-398.2696228027344
 21
255.318603515625
 31
0.0
  0
LINE
  5
22D
330
22
100
AcDbEntity
  8
0
  6
Continuous
 62
     7
100
AcDbLine
 10
-409.2701721191406
 20
242.9038543701172
 30
0.0
 11
-396.8554077148438
 21
255.318603515625
 31
0.0
  0
LINE
  5
22E
330
22
100
AcDbEntity
  8
0
  6
Continuous
 62
     7
100
AcDbLine
 10
-409.40576171875
 20
241.3540496826172
 30
0.0
 11
-395.4411926269531
 21
255.318603515625
 31
0.0
  0
LINE
  5
22F
330
22
100
AcDbEntity
  8
0
  6
Continuous
 62
     7
100
AcDbLine
 10
-407.6127624511718
 20
240.318603515625
 30
0.0
 11
-392.6127624511719
 21
255.318603515625
 31
0.0
  0
LINE
  5
230
330
22
100
AcDbEntity
  8
0
  6
Continuous
 62
     7
100
AcDbLine
 10
-406.1985473632812
 20
240.318603515625
 30
0.0
 11
-391.1985473632813
 21
255.318603515625
 31
0.0
  0
LINE
  5
231
330
22
100
AcDbEntity
  8
0
  6
Continuous
 62
     7
100
AcDbLine
 10
-404.7843322753906
 20
240.318603515625
 30
0.0
 11
-389.7843322753906
 21
255.318603515625
 31
0.0
  0
LINE
  5
232
330
22
100
AcDbEntity
  8
0
  6
Continuous
 62
     7
100
AcDbLine
 10
-401.9559020996093
 20
240.318603515625
 30
0.0
 11
-386.9559020996094
 21
255.318603515625
 31
0.0
  0
LINE
  5
233
330
22
100
AcDbEntity
  8
0
  6
Continuous
 62
     7
100
AcDbLine
 10
-388.5416870117188
 20
252.318603515625
 30
0.0
 11
-385.889404296875
 21
254.9708862304688
 31
0.0
  0
LINE
  5
234
330
22
100
AcDbEntity
  8
0
  6
Continuous
 62
     7
100
AcDbLine
 10
-400.5416870117188
 20
240.318603515625
 30
0.0
 11
-388.8089904785156
 21
252.0513153076172
 31
0.0
  0
LINE
  5
235
330
22
100
AcDbEntity
  8
0
  6
Continuous
 62
     7
100
AcDbLine
 10
-387.1274719238281
 20
252.318603515625
 30
0.0
 11
-386.0249938964844
 21
253.4210815429688
 31
0.0
  0
LINE
  5
236
330
22
100
AcDbEntity
  8
0
  6
Continuous
 62
     7
100
AcDbLine
 10
-399.1274719238281
 20
240.318603515625
 30
0.0
 11
-388.8089904785156
 21
250.6371002197266
 31
0.0
  0
LINE
  5
237
330
22
100
AcDbEntity
  8
0
  6
Continuous
 62
     7
100
AcDbLine
 10
-396.2990417480469
 20
240.318603515625
 30
0.0
 11
-387.4990539550781
 21
249.1186065673828
 31
0.0
  0
LINE
  5
238
330
22
100
AcDbEntity
  8
0
  6
Continuous
 62
     7
100
AcDbLine
 10
-394.8848266601563
 20
240.318603515625
 30
0.0
 11
-386.4317626953125
 21
248.7716827392578
 31
0.0
  0
LINE
  5
239
330
22
100
AcDbEntity
  8
0
  6
Continuous
 62
     7
100
AcDbLine
 10
-393.4706115722656
 20
240.318603515625
 30
0.0
 11
-386.5673522949219
 21
247.2218780517578
 31
0.0
  0
LINE
  5
23A
330
22
100
AcDbEntity
  8
0
  6
Continuous
 62
     7
100
AcDbLine
 10
-390.6421813964844
 20
240.318603515625
 30
0.0
 11
-386.8385314941406
 21
244.1222686767578
 31
0.0
  0
LINE
  5
23B
330
22
100
AcDbEntity
  8
0
  6
Continuous
 62
     7
100
AcDbLine
 10
-389.2279663085938
 20
240.318603515625
 30
0.0
 11
-386.97412109375
 21
242.5724639892578
 31
0.0
  0
LINE
  5
23C
330
22
100
AcDbEntity
  8
0
  6
Continuous
 62
     7
100
AcDbLine
 10
-387.8137817382813
 20
240.318603515625
 30
0.0
 11
-387.1097106933594
 21
241.0226593017578
 31
0.0
  0
LINE
  5
23D
330
22
100
AcDbEntity
  8
0
  6
Continuous
 62
     7
100
AcDbLine
 10
-378.3089904785156
 20
57.31861114501953
 30
0.0
 11
-475.3089904785156
 21
57.31861114501953
 31
0.0
  0
CIRCLE
  5
23E
330
22
100
AcDbEntity
  8
0
  6
Continuous
 62
     7
100
AcDbCircle
 10
-339.3089904785156
 20
432.318603515625
 30
0.0
 40
5.0
  0
CIRCLE
  5
23F
330
22
100
AcDbEntity
  8
0
  6
Continuous
 62
     7
100
AcDbCircle
 10
-339.3089904785156
 20
432.318603515625
 30
0.0
 40
2.75
  0
ARC
  5
240
330
22
100
AcDbEntity
  8
0
  6
Continuous
 62
     7
100
AcDbCircle
 10
-420.503662109375
 20
432.4137573242188
 30
0.0
 40
3.200591087341308
100
AcDbArc
 50
273.4870838543173
 51
70.12737230108554
  0
CIRCLE
  5
241
330
22
100
AcDbEntity
  8
0
  6
Continuous
 62
     7
100
AcDbCircle
 10
-470.5592651367187
 20
508.0953369140624
 30
0.0
 40
5.0
  0
CIRCLE
  5
242
330
22
100
AcDbEntity
  8
0
  6
Continuous
 62
     7
100
AcDbCircle
 10
-470.5586853027344
 20
356.5408935546875
 30
0.0
 40
2.75
  0
CIRCLE
  5
243
330
22
100
AcDbEntity
  8
0
  6
Continuous
 62
     7
100
AcDbCircle
 10
-470.5586853027344
 20
356.5408935546875
 30
0.0
 40
5.0
  0
CIRCLE
  5
244
330
22
100
AcDbEntity
  8
0
  6
Continuous
 62
     7
100
AcDbCircle
 10
-470.5592651367187
 20
508.0953369140624
 30
0.0
 40
2.75
  0
ARC
  5
245
330
22
100
AcDbEntity
  8
0
  6
Continuous
 62
     7
100
AcDbCircle
 10
-433.1143188476563
 20
432.4137573242188
 30
0.0
 40
3.200591087341308
100
AcDbArc
 50
111.911277688175
 51
251.6139423290696
  0
ARC
  5
246
330
22
100
AcDbEntity
  8
0
  6
Continuous
 62
     7
100
AcDbCircle
 10
-426.8089904785155
 20
432.2190856933594
 30
0.0
 40
5.0
100
AcDbArc
 50
90.00000000000019
 51
134.4418800561433
  0
CIRCLE
  5
247
330
22
100
AcDbEntity
  8
0
  6
Continuous
 62
     7
100
AcDbCircle
 10
-426.8089904785155
 20
432.2190856933594
 30
0.0
 40
18.5
  0
ARC
  5
248
330
22
100
AcDbEntity
  8
0
  6
Continuous
 62
     7
100
AcDbCircle
 10
-426.8089904785155
 20
432.2190856933594
 30
0.0
 40
5.0
100
AcDbArc
 50
41.4928920440201
 51
90.00000000000019
  0
ARC
  5
249
330
22
100
AcDbEntity
  8
0
  6
Continuous
 62
     7
100
AcDbCircle
 10
-426.8089904785155
 20
432.2190856933594
 30
0.0
 40
5.0
100
AcDbArc
 50
216.8698976458447
 51
323.1301023541567
  0
CIRCLE
  5
24A
330
22
100
AcDbEntity
  8
0
  6
Continuous
 62
     7
100
AcDbCircle
 10
-426.708984375
 20
432.318603515625
 30
0.0
 40
19.0
  0
CIRCLE
  5
24B
330
22
100
AcDbEntity
  8
0
  6
Continuous
 62
     7
100
AcDbCircle
 10
-426.8089904785155
 20
432.318603515625
 30
0.0
 40
60.00007629394531
  0
CIRCLE
  5
24C
330
22
100
AcDbEntity
  8
0
  6
Continuous
 62
     7
100
AcDbCircle
 10
-426.8089904785155
 20
432.318603515625
 30
0.0
 40
64.0
  0
CIRCLE
  5
24D
330
22
100
AcDbEntity
  8
0
  6
Continuous
 62
     7
100
AcDbCircle
 10
-426.8089904785155
 20
432.318603515625
 30
0.0
 40
80.5
  0
CIRCLE
  5
24E
330
22
100
AcDbEntity
  8
0
  6
CENTER
 62
     7
100
AcDbCircle
 10
-426.8089904785155
 20
432.318603515625
 30
0.0
 40
87.5
  0
CIRCLE
  5
24F
330
22
100
AcDbEntity
  8
0
  6
Continuous
 62
     7
100
AcDbCircle
 10
-426.8089904785155
 20
432.318603515625
 30
0.0
 40
97.5
  0
CIRCLE
  5
250
330
22
100
AcDbEntity
  8
0
  6
Continuous
 62
     7
100
AcDbCircle
 10
-426.8089904785155
 20
432.318603515625
 30
0.0
 40
41.0
  0
CIRCLE
  5
251
330
22
100
AcDbEntity
  8
0
  6
Continuous
 62
     7
100
AcDbCircle
 10
-426.8089904785155
 20
432.318603515625
 30
0.0
 40
40.49999999999999
  0
ARC
  5
252
330
22
100
AcDbEntity
  8
0
  6
Continuous
 62
     7
100
AcDbCircle
 10
-368.3089904785156
 20
243.318603515625
 30
0.0
 40
2.0
100
AcDbArc
 50
90.00000000000019
 51
180.0000000000004
  0
ARC
  5
253
330
22
100
AcDbEntity
  8
0
  6
Continuous
 62
     7
100
AcDbCircle
 10
-409.3839721679688
 20
241.318603515625
 30
0.0
 40
2.0
100
AcDbArc
 50
90.00000000000019
 51
180.0000000000004
  0
ARC
  5
254
330
22
100
AcDbEntity
  8
0
  6
Continuous
 62
     7
100
AcDbCircle
 10
-485.3089904785156
 20
243.318603515625
 30
0.0
 40
2.0
100
AcDbArc
 50
0.0
 51
90.00000000000019
  0
LWPOLYLINE
  5
255
330
22
100
AcDbEntity
  8
0
  6
Continuous
 62
     7
100
AcDbPolyline
 90
       16
 70
     1
 43
0.0
 10
-387.4807434082031
 20
252.3186126708985
 42
0.0984914033571643
 10
-387.9890414902499
 20
252.1968199229165
 42
0.0984914033571643
 10
-388.4199557970386
 20
251.8499835207969
 42
0.0984914033571643
 10
-388.7078835316087
 20
251.3309061626826
 42
0.0984914033571643
 10
-388.8089903064432
 20
250.7186126708984
 42
0.0984914033571643
 10
-388.7078835316087
 20
250.1063191791143
 42
0.0984914033571643
 10
-388.4199557970386
 20
249.5872418209999
 42
0.0984914033571643
 10
-387.9890414902499
 20
249.2404054188804
 42
0.0984914033571643
 10
-387.4807434082031
 20
249.1186126708984
 42
0.0984914033571643
 10
-386.9724453261564
 20
249.2404054188804
 42
0.0984914033571643
 10
-386.5415310193676
 20
249.5872418209999
 42
0.0984914033571643
 10
-386.2536032847976
 20
250.1063191791143
 42
0.0984914033571643
 10
-386.1524965099631
 20
250.7186126708984
 42
0.0984914033571643
 10
-386.2536032847976
 20
251.3309061626826
 42
0.0984914033571643
 10
-386.5415310193676
 20
251.8499835207969
 42
0.0984914033571643
 10
-386.9724453261564
 20
252.1968199229165
 42
0.0984914033571643
  0
LWPOLYLINE
  5
267
330
22
100
AcDbEntity
  8
0
  6
Continuous
 62
     7
100
AcDbPolyline
 90
       16
 70
     1
 43
0.0
 10
-410.0870666503906
 20
251.318603515625
 42
0.0984914033571643
 10
-410.5833666890468
 20
251.1853926975198
 42
0.0984914033571643
 10
-411.0041095457888
 20
250.8060403827014
 42
0.0984914033571643
 10
-411.2852409347208
 20
250.2382995222639
 42
0.0984914033571643
 10
-411.3839611503406
 20
249.568603515625
 42
0.0984914033571643
 10
-411.2852409347208
 20
248.8989075089861
 42
0.0984914033571643
 10
-411.0041095457888
 20
248.3311666485486
 42
0.0984914033571643
 10
-410.5833666890468
 20
247.9518143337303
 42
0.0984914033571643
 10
-410.0870666503906
 20
247.818603515625
 42
0.0984914033571643
 10
-409.5907666117343
 20
247.9518143337303
 42
0.0984914033571643
 10
-409.1700237549924
 20
248.3311666485486
 42
0.0984914033571643
 10
-408.8888923660603
 20
248.8989075089861
 42
0.0984914033571643
 10
-408.7901721504406
 20
249.568603515625
 42
0.0984914033571643
 10
-408.8888923660603
 20
250.2382995222639
 42
0.0984914033571643
 10
-409.1700237549924
 20
250.8060403827014
 42
0.0984914033571643
 10
-409.5907666117343
 20
251.1853926975198
 42
0.0984914033571643
  0
TEXT
  5
279
330
22
100
AcDbEntity
  8
0
  6
Continuous
 62
     7
100
AcDbText
 10
-313.4524164199829
 20
331.4979858398438
 30
0.0
 40
7.0
  1
DL-HSP-80
 41
1.018441630205992
100
AcDbText
  0
SOLID
  5
27A
330
22
100
AcDbEntity
  8
0
  6
Continuous
 62
     7
100
AcDbTrace
 10
-387.2216186523438
 20
252.2878723144531
 30
0.0
 11
-387.7398681640625
 21
252.2878723144531
 31
0.0
 12
-387.4807434082031
 22
252.318603515625
 32
0.0
 13
-387.4807434082031
 23
252.318603515625
 33
0.0
  0
SOLID
  5
27B
330
22
100
AcDbEntity
  8
0
  6
Continuous
 62
     7
100
AcDbTrace
 10
-387.4807434082031
 20
249.1186065673828
 30
0.0
 11
-387.7398681640625
 21
249.1493530273438
 31
0.0
 12
-387.2216186523438
 22
249.1493530273438
 32
0.0
 13
-387.2216186523438
 23
249.1493530273438
 33
0.0
  0
SOLID
  5
27C
330
22
100
AcDbEntity
  8
0
  6
Continuous
 62
     7
100
AcDbTrace
 10
-386.9724426269531
 20
252.1968231201172
 30
0.0
 11
-387.9890441894531
 21
252.1968231201172
 31
0.0
 12
-387.2216186523438
 22
252.2878723144531
 32
0.0
 13
-387.7398681640625
 23
252.2878723144531
 33
0.0
  0
SOLID
  5
27D
330
22
100
AcDbEntity
  8
0
  6
Continuous
 62
     7
100
AcDbTrace
 10
-386.7427978515625
 20
252.0489654541016
 30
0.0
 11
-388.2186584472656
 21
252.0489654541016
 31
0.0
 12
-386.9724426269531
 22
252.1968231201172
 32
0.0
 13
-387.9890441894531
 23
252.1968231201172
 33
0.0
  0
SOLID
  5
27E
330
22
100
AcDbEntity
  8
0
  6
Continuous
 62
     7
100
AcDbTrace
 10
-386.5415344238281
 20
251.8499755859375
 30
0.0
 11
-388.4199523925781
 21
251.8499755859375
 31
0.0
 12
-386.7427978515625
 22
252.0489654541016
 32
0.0
 13
-388.2186584472656
 23
252.0489654541016
 33
0.0
  0
SOLID
  5
27F
330
22
100
AcDbEntity
  8
0
  6
Continuous
 62
     7
100
AcDbTrace
 10
-386.3763427734375
 20
251.6075286865234
 30
0.0
 11
-388.5851440429688
 21
251.6075286865234
 31
0.0
 12
-386.5415344238281
 22
251.8499755859375
 32
0.0
 13
-388.4199523925781
 23
251.8499755859375
 33
0.0
  0
SOLID
  5
280
330
22
100
AcDbEntity
  8
0
  6
Continuous
 62
     7
100
AcDbTrace
 10
-386.2536010742188
 20
251.3309020996094
 30
0.0
 11
-388.7078857421875
 21
251.3309020996094
 31
0.0
 12
-386.3763427734375
 22
251.6075286865234
 32
0.0
 13
-388.5851440429688
 23
251.6075286865234
 33
0.0
  0
SOLID
  5
281
330
22
100
AcDbEntity
  8
0
  6
Continuous
 62
     7
100
AcDbTrace
 10
-386.1780090332031
 20
251.03076171875
 30
0.0
 11
-388.783447265625
 21
251.03076171875
 31
0.0
 12
-386.2536010742188
 22
251.3309020996094
 32
0.0
 13
-388.7078857421875
 23
251.3309020996094
 33
0.0
  0
SOLID
  5
282
330
22
100
AcDbEntity
  8
0
  6
Continuous
 62
     7
100
AcDbTrace
 10
-386.1524963378906
 20
250.7186126708984
 30
0.0
 11
-388.8089904785156
 21
250.7186126708984
 31
0.0
 12
-386.1780090332031
 22
251.03076171875
 32
0.0
 13
-388.783447265625
 23
251.03076171875
 33
0.0
  0
SOLID
  5
283
330
22
100
AcDbEntity
  8
0
  6
Continuous
 62
     7
100
AcDbTrace
 10
-386.1780090332031
 20
250.4064636230469
 30
0.0
 11
-388.783447265625
 21
250.4064636230469
 31
0.0
 12
-386.1524963378906
 22
250.7186126708984
 32
0.0
 13
-388.8089904785156
 23
250.7186126708984
 33
0.0
  0
SOLID
  5
284
330
22
100
AcDbEntity
  8
0
  6
Continuous
 62
     7
100
AcDbTrace
 10
-386.2536010742188
 20
250.1063232421875
 30
0.0
 11
-388.7078857421875
 21
250.1063232421875
 31
0.0
 12
-386.1780090332031
 22
250.4064636230469
 32
0.0
 13
-388.783447265625
 23
250.4064636230469
 33
0.0
  0
SOLID
  5
285
330
22
100
AcDbEntity
  8
0
  6
Continuous
 62
     7
100
AcDbTrace
 10
-386.3763427734375
 20
249.8296966552734
 30
0.0
 11
-388.5851440429688
 21
249.8296966552734
 31
0.0
 12
-386.2536010742188
 22
250.1063232421875
 32
0.0
 13
-388.7078857421875
 23
250.1063232421875
 33
0.0
  0
SOLID
  5
286
330
22
100
AcDbEntity
  8
0
  6
Continuous
 62
     7
100
AcDbTrace
 10
-386.5415344238281
 20
249.5872344970703
 30
0.0
 11
-388.4199523925781
 21
249.5872344970703
 31
0.0
 12
-386.3763427734375
 22
249.8296966552734
 32
0.0
 13
-388.5851440429688
 23
249.8296966552734
 33
0.0
  0
SOLID
  5
287
330
22
100
AcDbEntity
  8
0
  6
Continuous
 62
     7
100
AcDbTrace
 10
-386.7427978515625
 20
249.3882598876953
 30
0.0
 11
-388.2186584472656
 21
249.3882598876953
 31
0.0
 12
-386.5415344238281
 22
249.5872344970703
 32
0.0
 13
-388.4199523925781
 23
249.5872344970703
 33
0.0
  0
SOLID
  5
288
330
22
100
AcDbEntity
  8
0
  6
Continuous
 62
     7
100
AcDbTrace
 10
-386.9724426269531
 20
249.2404022216797
 30
0.0
 11
-387.9890441894531
 21
249.2404022216797
 31
0.0
 12
-386.7427978515625
 22
249.3882598876953
 32
0.0
 13
-388.2186584472656
 23
249.3882598876953
 33
0.0
  0
SOLID
  5
289
330
22
100
AcDbEntity
  8
0
  6
Continuous
 62
     7
100
AcDbTrace
 10
-387.2216186523438
 20
249.1493530273438
 30
0.0
 11
-387.7398681640625
 21
249.1493530273438
 31
0.0
 12
-386.9724426269531
 22
249.2404022216797
 32
0.0
 13
-387.9890441894531
 23
249.2404022216797
 33
0.0
  0
SOLID
  5
28A
330
22
100
AcDbEntity
  8
0
  6
Continuous
 62
     7
100
AcDbTrace
 10
-409.8340454101562
 20
251.2849884033203
 30
0.0
 11
-410.3400878906249
 21
251.2849884033203
 31
0.0
 12
-410.0870666503906
 22
251.318603515625
 32
0.0
 13
-410.0870666503906
 23
251.318603515625
 33
0.0
  0
SOLID
  5
28B
330
22
100
AcDbEntity
  8
0
  6
Continuous
 62
     7
100
AcDbTrace
 10
-410.0870666503906
 20
247.818603515625
 30
0.0
 11
-410.3400878906249
 21
247.8522338867188
 31
0.0
 12
-409.8340454101562
 22
247.8522338867188
 32
0.0
 13
-409.8340454101562
 23
247.8522338867188
 33
0.0
  0
SOLID
  5
28C
330
22
100
AcDbEntity
  8
0
  6
Continuous
 62
     7
100
AcDbTrace
 10
-409.5907592773437
 20
251.1853942871094
 30
0.0
 11
-410.5833740234374
 21
251.1853942871094
 31
0.0
 12
-409.8340454101562
 22
251.2849884033203
 32
0.0
 13
-410.3400878906249
 23
251.2849884033203
 33
0.0
  0
SOLID
  5
28D
330
22
100
AcDbEntity
  8
0
  6
Continuous
 62
     7
100
AcDbTrace
 10
-409.3665466308594
 20
251.023681640625
 30
0.0
 11
-410.8075866699218
 21
251.023681640625
 31
0.0
 12
-409.5907592773437
 22
251.1853942871094
 32
0.0
 13
-410.5833740234374
 23
251.1853942871094
 33
0.0
  0
SOLID
  5
28E
330
22
100
AcDbEntity
  8
0
  6
Continuous
 62
     7
100
AcDbTrace
 10
-409.1700134277344
 20
250.8060455322266
 30
0.0
 11
-411.0041198730469
 21
250.8060455322266
 31
0.0
 12
-409.3665466308594
 22
251.023681640625
 32
0.0
 13
-410.8075866699218
 23
251.023681640625
 33
0.0
  0
SOLID
  5
28F
330
22
100
AcDbEntity
  8
0
  6
Continuous
 62
     7
100
AcDbTrace
 10
-409.0087280273437
 20
250.5408630371094
 30
0.0
 11
-411.1654052734374
 21
250.5408630371094
 31
0.0
 12
-409.1700134277344
 22
250.8060455322266
 32
0.0
 13
-411.0041198730469
 23
250.8060455322266
 33
0.0
  0
SOLID
  5
290
330
22
100
AcDbEntity
  8
0
  6
Continuous
 62
     7
100
AcDbTrace
 10
-408.8888854980468
 20
250.2383117675781
 30
0.0
 11
-411.2852478027344
 21
250.2383117675781
 31
0.0
 12
-409.0087280273437
 22
250.5408630371094
 32
0.0
 13
-411.1654052734374
 23
250.5408630371094
 33
0.0
  0
SOLID
  5
291
330
22
100
AcDbEntity
  8
0
  6
Continuous
 62
     7
100
AcDbTrace
 10
-408.8150939941406
 20
249.9100189208984
 30
0.0
 11
-411.3590393066406
 21
249.9100189208984
 31
0.0
 12
-408.8888854980468
 22
250.2383117675781
 32
0.0
 13
-411.2852478027344
 23
250.2383117675781
 33
0.0
  0
SOLID
  5
292
330
22
100
AcDbEntity
  8
0
  6
Continuous
 62
     7
100
AcDbTrace
 10
-408.7901611328125
 20
249.568603515625
 30
0.0
 11
-411.3839721679688
 21
249.568603515625
 31
0.0
 12
-408.8150939941406
 22
249.9100189208984
 32
0.0
 13
-411.3590393066406
 23
249.9100189208984
 33
0.0
  0
SOLID
  5
293
330
22
100
AcDbEntity
  8
0
  6
Continuous
 62
     7
100
AcDbTrace
 10
-408.8150939941406
 20
249.2272033691406
 30
0.0
 11
-411.3590393066406
 21
249.2272033691406
 31
0.0
 12
-408.7901611328125
 22
249.568603515625
 32
0.0
 13
-411.3839721679688
 23
249.568603515625
 33
0.0
  0
SOLID
  5
294
330
22
100
AcDbEntity
  8
0
  6
Continuous
 62
     7
100
AcDbTrace
 10
-408.8888854980468
 20
248.8989105224609
 30
0.0
 11
-411.2852478027344
 21
248.8989105224609
 31
0.0
 12
-408.8150939941406
 22
249.2272033691406
 32
0.0
 13
-411.3590393066406
 23
249.2272033691406
 33
0.0
  0
SOLID
  5
295
330
22
100
AcDbEntity
  8
0
  6
Continuous
 62
     7
100
AcDbTrace
 10
-409.0087280273437
 20
248.5963592529297
 30
0.0
 11
-411.1654052734374
 21
248.5963592529297
 31
0.0
 12
-408.8888854980468
 22
248.8989105224609
 32
0.0
 13
-411.2852478027344
 23
248.8989105224609
 33
0.0
  0
SOLID
  5
296
330
22
100
AcDbEntity
  8
0
  6
Continuous
 62
     7
100
AcDbTrace
 10
-409.1700134277344
 20
248.3311767578125
 30
0.0
 11
-411.0041198730469
 21
248.3311767578125
 31
0.0
 12
-409.0087280273437
 22
248.5963592529297
 32
0.0
 13
-411.1654052734374
 23
248.5963592529297
 33
0.0
  0
SOLID
  5
297
330
22
100
AcDbEntity
  8
0
  6
Continuous
 62
     7
100
AcDbTrace
 10
-409.3665466308594
 20
248.1135406494141
 30
0.0
 11
-410.8075866699218
 21
248.1135406494141
 31
0.0
 12
-409.1700134277344
 22
248.3311767578125
 32
0.0
 13
-411.0041198730469
 23
248.3311767578125
 33
0.0
  0
SOLID
  5
298
330
22
100
AcDbEntity
  8
0
  6
Continuous
 62
     7
100
AcDbTrace
 10
-409.5907592773437
 20
247.9518280029297
 30
0.0
 11
-410.5833740234374
 21
247.9518280029297
 31
0.0
 12
-409.3665466308594
 22
248.1135406494141
 32
0.0
 13
-410.8075866699218
 23
248.1135406494141
 33
0.0
  0
SOLID
  5
299
330
22
100
AcDbEntity
  8
0
  6
Continuous
 62
     7
100
AcDbTrace
 10
-409.8340454101562
 20
247.8522338867188
 30
0.0
 11
-410.3400878906249
 21
247.8522338867188
 31
0.0
 12
-409.5907592773437
 22
247.9518280029297
 32
0.0
 13
-410.5833740234374
 23
247.9518280029297
 33
0.0
  0
DIMENSION
  5
29A
330
22
100
AcDbEntity
  8
0
  6
Continuous
 62
     7
100
AcDbDimension
  2
*D1
 10
-418.2767539111221
 20
448.9020749521013
 30
0.0
 11
-441.0567626953125
 21
409.1609802246093
 31
0.0
 70
     3
 71
     5
 42
-1.0
  3
DIMSTYLE1
100
AcDbDiametricDimension
 15
-437.1742958935653
 25
415.9341677236799
 35
0.0
 40
0.0
  0
DIMENSION
  5
29B
330
22
100
AcDbEntity
  8
0
  6
Continuous
 62
     7
100
AcDbDimension
  2
*D2
 10
-401.8214416503906
 20
212.318603515625
 30
0.0
 11
-401.8214416503906
 21
162.318603515625
 31
0.0
 71
     5
 42
-1.0
  3
DIMSTYLE2
100
AcDbAlignedDimension
 13
-390.6720275878906
 23
112.3186111450195
 33
0.0
 14
-404.2399597167968
 24
212.318603515625
 34
0.0
 50
90.0
100
AcDbRotatedDimension
  0
INSERT
  5
29C
330
22
100
AcDbEntity
  8
0
  6
Continuous
 62
     7
100
AcDbBlockReference
  2
KOZU0001
 10
-335.548828125
 20
435.6142272949218
 30
0.0
  0
DIMENSION
  5
29D
330
22
100
AcDbEntity
  8
0
  6
Continuous
 62
     7
100
AcDbDimension
  2
*D3
 10
-511.328815396705
 20
454.9603613051298
 30
0.0
 11
-319.7820129394531
 21
403.6474914550781
 31
0.0
 70
     3
 71
     5
 42
-1.0
  3
DIMSTYLE3
100
AcDbDiametricDimension
 15
-342.2891655603262
 25
409.6768457261201
 35
0.0
 40
0.0
  0
DIMENSION
  5
29E
330
22
100
AcDbEntity
  8
0
  6
Continuous
 62
     7
100
AcDbDimension
  2
*D4
 10
-507.0282114986971
 20
376.9008574507112
 30
0.0
 11
-329.3240661621094
 21
499.6640014648438
 31
0.0
 70
     3
 71
     5
 42
-1.0
  3
DIMSTYLE4
100
AcDbDiametricDimension
 15
-346.5897694583342
 25
487.7363495805388
 35
0.0
 40
0.0
  0
DIMENSION
  5
29F
330
22
100
AcDbEntity
  8
0
  6
Continuous
 62
     7
100
AcDbDimension
  2
*D5
 10
-483.6596347073535
 20
413.1349280063445
 30
0.0
 11
-381.9118957519531
 21
447.4686584472656
 31
0.0
 70
     3
 71
     5
 42
-1.0
  3
DIMSTYLE5
100
AcDbDiametricDimension
 15
-369.9583462496779
 25
451.5022790249054
 35
0.0
 40
0.0
  0
DIMENSION
  5
2A0
330
22
100
AcDbEntity
  8
0
  6
Continuous
 62
     7
100
AcDbDimension
  2
*D6
 10
-459.1526214083999
 20
457.5156179870147
 30
0.0
 11
-405.4570922851563
 21
415.6846008300781
 31
0.0
 70
     3
 71
     5
 42
-1.0
  3
DIMSTYLE6
100
AcDbDiametricDimension
 15
-394.4653595486313
 25
407.1215890442351
 35
0.0
 40
0.0
  0
DIMENSION
  5
2A1
330
22
100
AcDbEntity
  8
0
  6
Continuous
 62
     7
100
AcDbDimension
  2
*D7
 10
-299.5950317382813
 20
255.318603515625
 30
0.0
 11
-299.5950317382813
 21
180.318603515625
 31
0.0
 71
     5
 42
-1.0
  3
DIMSTYLE7
100
AcDbAlignedDimension
 13
-329.3089904785156
 23
105.3186111450195
 33
0.0
 14
-367.3089904785156
 24
255.318603515625
 34
0.0
 50
90.0
100
AcDbRotatedDimension
  0
DIMENSION
  5
2A2
330
22
100
AcDbEntity
  8
0
  6
Continuous
 62
     7
100
AcDbDimension
  2
*D8
 10
-299.5950317382813
 20
102.3186111450195
 30
0.0
 11
-299.5950317382813
 21
95.1252670288086
 31
0.0
 71
     5
 42
-1.0
  3
DIMSTYLE8
100
AcDbAlignedDimension
 13
-297.3090209960938
 23
105.3186111450195
 33
0.0
 14
-329.3089904785156
 24
102.3186111450195
 34
0.0
 50
90.0
100
AcDbRotatedDimension
  0
DIMENSION
  5
2A3
330
22
100
AcDbEntity
  8
0
  6
Continuous
 62
     7
100
AcDbDimension
  2
*D9
 10
-311.6893310546875
 20
198.318603515625
 30
0.0
 11
-311.6893310546875
 21
226.818603515625
 31
0.0
 71
     5
 42
-1.0
  3
DIMSTYLE9
100
AcDbAlignedDimension
 13
-297.3090209960938
 23
255.318603515625
 33
0.0
 14
-370.3089904785156
 24
198.318603515625
 34
0.0
 50
90.0
100
AcDbRotatedDimension
  0
DIMENSION
  5
2A4
330
22
100
AcDbEntity
  8
0
  6
Continuous
 62
     7
100
AcDbDimension
  2
*D10
 10
-311.6893310546875
 20
138.318603515625
 30
0.0
 11
-311.6893310546875
 21
121.8186111450195
 31
0.0
 71
     5
 42
-1.0
  3
DIMSTYLE10
100
AcDbAlignedDimension
 13
-297.3090209960938
 23
105.3186111450195
 33
0.0
 14
-378.3089904785156
 24
138.318603515625
 34
0.0
 50
90.0
100
AcDbRotatedDimension
  0
DIMENSION
  5
2A5
330
22
100
AcDbEntity
  8
0
  6
Continuous
 62
     7
100
AcDbDimension
  2
*D11
 10
-378.3089904785156
 20
33.87714385986328
 30
0.0
 11
-426.8089904785155
 21
33.87714385986328
 31
0.0
 71
     5
 42
-1.0
  3
DIMSTYLE11
100
AcDbAlignedDimension
 13
-475.3089904785156
 23
57.31861114501953
 33
0.0
 14
-378.3089904785156
 24
57.31861114501953
 34
0.0
100
AcDbRotatedDimension
  0
INSERT
  5
2A6
330
22
100
AcDbEntity
  8
0
  6
Continuous
 62
     7
100
AcDbBlockReference
  2
KOZU0002
 10
-383.2633361816406
 20
68.62248229980469
 30
0.0
  0
DIMENSION
  5
2A7
330
22
100
AcDbEntity
  8
0
  6
Continuous
 62
     7
100
AcDbDimension
  2
*D12
 10
-536.3845825195313
 20
138.318603515625
 30
0.0
 11
-536.3845825195313
 21
97.81861114501952
 31
0.0
 71
     5
 42
-1.0
  3
DIMSTYLE12
100
AcDbAlignedDimension
 13
-475.3089904785156
 23
57.31861114501953
 33
0.0
 14
-475.3089904785156
 24
138.318603515625
 34
0.0
 50
90.0
100
AcDbRotatedDimension
  0
ENDSEC
  0
SECTION
  2
OBJECTS
  0
DICTIONARY
  5
C
330
0
100
AcDbDictionary
281
     1
  3
ACAD_COLOR
350
1B
  3
ACAD_GROUP
350
D
  3
ACAD_LAYOUT
350
19
  3
ACAD_MATERIAL
350
1A
  3
ACAD_MLINESTYLE
350
16
  3
ACAD_PLOTSETTINGS
350
18
  3
ACAD_PLOTSTYLENAME
350
E
  3
ACAD_TABLESTYLE
350
1C
  3
AcDbVariableDictionary
350
2B3
  0
DICTIONARY
  5
1B
102
{ACAD_REACTORS
330
C
102
}
330
C
100
AcDbDictionary
281
     1
  0
DICTIONARY
  5
D
102
{ACAD_REACTORS
330
C
102
}
330
C
100
AcDbDictionary
281
     1
  0
DICTIONARY
  5
19
102
{ACAD_REACTORS
330
C
102
}
330
C
100
AcDbDictionary
281
     1
  3
Model
350
25
  3
レイアウト1
350
21
  0
DICTIONARY
  5
1A
102
{ACAD_REACTORS
330
C
102
}
330
C
100
AcDbDictionary
281
     1
  0
DICTIONARY
  5
16
102
{ACAD_REACTORS
330
C
102
}
330
C
100
AcDbDictionary
281
     1
  3
Standard
350
17
  0
DICTIONARY
  5
18
102
{ACAD_REACTORS
330
C
102
}
330
C
100
AcDbDictionary
281
     1
  0
ACDBDICTIONARYWDFLT
  5
E
102
{ACAD_REACTORS
330
C
102
}
330
C
100
AcDbDictionary
281
     1
  3
Normal
350
F
100
AcDbDictionaryWithDefault
340
F
  0
DICTIONARY
  5
1C
102
{ACAD_REACTORS
330
C
102
}
330
C
100
AcDbDictionary
281
     1
  3
Standard
350
1D
  0
DICTIONARY
  5
2B3
102
{ACAD_REACTORS
330
C
102
}
330
C
100
AcDbDictionary
281
     1
  3
CTABLESTYLE
350
2B4
  0
LAYOUT
  5
25
102
{ACAD_REACTORS
330
19
102
}
330
19
100
AcDbPlotSettings
  1

  2
PDF reDirect v2
  4
User120
  6

 40
3.174999952316284
 41
3.174999952316284
 42
3.17498779296875
 43
3.17498779296875
 44
594.0
 45
841.0
 46
0.0
 47
0.0
 48
0.0
 49
0.0
140
0.0
141
0.0
142
1.0
143
1.0
 70
 11952
 72
     1
 73
     1
 74
     2
  7
C:\Users\ck\AppData\Roaming\Autodesk\AutoCAD 2005\R16.1\jpn\Plot Styles\black.ctb
 75
    16
147
1.0
 76
     0
 77
     2
 78
   300
148
839.0
149
0.0
100
AcDbLayout
  1
Model
 70
     1
 71
     0
 10
0.0
 20
0.0
 11
12.0
 21
9.0
 12
0.0
 22
0.0
 32
0.0
 14
0.0
 24
0.0
 34
0.0
 15
0.0
 25
0.0
 35
0.0
146
0.0
 13
0.0
 23
0.0
 33
0.0
 16
1.0
 26
0.0
 36
0.0
 17
0.0
 27
1.0
 37
0.0
 76
     0
330
22
1001
ACAD_PSEXT
1000
PDF reDirect v2
1000
PDF reDirect Pro
1000
PDF_REDIRECT_PORT:
1000
PDF reDirect provided by EXP Systems
1070
     0
  0
LAYOUT
  5
21
102
{ACAD_REACTORS
330
19
102
}
330
19
100
AcDbPlotSettings
  1

  2
PDF reDirect v2
  4

  6

 40
0.0
 41
0.0
 42
0.0
 43
0.0
 44
0.0
 45
0.0
 46
0.0
 47
0.0
 48
0.0
 49
0.0
140
0.0
141
0.0
142
1.0
143
1.0
 70
   688
 72
     0
 73
     0
 74
     5
  7
C:\Users\ck\AppData\Roaming\Autodesk\AutoCAD 2005\R16.1\jpn\Plot Styles\black.ctb
 75
    16
147
1.0
 76
     0
 77
     2
 78
   300
148
0.0
149
0.0
100
AcDbLayout
  1
レイアウト1
 70
     1
 71
     1
 10
-839.0
 20
0.0
 11
0.0
 21
591.0
 12
0.0
 22
0.0
 32
0.0
 14
1.000000000000000E+20
 24
1.000000000000000E+20
 34
1.000000000000000E+20
 15
-1.000000000000000E+20
 25
-1.000000000000000E+20
 35
-1.000000000000000E+20
146
0.0
 13
0.0
 23
0.0
 33
0.0
 16
1.0
 26
0.0
 36
0.0
 17
0.0
 27
1.0
 37
0.0
 76
     0
330
1E
  0
MLINESTYLE
  5
17
102
{ACAD_REACTORS
330
16
102
}
330
16
100
AcDbMlineStyle
  2
STANDARD
 70
     0
  3

 62
   256
 51
90.0
 52
90.0
 71
     2
 49
0.5
 62
   256
  6
BYLAYER
 49
-0.5
 62
   256
  6
BYLAYER
  0
ACDBPLACEHOLDER
  5
F
102
{ACAD_REACTORS
330
E
102
}
330
E
  0
TABLESTYLE
  5
1D
102
{ACAD_REACTORS
330
1C
102
}
330
1C
100
AcDbTableStyle
  3
Standard
 70
     0
 71
     0
 40
0.06
 41
0.06
280
     0
281
     0
  7
STANDARD
140
0.18
170
     2
 62
     0
 63
     7
283
     0
274
    -2
284
     1
 64
     0
275
    -2
285
     1
 65
     0
276
    -2
286
     1
 66
     0
277
    -2
287
     1
 67
     0
278
    -2
288
     1
 68
     0
279
    -2
289
     1
 69
     0
  7
STANDARD
140
0.25
170
     5
 62
     0
 63
     7
283
     0
274
    -2
284
     1
 64
     0
275
    -2
285
     1
 65
     0
276
    -2
286
     1
 66
     0
277
    -2
287
     1
 67
     0
278
    -2
288
     1
 68
     0
279
    -2
289
     1
 69
     0
  7
STANDARD
140
0.18
170
     5
 62
     0
 63
     7
283
     0
274
    -2
284
     1
 64
     0
275
    -2
285
     1
 65
     0
276
    -2
286
     1
 66
     0
277
    -2
287
     1
 67
     0
278
    -2
288
     1
 68
     0
279
    -2
289
     1
 69
     0
  0
DICTIONARYVAR
  5
2B4
102
{ACAD_REACTORS
330
2B3
102
}
330
2B3
100
DictionaryVariables
280
     0
  1
STANDARD
  0
ENDSEC
  0
EOF
