  0
SECTION
  2
HEADER
  9
$ACADVER
  1
AC1018
  9
$ACADMAINTVER
 70
    39
  9
$DWGCODEPAGE
  3
ANSI_932
  9
$INSBASE
 10
0.0
 20
0.0
 30
0.0
  9
$EXTMIN
 10
-382.4156789111621
 20
36.8600928951754
 30
-0.0015258207003583
  9
$EXTMAX
 10
-198.3415825038003
 20
276.6691290858075
 30
0.0000000349246037
  9
$LIMMIN
 10
-423.0
 20
-2.0
  9
$LIMMAX
 10
-5.0
 20
293.0
  9
$ORTHOMODE
 70
     0
  9
$REGENMODE
 70
     1
  9
$FILLMODE
 70
     1
  9
$QTEXTMODE
 70
     0
  9
$MIRRTEXT
 70
     0
  9
$LTSCALE
 40
1.0
  9
$ATTMODE
 70
     1
  9
$TEXTSIZE
 40
0.2
  9
$TRACEWID
 40
0.05
  9
$TEXTSTYLE
  7
STANDARD
  9
$CLAYER
  8
0
  9
$CELTYPE
  6
CONTINUOUS
  9
$CECOLOR
 62
   256
  9
$CELTSCALE
 40
1.0
  9
$DISPSILH
 70
     0
  9
$DIMSCALE
 40
1.0
  9
$DIMASZ
 40
1.0
  9
$DIMEXO
 40
2.54
  9
$DIMDLI
 40
0.38
  9
$DIMRND
 40
0.0
  9
$DIMDLE
 40
0.0
  9
$DIMEXE
 40
2.54
  9
$DIMTP
 40
0.0
  9
$DIMTM
 40
0.0
  9
$DIMTXT
 40
3.0
  9
$DIMCEN
 40
0.09
  9
$DIMTSZ
 40
0.0
  9
$DIMTOL
 70
     0
  9
$DIMLIM
 70
     0
  9
$DIMTIH
 70
     0
  9
$DIMTOH
 70
     0
  9
$DIMSE1
 70
     0
  9
$DIMSE2
 70
     0
  9
$DIMTAD
 70
     1
  9
$DIMZIN
 70
     0
  9
$DIMBLK
  1

  9
$DIMASO
 70
     1
  9
$DIMSHO
 70
     0
  9
$DIMPOST
  1

  9
$DIMAPOST
  1

  9
$DIMALT
 70
     0
  9
$DIMALTD
 70
     2
  9
$DIMALTF
 40
25.4
  9
$DIMLFAC
 40
1.0
  9
$DIMTOFL
 70
     0
  9
$DIMTVP
 40
1.0
  9
$DIMTIX
 70
     0
  9
$DIMSOXD
 70
     0
  9
$DIMSAH
 70
     1
  9
$DIMBLK1
  1

  9
$DIMBLK2
  1

  9
$DIMSTYLE
  2
DIMSTYLE1
  9
$DIMCLRD
 70
     0
  9
$DIMCLRE
 70
     0
  9
$DIMCLRT
 70
     0
  9
$DIMTFAC
 40
1.0
  9
$DIMGAP
 40
1.5
  9
$DIMJUST
 70
     0
  9
$DIMSD1
 70
     0
  9
$DIMSD2
 70
     0
  9
$DIMTOLJ
 70
     1
  9
$DIMTZIN
 70
     0
  9
$DIMALTZ
 70
     0
  9
$DIMALTTZ
 70
     0
  9
$DIMUPT
 70
     0
  9
$DIMDEC
 70
     4
  9
$DIMTDEC
 70
     4
  9
$DIMALTU
 70
     2
  9
$DIMALTTD
 70
     2
  9
$DIMTXSTY
  7
STANDARD
  9
$DIMAUNIT
 70
     0
  9
$DIMADEC
 70
     0
  9
$DIMALTRND
 40
0.0
  9
$DIMAZIN
 70
     0
  9
$DIMDSEP
 70
    46
  9
$DIMATFIT
 70
     3
  9
$DIMFRAC
 70
     0
  9
$DIMLDRBLK
  1

  9
$DIMLUNIT
 70
     2
  9
$DIMLWD
 70
    -2
  9
$DIMLWE
 70
    -2
  9
$DIMTMOVE
 70
     0
  9
$LUNITS
 70
     2
  9
$LUPREC
 70
     4
  9
$SKETCHINC
 40
0.1
  9
$FILLETRAD
 40
0.0
  9
$AUNITS
 70
     0
  9
$AUPREC
 70
     0
  9
$MENU
  1
.
  9
$ELEVATION
 40
0.0
  9
$PELEVATION
 40
0.0
  9
$THICKNESS
 40
0.0
  9
$LIMCHECK
 70
     0
  9
$CHAMFERA
 40
0.0
  9
$CHAMFERB
 40
0.0
  9
$CHAMFERC
 40
0.0
  9
$CHAMFERD
 40
0.0
  9
$SKPOLY
 70
     0
  9
$TDCREATE
 40
2457843.776701539
  9
$TDUCREATE
 40
2457843.401701540
  9
$TDUPDATE
 40
2457843.777228970
  9
$TDUUPDATE
 40
2457843.402228970
  9
$TDINDWG
 40
0.0005287037
  9
$TDUSRTIMER
 40
0.0005287037
  9
$USRTIMER
 70
     1
  9
$ANGBASE
 50
0.0
  9
$ANGDIR
 70
     0
  9
$PDMODE
 70
     0
  9
$PDSIZE
 40
0.0
  9
$PLINEWID
 40
0.0
  9
$SPLFRAME
 70
     0
  9
$SPLINETYPE
 70
     6
  9
$SPLINESEGS
 70
     8
  9
$HANDSEED
  5
17C
  9
$SURFTAB1
 70
     6
  9
$SURFTAB2
 70
     6
  9
$SURFTYPE
 70
     6
  9
$SURFU
 70
     6
  9
$SURFV
 70
     6
  9
$UCSBASE
  2

  9
$UCSNAME
  2

  9
$UCSORG
 10
0.0
 20
0.0
 30
0.0
  9
$UCSXDIR
 10
1.0
 20
0.0
 30
0.0
  9
$UCSYDIR
 10
0.0
 20
1.0
 30
0.0
  9
$UCSORTHOREF
  2

  9
$UCSORTHOVIEW
 70
     0
  9
$UCSORGTOP
 10
0.0
 20
0.0
 30
0.0
  9
$UCSORGBOTTOM
 10
0.0
 20
0.0
 30
0.0
  9
$UCSORGLEFT
 10
0.0
 20
0.0
 30
0.0
  9
$UCSORGRIGHT
 10
0.0
 20
0.0
 30
0.0
  9
$UCSORGFRONT
 10
0.0
 20
0.0
 30
0.0
  9
$UCSORGBACK
 10
0.0
 20
0.0
 30
0.0
  9
$PUCSBASE
  2

  9
$PUCSNAME
  2

  9
$PUCSORG
 10
0.0
 20
0.0
 30
0.0
  9
$PUCSXDIR
 10
1.0
 20
0.0
 30
0.0
  9
$PUCSYDIR
 10
0.0
 20
1.0
 30
0.0
  9
$PUCSORTHOREF
  2

  9
$PUCSORTHOVIEW
 70
     0
  9
$PUCSORGTOP
 10
0.0
 20
0.0
 30
0.0
  9
$PUCSORGBOTTOM
 10
0.0
 20
0.0
 30
0.0
  9
$PUCSORGLEFT
 10
0.0
 20
0.0
 30
0.0
  9
$PUCSORGRIGHT
 10
0.0
 20
0.0
 30
0.0
  9
$PUCSORGFRONT
 10
0.0
 20
0.0
 30
0.0
  9
$PUCSORGBACK
 10
0.0
 20
0.0
 30
0.0
  9
$USERI1
 70
     0
  9
$USERI2
 70
     0
  9
$USERI3
 70
     0
  9
$USERI4
 70
     0
  9
$USERI5
 70
     0
  9
$USERR1
 40
0.0
  9
$USERR2
 40
0.0
  9
$USERR3
 40
0.0
  9
$USERR4
 40
0.0
  9
$USERR5
 40
0.0
  9
$WORLDVIEW
 70
     1
  9
$SHADEDGE
 70
     3
  9
$SHADEDIF
 70
    70
  9
$TILEMODE
 70
     1
  9
$MAXACTVP
 70
    64
  9
$PINSBASE
 10
0.0
 20
0.0
 30
0.0
  9
$PLIMCHECK
 70
     0
  9
$PEXTMIN
 10
1.000000000000000E+20
 20
1.000000000000000E+20
 30
1.000000000000000E+20
  9
$PEXTMAX
 10
-1.000000000000000E+20
 20
-1.000000000000000E+20
 30
-1.000000000000000E+20
  9
$PLIMMIN
 10
-423.0
 20
-2.0
  9
$PLIMMAX
 10
-5.0
 20
293.0
  9
$UNITMODE
 70
     0
  9
$VISRETAIN
 70
     1
  9
$PLINEGEN
 70
     0
  9
$PSLTSCALE
 70
     1
  9
$TREEDEPTH
 70
  3020
  9
$CMLSTYLE
  2
Standard
  9
$CMLJUST
 70
     0
  9
$CMLSCALE
 40
1.0
  9
$PROXYGRAPHICS
 70
     1
  9
$MEASUREMENT
 70
     0
  9
$CELWEIGHT
370
    -1
  9
$ENDCAPS
280
     0
  9
$JOINSTYLE
280
     0
  9
$LWDISPLAY
290
     0
  9
$INSUNITS
 70
     0
  9
$HYPERLINKBASE
  1

  9
$STYLESHEET
  1

  9
$XEDIT
290
     1
  9
$CEPSNTYPE
380
     0
  9
$PSTYLEMODE
290
     1
  9
$FINGERPRINTGUID
  2
{B117857A-240D-4CA8-83E8-975C073028D4}
  9
$VERSIONGUID
  2
{48052603-D502-4DFE-8490-C04778B039F5}
  9
$EXTNAMES
290
     1
  9
$PSVPSCALE
 40
0.0
  9
$OLESTARTUP
290
     0
  9
$SORTENTS
280
   127
  9
$INDEXCTL
280
     0
  9
$HIDETEXT
280
     0
  9
$XCLIPFRAME
290
     0
  9
$HALOGAP
280
     0
  9
$OBSCOLOR
 70
   257
  9
$OBSLTYPE
280
     0
  9
$INTERSECTIONDISPLAY
280
     0
  9
$INTERSECTIONCOLOR
 70
   257
  9
$DIMASSOC
280
     1
  9
$PROJECTNAME
  1

  0
ENDSEC
  0
SECTION
  2
CLASSES
  0
CLASS
  1
ACDBDICTIONARYWDFLT
  2
AcDbDictionaryWithDefault
  3
ObjectDBX Classes
 90
        0
 91
        1
280
     0
281
     0
  0
CLASS
  1
TABLESTYLE
  2
AcDbTableStyle
  3
ObjectDBX Classes
 90
     2047
 91
        1
280
     0
281
     0
  0
CLASS
  1
DICTIONARYVAR
  2
AcDbDictionaryVar
  3
ObjectDBX Classes
 90
        0
 91
        1
280
     0
281
     0
  0
ENDSEC
  0
SECTION
  2
TABLES
  0
TABLE
  2
VPORT
  5
8
330
0
100
AcDbSymbolTable
 70
     2
  0
VPORT
  5
17B
330
8
100
AcDbSymbolTableRecord
100
AcDbViewportTableRecord
  2
*Active
 70
     0
 10
0.0
 20
0.0
 11
1.0
 21
1.0
 12
-214.0
 22
145.5
 13
0.0
 23
0.0
 14
1.0
 24
1.0
 15
0.0
 25
0.0
 16
0.0
 26
0.0
 36
1.0
 17
0.0
 27
0.0
 37
0.0
 40
297.1987577639752
 41
1.639303482587064
 42
50.0
 43
0.0
 44
0.0
 50
0.0
 51
0.0
 71
     0
 72
   100
 73
     1
 74
     1
 75
     0
 76
     0
 77
     0
 78
     0
281
     0
 65
     1
110
0.0
120
0.0
130
0.0
111
1.0
121
0.0
131
0.0
112
0.0
122
1.0
132
0.0
 79
     0
146
0.0
  0
ENDTAB
  0
TABLE
  2
LTYPE
  5
5
330
0
100
AcDbSymbolTable
 70
     6
  0
LTYPE
  5
13
330
5
100
AcDbSymbolTableRecord
100
AcDbLinetypeTableRecord
  2
ByBlock
 70
     0
  3

 72
    65
 73
     0
 40
0.0
  0
LTYPE
  5
14
330
5
100
AcDbSymbolTableRecord
100
AcDbLinetypeTableRecord
  2
ByLayer
 70
     0
  3

 72
    65
 73
     0
 40
0.0
  0
LTYPE
  5
15
330
5
100
AcDbSymbolTableRecord
100
AcDbLinetypeTableRecord
  2
CONTINUOUS
 70
     0
  3
Solid line
 72
    65
 73
     0
 40
0.0
  0
LTYPE
  5
26
330
5
100
AcDbSymbolTableRecord
100
AcDbLinetypeTableRecord
  2
DASHED
 70
     0
  3
__ __ __ __ __ __ __ __ __ __ __ __ __ __ __
 72
    65
 73
     2
 40
3.5
 49
2.0
 74
     0
 49
-1.5
 74
     0
  0
LTYPE
  5
27
330
5
100
AcDbSymbolTableRecord
100
AcDbLinetypeTableRecord
  2
CENTER
 70
     0
  3
____ _ ____ _ ____ _ ____ _ ____ _ ____ _ ____
 72
    65
 73
     4
 40
17.5
 49
13.0
 74
     0
 49
-1.5
 74
     0
 49
1.5
 74
     0
 49
-1.5
 74
     0
  0
LTYPE
  5
28
330
5
100
AcDbSymbolTableRecord
100
AcDbLinetypeTableRecord
  2
PHANTOM
 70
     0
  3
_____ _ _ _____ _ _ _____ _ _ _____ _ _ ____  
 72
    65
 73
     6
 40
15.5
 49
8.0
 74
     0
 49
-1.5
 74
     0
 49
1.5
 74
     0
 49
-1.5
 74
     0
 49
1.5
 74
     0
 49
-1.5
 74
     0
  0
LTYPE
  5
29
330
5
100
AcDbSymbolTableRecord
100
AcDbLinetypeTableRecord
  2
DOT
 70
     0
  3
. . . . . . . . . . . . . . . . . . . . . . . .
 72
    65
 73
     2
 40
0.25
 49
0.0
 74
     0
 49
-0.25
 74
     0
  0
LTYPE
  5
2A
330
5
100
AcDbSymbolTableRecord
100
AcDbLinetypeTableRecord
  2
HIDDEN
 70
     0
  3
__ __ __ __ __ __ __ __ __ __ __ __ __ __ __
 72
    65
 73
     2
 40
3.5
 49
2.0
 74
     0
 49
-1.5
 74
     0
  0
ENDTAB
  0
TABLE
  2
LAYER
  5
2
330
0
100
AcDbSymbolTable
 70
     3
  0
LAYER
  5
10
330
2
100
AcDbSymbolTableRecord
100
AcDbLayerTableRecord
  2
0
 70
     0
 62
     7
  6
CONTINUOUS
370
    -3
390
F
  0
LAYER
  5
2B
330
2
100
AcDbSymbolTableRecord
100
AcDbLayerTableRecord
  2
1
 70
     0
 62
     7
  6
CONTINUOUS
370
    -3
390
F
  0
LAYER
  5
2C
330
2
100
AcDbSymbolTableRecord
100
AcDbLayerTableRecord
  2
DEFPOINTS
 70
     0
 62
     7
  6
CONTINUOUS
290
     0
370
    -3
390
F
  0
ENDTAB
  0
TABLE
  2
STYLE
  5
3
330
0
100
AcDbSymbolTable
 70
     2
  0
STYLE
  5
11
330
3
100
AcDbSymbolTableRecord
100
AcDbTextStyleTableRecord
  2
STANDARD
 70
     0
 40
0.0
 41
1.0
 50
0.0
 71
     0
 42
0.2
  3

  4

1001
ACAD
1000
MS Gothic
1071
    32817
  0
ENDTAB
  0
TABLE
  2
VIEW
  5
6
330
0
100
AcDbSymbolTable
 70
     0
  0
ENDTAB
  0
TABLE
  2
UCS
  5
7
330
0
100
AcDbSymbolTable
 70
     0
  0
ENDTAB
  0
TABLE
  2
APPID
  5
9
330
0
100
AcDbSymbolTable
 70
     2
  0
APPID
  5
12
330
9
100
AcDbSymbolTableRecord
100
AcDbRegAppTableRecord
  2
ACAD
 70
     0
  0
APPID
  5
170
330
9
100
AcDbSymbolTableRecord
100
AcDbRegAppTableRecord
  2
ACAD_PSEXT
 70
     0
  0
ENDTAB
  0
TABLE
  2
DIMSTYLE
  5
A
330
0
100
AcDbSymbolTable
 70
     5
100
AcDbDimStyleTable
 71
     1
340
2D
  0
DIMSTYLE
105
2D
102
{ACAD_REACTORS
330
169
102
}
330
A
100
AcDbSymbolTableRecord
100
AcDbDimStyleTableRecord
  2
DIMSTYLE1
 70
     0
 41
1.0
 42
2.54
 44
2.54
 73
     0
 74
     0
 75
     1
 76
     1
 77
     1
140
3.0
145
1.0
147
1.5
172
     1
173
     1
279
     2
340
11
  0
DIMSTYLE
105
2E
102
{ACAD_REACTORS
330
16A
102
}
330
A
100
AcDbSymbolTableRecord
100
AcDbDimStyleTableRecord
  2
DIMSTYLE2
 70
     0
 41
1.0
 42
2.54
 44
2.54
 73
     0
 74
     0
 75
     1
 76
     1
 77
     1
140
3.0
145
1.0
147
1.5
172
     1
173
     1
279
     2
340
11
  0
DIMSTYLE
105
2F
102
{ACAD_REACTORS
330
16B
102
}
330
A
100
AcDbSymbolTableRecord
100
AcDbDimStyleTableRecord
  2
DIMSTYLE3
 70
     0
 41
1.0
 42
2.54
 44
2.54
 73
     0
 74
     0
 75
     1
 76
     1
 77
     1
140
3.0
145
1.0
147
1.5
172
     1
173
     1
279
     2
340
11
  0
DIMSTYLE
105
30
102
{ACAD_REACTORS
330
16C
102
}
330
A
100
AcDbSymbolTableRecord
100
AcDbDimStyleTableRecord
  2
DIMSTYLE4
 70
     0
 41
1.0
 42
2.54
 44
2.54
 73
     0
 74
     0
 77
     1
140
3.0
145
1.0
147
1.5
172
     1
173
     1
279
     2
340
11
  0
ENDTAB
  0
TABLE
  2
BLOCK_RECORD
  5
1
330
0
100
AcDbSymbolTable
 70
     7
  0
BLOCK_RECORD
  5
22
330
1
100
AcDbSymbolTableRecord
100
AcDbBlockTableRecord
  2
*Model_Space
340
25
  0
BLOCK_RECORD
  5
1E
330
1
100
AcDbSymbolTableRecord
100
AcDbBlockTableRecord
  2
*Paper_Space
340
21
  0
BLOCK_RECORD
  5
34
330
1
100
AcDbSymbolTableRecord
100
AcDbBlockTableRecord
  2
_OPEN30
340
0
102
{BLKREFS
331
3E
331
3F
331
48
331
49
331
52
331
53
331
5B
331
5C
102
}
  0
BLOCK_RECORD
  5
3A
330
1
100
AcDbSymbolTableRecord
100
AcDbBlockTableRecord
  2
*D1
340
0
  0
BLOCK_RECORD
  5
44
330
1
100
AcDbSymbolTableRecord
100
AcDbBlockTableRecord
  2
*D2
340
0
  0
BLOCK_RECORD
  5
4E
330
1
100
AcDbSymbolTableRecord
100
AcDbBlockTableRecord
  2
*D3
340
0
  0
BLOCK_RECORD
  5
58
330
1
100
AcDbSymbolTableRecord
100
AcDbBlockTableRecord
  2
*D4
340
0
  0
BLOCK_RECORD
  5
64
330
1
100
AcDbSymbolTableRecord
100
AcDbBlockTableRecord
  2
KOZU0001
340
0
102
{BLKREFS
331
16D
102
}
  0
ENDTAB
  0
ENDSEC
  0
SECTION
  2
BLOCKS
  0
BLOCK
  5
23
330
22
100
AcDbEntity
  8
0
100
AcDbBlockBegin
  2
*Model_Space
 70
     0
 10
0.0
 20
0.0
 30
0.0
  3
*Model_Space
  1

  0
ENDBLK
  5
24
330
22
100
AcDbEntity
  8
0
100
AcDbBlockEnd
  0
BLOCK
  5
1F
330
1E
100
AcDbEntity
 67
     1
  8
0
100
AcDbBlockBegin
  2
*Paper_Space
 70
     0
 10
0.0
 20
0.0
 30
0.0
  3
*Paper_Space
  1

  0
ENDBLK
  5
20
330
1E
100
AcDbEntity
 67
     1
  8
0
100
AcDbBlockEnd
  0
BLOCK
  5
35
330
34
100
AcDbEntity
  8
0
100
AcDbBlockBegin
  2
_OPEN30
 70
     0
 10
0.0
 20
0.0
 30
0.0
  3
_OPEN30
  1

  0
LINE
  5
36
330
34
100
AcDbEntity
  8
0
  6
ByBlock
 62
     0
100
AcDbLine
 10
0.0
 20
0.0
 30
0.0
 11
-2.999999999999993
 21
-1.000000000000017
 31
0.0
  0
LINE
  5
37
330
34
100
AcDbEntity
  8
0
  6
ByBlock
 62
     0
100
AcDbLine
 10
0.0
 20
0.0
 30
0.0
 11
-3.000000000000006
 21
0.9999999999999815
 31
0.0
  0
LINE
  5
38
330
34
100
AcDbEntity
  8
0
  6
ByBlock
 62
     0
100
AcDbLine
 10
0.0
 20
0.0
 30
0.0
 11
-3.0
 21
0.0
 31
0.0
  0
ENDBLK
  5
39
330
34
100
AcDbEntity
  8
0
100
AcDbBlockEnd
  0
BLOCK
  5
3B
330
3A
100
AcDbEntity
  8
0
100
AcDbBlockBegin
  2
*D1
 70
     1
 10
0.0
 20
0.0
 30
0.0
  3
*D1
  1

  0
LINE
  5
3C
330
3A
100
AcDbEntity
  8
0
  6
Continuous
 62
     7
100
AcDbLine
 10
-220.4403381347656
 20
249.0940856933594
 30
0.0
 11
-208.4708099365234
 21
257.7381591796875
 31
0.0
  0
LINE
  5
3D
330
3A
100
AcDbEntity
  8
0
  6
Continuous
 62
     7
100
AcDbLine
 10
-300.6994666730498
 20
191.1331170882484
 30
0.0
 11
-222.8724327410127
 21
247.337692848275
 31
0.0
  0
INSERT
  5
3E
330
3A
100
AcDbEntity
  8
0
  6
Continuous
 62
     7
100
AcDbBlockReference
  2
_OPEN30
 10
-303.1315612792969
 20
189.3767242431641
 30
0.0
 50
215.8357961586182
  0
INSERT
  5
3F
330
3A
100
AcDbEntity
  8
0
  6
Continuous
 62
     7
100
AcDbBlockReference
  2
_OPEN30
 10
-220.4403381347656
 20
249.0940856933594
 30
0.0
 50
35.83579615861751
  0
TEXT
  5
40
330
3A
100
AcDbEntity
  8
0
  6
Continuous
 62
     7
100
AcDbText
 10
-217.9427483621613
 20
251.8272106061628
 30
0.0
 40
3.0
  1
%%C102
 50
35.79999940251497
 41
1.106256216971615
100
AcDbText
  0
POINT
  5
41
330
3A
100
AcDbEntity
  8
DEFPOINTS
  6
Continuous
 62
     7
100
AcDbPoint
 10
-303.1315612792969
 20
189.3767242431641
 30
0.0
  0
POINT
  5
42
330
3A
100
AcDbEntity
  8
DEFPOINTS
  6
Continuous
 62
     7
100
AcDbPoint
 10
-220.4403381347656
 20
249.0940856933594
 30
0.0
  0
ENDBLK
  5
43
330
3A
100
AcDbEntity
  8
0
100
AcDbBlockEnd
  0
BLOCK
  5
45
330
44
100
AcDbEntity
  8
0
100
AcDbBlockBegin
  2
*D2
 70
     1
 10
0.0
 20
0.0
 30
0.0
  3
*D2
  1

  0
LINE
  5
46
330
44
100
AcDbEntity
  8
0
  6
Continuous
 62
     7
100
AcDbLine
 10
-229.2317810058594
 20
227.0400543212891
 30
0.0
 11
-198.3707885742188
 21
234.5331268310547
 31
0.0
  0
LINE
  5
47
330
44
100
AcDbEntity
  8
0
  6
Continuous
 62
     7
100
AcDbLine
 10
-291.4248194049475
 20
211.9395559132891
 30
0.0
 11
-232.147080009115
 21
226.332218378703
 31
0.0
  0
INSERT
  5
48
330
44
100
AcDbEntity
  8
0
  6
Continuous
 62
     7
100
AcDbBlockReference
  2
_OPEN30
 10
-294.3401184082031
 20
211.2317199707031
 30
0.0
 50
193.6473523516051
  0
INSERT
  5
49
330
44
100
AcDbEntity
  8
0
  6
Continuous
 62
     7
100
AcDbBlockReference
  2
_OPEN30
 10
-229.2317810058594
 20
227.0400543212891
 30
0.0
 50
13.64735235160453
  0
TEXT
  5
4A
330
44
100
AcDbEntity
  8
0
  6
Continuous
 62
     7
100
AcDbText
 10
-206.4581199807578
 20
233.3447724867473
 30
0.0
 40
3.0
  1
%%C67
 50
13.60000032153624
 41
0.9498249830693319
100
AcDbText
  0
POINT
  5
4B
330
44
100
AcDbEntity
  8
DEFPOINTS
  6
Continuous
 62
     7
100
AcDbPoint
 10
-294.3401184082031
 20
211.2317199707031
 30
0.0
  0
POINT
  5
4C
330
44
100
AcDbEntity
  8
DEFPOINTS
  6
Continuous
 62
     7
100
AcDbPoint
 10
-229.2317810058594
 20
227.0400543212891
 30
0.0
  0
ENDBLK
  5
4D
330
44
100
AcDbEntity
  8
0
100
AcDbBlockEnd
  0
BLOCK
  5
4F
330
4E
100
AcDbEntity
  8
0
100
AcDbBlockBegin
  2
*D3
 70
     1
 10
0.0
 20
0.0
 30
0.0
  3
*D3
  1

  0
LINE
  5
50
330
4E
100
AcDbEntity
  8
0
  6
Continuous
 62
     7
100
AcDbLine
 10
-244.9158325195313
 20
210.4947662353516
 30
0.0
 11
-201.2069702148438
 21
187.8486175537109
 31
0.0
  0
LINE
  5
51
330
4E
100
AcDbEntity
  8
0
  6
Continuous
 62
     7
100
AcDbLine
 10
-275.9923927841745
 20
226.5959431051579
 30
0.0
 11
-247.5795371474661
 21
211.8748668313656
 31
0.0
  0
INSERT
  5
52
330
4E
100
AcDbEntity
  8
0
  6
Continuous
 62
     7
100
AcDbBlockReference
  2
_OPEN30
 10
-278.6560974121094
 20
227.9760437011719
 30
0.0
 50
152.6107287174005
  0
INSERT
  5
53
330
4E
100
AcDbEntity
  8
0
  6
Continuous
 62
     7
100
AcDbBlockReference
  2
_OPEN30
 10
-244.9158325195313
 20
210.4947662353516
 30
0.0
 50
332.6107287174012
  0
TEXT
  5
54
330
4E
100
AcDbEntity
  8
0
  6
Continuous
 62
     7
100
AcDbText
 10
-208.0889833949276
 20
192.2598372968413
 30
0.0
 40
3.0
  1
%%C38
 50
332.5999994651985
 41
0.9498249830693319
100
AcDbText
  0
POINT
  5
55
330
4E
100
AcDbEntity
  8
DEFPOINTS
  6
Continuous
 62
     7
100
AcDbPoint
 10
-278.6560974121094
 20
227.9760437011719
 30
0.0
  0
POINT
  5
56
330
4E
100
AcDbEntity
  8
DEFPOINTS
  6
Continuous
 62
     7
100
AcDbPoint
 10
-244.9158325195313
 20
210.4947662353516
 30
0.0
  0
ENDBLK
  5
57
330
4E
100
AcDbEntity
  8
0
100
AcDbBlockEnd
  0
BLOCK
  5
59
330
58
100
AcDbEntity
  8
0
100
AcDbBlockBegin
  2
*D4
 70
     1
 10
0.0
 20
0.0
 30
0.0
  3
*D4
  1

  0
LINE
  5
5A
330
58
100
AcDbEntity
  8
0
  6
Continuous
 62
     7
100
AcDbLine
 10
-345.4900207519531
 20
116.1358871459961
 30
0.0
 11
-345.4900207519531
 21
68.13588714599609
 31
0.0
  0
INSERT
  5
5B
330
58
100
AcDbEntity
  8
0
  6
Continuous
 62
     7
100
AcDbBlockReference
  2
_OPEN30
 10
-345.4900207519531
 20
119.1358871459961
 30
0.0
 50
90.00000000000019
  0
INSERT
  5
5C
330
58
100
AcDbEntity
  8
0
  6
Continuous
 62
     7
100
AcDbBlockReference
  2
_OPEN30
 10
-345.4900207519531
 20
65.1358871459961
 30
0.0
 50
270.0000000000005
  0
LINE
  5
5D
330
58
100
AcDbEntity
  8
0
  6
Continuous
 62
     7
100
AcDbLine
 10
-315.3259497070313
 20
119.1358871459961
 30
0.0
 11
-347.7760314941406
 21
119.1358871459961
 31
0.0
  0
LINE
  5
5E
330
58
100
AcDbEntity
  8
0
  6
Continuous
 62
     7
100
AcDbLine
 10
-311.8259497070313
 20
65.13588714599608
 30
0.0
 11
-347.7760314941406
 21
65.1358871459961
 31
0.0
  0
TEXT
  5
5F
330
58
100
AcDbEntity
  8
0
  6
Continuous
 62
     7
100
AcDbText
 10
-346.2400206396148
 20
89.56588700115581
 30
0.0
 40
3.0
  1
54
 50
90.00000250447815
 41
1.028000020980834
100
AcDbText
  0
POINT
  5
60
330
58
100
AcDbEntity
  8
DEFPOINTS
  6
Continuous
 62
     7
100
AcDbPoint
 10
-312.7859497070313
 20
119.1358871459961
 30
0.0
  0
POINT
  5
61
330
58
100
AcDbEntity
  8
DEFPOINTS
  6
Continuous
 62
     7
100
AcDbPoint
 10
-309.2859497070313
 20
65.1358871459961
 30
0.0
  0
POINT
  5
62
330
58
100
AcDbEntity
  8
DEFPOINTS
  6
Continuous
 62
     7
100
AcDbPoint
 10
-345.4900207519531
 20
65.1358871459961
 30
0.0
  0
ENDBLK
  5
63
330
58
100
AcDbEntity
  8
0
100
AcDbBlockEnd
  0
BLOCK
  5
65
330
64
100
AcDbEntity
  8
0
100
AcDbBlockBegin
  2
KOZU0001
 70
     0
 10
0.0
 20
0.0
 30
0.0
  3
KOZU0001
  1

  0
LINE
  5
66
330
64
100
AcDbEntity
  8
0
  6
Continuous
 62
     7
100
AcDbLine
 10
0.0
 20
0.0
 30
0.0
 11
-20.82131958007813
 21
-35.13883590698242
 31
0.0
  0
LINE
  5
67
330
64
100
AcDbEntity
  8
0
  6
Continuous
 62
     7
100
AcDbLine
 10
-20.82131958007813
 20
-35.13883590698242
 30
0.0
 11
-60.7291259765625
 21
-35.13883590698242
 31
0.0
  0
LINE
  5
68
330
64
100
AcDbEntity
  8
0
  6
Continuous
 62
     7
100
AcDbLine
 10
0.0
 20
0.0
 30
0.0
 11
-0.6690053421396628
 21
-3.090700867471421
 31
0.0
  0
LINE
  5
69
330
64
100
AcDbEntity
  8
0
  6
Continuous
 62
     7
100
AcDbLine
 10
0.0
 20
0.0
 30
0.0
 11
-2.389624794194582
 21
-2.071157488693339
 31
0.0
  0
TEXT
  5
6A
330
64
100
AcDbEntity
  8
0
  6
Continuous
 62
     7
100
AcDbText
 10
-59.00912606716156
 20
-34.38883590698242
 30
0.0
 40
3.0
  1
配管接続口
 41
0.8487395020950888
100
AcDbText
  0
TEXT
  5
6B
330
64
100
AcDbEntity
  8
0
  6
Continuous
 62
     7
100
AcDbText
 10
-59.00912606716156
 20
-39.65383590698242
 30
0.0
 40
3.0
  1
Ｒｃ２　１／２（６５Ａ）
 41
0.8436974815103043
100
AcDbText
  0
ENDBLK
  5
6C
330
64
100
AcDbEntity
  8
0
100
AcDbBlockEnd
  0
ENDSEC
  0
SECTION
  2
ENTITIES
  0
LINE
  5
6D
330
22
100
AcDbEntity
  8
0
  6
Continuous
 62
     7
100
AcDbLine
 10
-269.2008056640625
 20
216.2933349609375
 30
0.0
 11
-265.8859558105469
 21
216.1358947753906
 31
0.0
  0
LINE
  5
6E
330
22
100
AcDbEntity
  8
0
  6
Continuous
 62
     7
100
AcDbLine
 10
-269.3856506347656
 20
222.2999420166016
 30
0.0
 11
-265.3868713378906
 21
222.7056884765625
 31
0.0
  0
LINE
  5
6F
330
22
100
AcDbEntity
  8
0
  6
CENTER
 62
     7
100
AcDbLine
 10
-261.7859497070313
 20
276.6568603515625
 30
0.0
 11
-261.7859497070313
 21
162.5814361572266
 31
0.0
  0
LINE
  5
70
330
22
100
AcDbEntity
  8
0
  6
Continuous
 62
     7
100
AcDbLine
 10
-255.3859558105469
 20
216.1358947753906
 30
0.0
 11
-257.8859558105469
 21
216.1358947753906
 31
0.0
  0
LINE
  5
71
330
22
100
AcDbEntity
  8
0
  6
Continuous
 62
     7
100
AcDbLine
 10
-258.1407775878906
 20
222.4485321044922
 30
0.0
 11
-254.4926300048828
 21
222.3405456542969
 31
0.0
  0
LINE
  5
72
330
22
100
AcDbEntity
  8
0
  6
CENTER
 62
     7
100
AcDbLine
 10
-320.5863342285156
 20
219.1358947753906
 30
0.0
 11
-204.4241333007813
 21
219.1358947753906
 31
0.0
  0
LINE
  5
73
330
22
100
AcDbEntity
  8
0
  6
Continuous
 62
     7
100
AcDbLine
 10
-212.2859497070313
 20
109.1358871459961
 30
0.0
 11
-210.7859497070313
 21
109.1358871459961
 31
0.0
  0
LINE
  5
74
330
22
100
AcDbEntity
  8
0
  6
Continuous
 62
     7
100
AcDbLine
 10
-214.2859497070313
 20
65.1358871459961
 30
0.0
 11
-214.2859497070313
 21
107.1358871459961
 31
0.0
  0
LINE
  5
75
330
22
100
AcDbEntity
  8
0
  6
Continuous
 62
     7
100
AcDbLine
 10
-210.7859497070313
 20
119.1358871459961
 30
0.0
 11
-210.7859497070313
 21
109.1358871459961
 31
0.0
  0
LINE
  5
76
330
22
100
AcDbEntity
  8
0
  6
Continuous
 62
     7
100
AcDbLine
 10
-241.1859588623047
 20
118.2637557983398
 30
0.0
 11
-240.3138275146484
 21
119.1358871459961
 31
0.0
  0
LINE
  5
77
330
22
100
AcDbEntity
  8
0
  6
Continuous
 62
     7
100
AcDbLine
 10
-243.3791656494141
 20
116.0705490112305
 30
0.0
 11
-242.3138275146484
 21
117.1358871459961
 31
0.0
  0
LINE
  5
78
330
22
100
AcDbEntity
  8
0
  6
Continuous
 62
     7
100
AcDbLine
 10
-243.5695495605469
 20
114.465950012207
 30
0.0
 11
-238.8996124267578
 21
119.1358871459961
 31
0.0
  0
LINE
  5
79
330
22
100
AcDbEntity
  8
0
  6
Continuous
 62
     7
100
AcDbLine
 10
-243.7859344482422
 20
111.4211349487305
 30
0.0
 11
-236.0711822509766
 21
119.1358871459961
 31
0.0
  0
LINE
  5
7A
330
22
100
AcDbEntity
  8
0
  6
Continuous
 62
     7
100
AcDbLine
 10
-243.9215240478516
 20
109.8713302612305
 30
0.0
 11
-234.6569671630859
 21
119.1358871459961
 31
0.0
  0
LINE
  5
7B
330
22
100
AcDbEntity
  8
0
  6
Continuous
 62
     7
100
AcDbLine
 10
-244.0571136474609
 20
108.3215255737305
 30
0.0
 11
-233.2427520751953
 21
119.1358871459961
 31
0.0
  0
LINE
  5
7C
330
22
100
AcDbEntity
  8
0
  6
Continuous
 62
     7
100
AcDbLine
 10
-244.3830871582031
 20
105.1671295166016
 30
0.0
 11
-230.4143218994141
 21
119.1358871459961
 31
0.0
  0
LINE
  5
7D
330
22
100
AcDbEntity
  8
0
  6
Continuous
 62
     7
100
AcDbLine
 10
-244.0001068115234
 20
104.1358871459961
 30
0.0
 11
-229.0001068115234
 21
119.1358871459961
 31
0.0
  0
LINE
  5
7E
330
22
100
AcDbEntity
  8
0
  6
Continuous
 62
     7
100
AcDbLine
 10
-230.5858917236328
 20
116.1358871459961
 30
0.0
 11
-228.4626617431641
 21
118.2591247558594
 31
0.0
  0
LINE
  5
7F
330
22
100
AcDbEntity
  8
0
  6
Continuous
 62
     7
100
AcDbLine
 10
-242.5858917236328
 20
104.1358871459961
 30
0.0
 11
-231.2859497070313
 21
115.4358291625977
 31
0.0
  0
LINE
  5
80
330
22
100
AcDbEntity
  8
0
  6
Continuous
 62
     7
100
AcDbLine
 10
-239.7574768066406
 20
104.1358871459961
 30
0.0
 11
-230.9574737548828
 21
112.9358901977539
 31
0.0
  0
LINE
  5
81
330
22
100
AcDbEntity
  8
0
  6
Continuous
 62
     7
100
AcDbLine
 10
-238.34326171875
 20
104.1358871459961
 30
0.0
 11
-229.5432586669922
 21
112.9358901977539
 31
0.0
  0
LINE
  5
82
330
22
100
AcDbEntity
  8
0
  6
Continuous
 62
     7
100
AcDbLine
 10
-236.9290466308594
 20
104.1358871459961
 30
0.0
 11
-229.0050201416016
 21
112.0599060058594
 31
0.0
  0
LINE
  5
83
330
22
100
AcDbEntity
  8
0
  6
Continuous
 62
     7
100
AcDbLine
 10
-234.1006164550781
 20
104.1358871459961
 30
0.0
 11
-229.2761993408203
 21
108.9603042602539
 31
0.0
  0
LINE
  5
84
330
22
100
AcDbEntity
  8
0
  6
Continuous
 62
     7
100
AcDbLine
 10
-232.6864013671875
 20
104.1358871459961
 30
0.0
 11
-229.4117889404297
 21
107.4104995727539
 31
0.0
  0
LINE
  5
85
330
22
100
AcDbEntity
  8
0
  6
Continuous
 62
     7
100
AcDbLine
 10
-231.2721862792969
 20
104.1358871459961
 30
0.0
 11
-229.5473785400391
 21
105.8606948852539
 31
0.0
  0
LINE
  5
86
330
22
100
AcDbEntity
  8
0
  6
Continuous
 62
     7
100
AcDbLine
 10
-212.4336853027344
 20
119.1358871459961
 30
0.0
 11
-210.7859497070313
 21
117.488166809082
 31
0.0
  0
LINE
  5
87
330
22
100
AcDbEntity
  8
0
  6
Continuous
 62
     7
100
AcDbLine
 10
-213.1407928466797
 20
119.1358871459961
 30
0.0
 11
-210.7859497070313
 21
116.7810592651367
 31
0.0
  0
LINE
  5
88
330
22
100
AcDbEntity
  8
0
  6
Continuous
 62
     7
100
AcDbLine
 10
-215.2621002197266
 20
119.1358871459961
 30
0.0
 11
-210.7859497070313
 21
114.6597366333008
 31
0.0
  0
LINE
  5
89
330
22
100
AcDbEntity
  8
0
  6
Continuous
 62
     7
100
AcDbLine
 10
-215.9692077636719
 20
119.1358871459961
 30
0.0
 11
-210.7859497070313
 21
113.9526290893555
 31
0.0
  0
LINE
  5
8A
330
22
100
AcDbEntity
  8
0
  6
Continuous
 62
     7
100
AcDbLine
 10
-218.0905303955078
 20
119.1358871459961
 30
0.0
 11
-210.7859497070313
 21
111.8313064575195
 31
0.0
  0
LINE
  5
8B
330
22
100
AcDbEntity
  8
0
  6
Continuous
 62
     7
100
AcDbLine
 10
-218.7976379394531
 20
119.1358871459961
 30
0.0
 11
-210.7859497070313
 21
111.1241989135742
 31
0.0
  0
LINE
  5
8C
330
22
100
AcDbEntity
  8
0
  6
Continuous
 62
     7
100
AcDbLine
 10
-220.9189605712891
 20
119.1358871459961
 30
0.0
 11
-210.9189605712891
 21
109.1358871459961
 31
0.0
  0
LINE
  5
8D
330
22
100
AcDbEntity
  8
0
  6
Continuous
 62
     7
100
AcDbLine
 10
-221.6260681152344
 20
119.1358871459961
 30
0.0
 11
-211.6260681152344
 21
109.1358871459961
 31
0.0
  0
LINE
  5
8E
330
22
100
AcDbEntity
  8
0
  6
Continuous
 62
     7
100
AcDbLine
 10
-223.7473907470703
 20
119.1358871459961
 30
0.0
 11
-213.4043579101563
 21
108.7928619384766
 31
0.0
  0
LINE
  5
8F
330
22
100
AcDbEntity
  8
0
  6
Continuous
 62
     7
100
AcDbLine
 10
-224.4544982910156
 20
119.1358871459961
 30
0.0
 11
-213.7761383056641
 21
108.4575347900391
 31
0.0
  0
LINE
  5
90
330
22
100
AcDbEntity
  8
0
  6
Continuous
 62
     7
100
AcDbLine
 10
-226.5758209228516
 20
119.1358871459961
 30
0.0
 11
-214.2859497070313
 21
106.8460311889648
 31
0.0
  0
LINE
  5
91
330
22
100
AcDbEntity
  8
0
  6
Continuous
 62
     7
100
AcDbLine
 10
-227.2829284667969
 20
119.1358871459961
 30
0.0
 11
-214.2859497070313
 21
106.1389236450195
 31
0.0
  0
LINE
  5
92
330
22
100
AcDbEntity
  8
0
  6
Continuous
 62
     7
100
AcDbLine
 10
-228.3759155273438
 20
118.1075668334961
 30
0.0
 11
-214.2859497070313
 21
104.0176010131836
 31
0.0
  0
LINE
  5
93
330
22
100
AcDbEntity
  8
0
  6
Continuous
 62
     7
100
AcDbLine
 10
-228.4328155517578
 20
117.4573440551758
 30
0.0
 11
-214.2859497070313
 21
103.3104934692383
 31
0.0
  0
LINE
  5
94
330
22
100
AcDbEntity
  8
0
  6
Continuous
 62
     7
100
AcDbLine
 10
-228.6034698486328
 20
115.5066909790039
 30
0.0
 11
-214.2859497070313
 21
101.1891708374023
 31
0.0
  0
LINE
  5
95
330
22
100
AcDbEntity
  8
0
  6
Continuous
 62
     7
100
AcDbLine
 10
-228.6603546142578
 20
114.8564682006836
 30
0.0
 11
-214.2859497070313
 21
100.482063293457
 31
0.0
  0
LINE
  5
96
330
22
100
AcDbEntity
  8
0
  6
Continuous
 62
     7
100
AcDbLine
 10
-228.8310089111328
 20
112.9058074951172
 30
0.0
 11
-214.2859497070313
 21
98.36074829101564
 31
0.0
  0
LINE
  5
97
330
22
100
AcDbEntity
  8
0
  6
Continuous
 62
     7
100
AcDbLine
 10
-228.8879089355469
 20
112.2555847167969
 30
0.0
 11
-214.2859497070313
 21
97.65364074707031
 31
0.0
  0
LINE
  5
98
330
22
100
AcDbEntity
  8
0
  6
Continuous
 62
     7
100
AcDbLine
 10
-229.0585632324219
 20
110.304931640625
 30
0.0
 11
-214.2859497070313
 21
95.53231811523437
 31
0.0
  0
LINE
  5
99
330
22
100
AcDbEntity
  8
0
  6
Continuous
 62
     7
100
AcDbLine
 10
-229.1154479980469
 20
109.6547088623047
 30
0.0
 11
-214.2859497070313
 21
94.82521057128906
 31
0.0
  0
LINE
  5
9A
330
22
100
AcDbEntity
  8
0
  6
Continuous
 62
     7
100
AcDbLine
 10
-229.2861175537109
 20
107.7040481567383
 30
0.0
 11
-214.2859497070313
 21
92.70389556884765
 31
0.0
  0
LINE
  5
9B
330
22
100
AcDbEntity
  8
0
  6
Continuous
 62
     7
100
AcDbLine
 10
-229.3430023193359
 20
107.053825378418
 30
0.0
 11
-214.2859497070313
 21
91.99678802490234
 31
0.0
  0
LINE
  5
9C
330
22
100
AcDbEntity
  8
0
  6
Continuous
 62
     7
100
AcDbLine
 10
-229.5136566162109
 20
105.1031723022461
 30
0.0
 11
-214.2859497070313
 21
89.8754653930664
 31
0.0
  0
LINE
  5
9D
330
22
100
AcDbEntity
  8
0
  6
Continuous
 62
     7
100
AcDbLine
 10
-229.5705413818359
 20
104.4529495239258
 30
0.0
 11
-214.2859497070313
 21
89.16835784912109
 31
0.0
  0
LINE
  5
9E
330
22
100
AcDbEntity
  8
0
  6
Continuous
 62
     7
100
AcDbLine
 10
-231.3748016357422
 20
104.1358871459961
 30
0.0
 11
-214.2859497070313
 21
87.04703521728516
 31
0.0
  0
LINE
  5
9F
330
22
100
AcDbEntity
  8
0
  6
Continuous
 62
     7
100
AcDbLine
 10
-232.0819091796875
 20
104.1358871459961
 30
0.0
 11
-214.2859497070313
 21
86.33992767333984
 31
0.0
  0
LINE
  5
A0
330
22
100
AcDbEntity
  8
0
  6
Continuous
 62
     7
100
AcDbLine
 10
-233.7859497070313
 20
103.7186126708984
 30
0.0
 11
-214.2859497070313
 21
84.21861267089843
 31
0.0
  0
LINE
  5
A1
330
22
100
AcDbEntity
  8
0
  6
Continuous
 62
     7
100
AcDbLine
 10
-233.7859497070313
 20
103.011505126953
 30
0.0
 11
-214.2859497070313
 21
83.51150512695312
 31
0.0
  0
LINE
  5
A2
330
22
100
AcDbEntity
  8
0
  6
Continuous
 62
     7
100
AcDbLine
 10
-225.0296783447266
 20
92.1339111328125
 30
0.0
 11
-214.2859497070313
 21
81.39018249511719
 31
0.0
  0
LINE
  5
A3
330
22
100
AcDbEntity
  8
0
  6
Continuous
 62
     7
100
AcDbLine
 10
-233.7859497070313
 20
100.8901824951172
 30
0.0
 11
-227.0316619873047
 21
94.13588714599608
 31
0.0
  0
LINE
  5
A4
330
22
100
AcDbEntity
  8
0
  6
Continuous
 62
     7
100
AcDbLine
 10
-225.0068817138672
 20
91.40399932861328
 30
0.0
 11
-214.2859497070313
 21
80.68307495117187
 31
0.0
  0
LINE
  5
A5
330
22
100
AcDbEntity
  8
0
  6
Continuous
 62
     7
100
AcDbLine
 10
-233.7859497070313
 20
100.1830749511719
 30
0.0
 11
-227.73876953125
 21
94.13588714599608
 31
0.0
  0
LINE
  5
A6
330
22
100
AcDbEntity
  8
0
  6
Continuous
 62
     7
100
AcDbLine
 10
-224.9384460449219
 20
89.21424102783204
 30
0.0
 11
-214.2859497070313
 21
78.56175994873047
 31
0.0
  0
LINE
  5
A7
330
22
100
AcDbEntity
  8
0
  6
Continuous
 62
     7
100
AcDbLine
 10
-233.7859497070313
 20
98.06175994873049
 30
0.0
 11
-229.8600921630859
 21
94.13588714599608
 31
0.0
  0
LINE
  5
A8
330
22
100
AcDbEntity
  8
0
  6
Continuous
 62
     7
100
AcDbLine
 10
-224.9156341552734
 20
88.48432159423827
 30
0.0
 11
-214.2859497070313
 21
77.85465240478515
 31
0.0
  0
LINE
  5
A9
330
22
100
AcDbEntity
  8
0
  6
Continuous
 62
     7
100
AcDbLine
 10
-233.7859497070313
 20
97.35465240478516
 30
0.0
 11
-230.5671997070313
 21
94.13588714599608
 31
0.0
  0
LINE
  5
AA
330
22
100
AcDbEntity
  8
0
  6
Continuous
 62
     7
100
AcDbLine
 10
-224.8471984863281
 20
86.29457092285155
 30
0.0
 11
-214.2859497070313
 21
75.73332977294922
 31
0.0
  0
LINE
  5
AB
330
22
100
AcDbEntity
  8
0
  6
Continuous
 62
     7
100
AcDbLine
 10
-233.7859497070313
 20
95.23332977294922
 30
0.0
 11
-232.6885070800781
 21
94.13588714599608
 31
0.0
  0
LINE
  5
AC
330
22
100
AcDbEntity
  8
0
  6
Continuous
 62
     7
100
AcDbLine
 10
-224.8243865966797
 20
85.56465148925781
 30
0.0
 11
-214.2859497070313
 21
75.02622222900391
 31
0.0
  0
LINE
  5
AD
330
22
100
AcDbEntity
  8
0
  6
Continuous
 62
     7
100
AcDbLine
 10
-233.7859497070313
 20
94.52622222900393
 30
0.0
 11
-233.3956146240234
 21
94.13588714599608
 31
0.0
  0
LINE
  5
AE
330
22
100
AcDbEntity
  8
0
  6
Continuous
 62
     7
100
AcDbLine
 10
-224.7559509277344
 20
83.37490081787109
 30
0.0
 11
-214.2859497070313
 21
72.90489959716797
 31
0.0
  0
LINE
  5
AF
330
22
100
AcDbEntity
  8
0
  6
Continuous
 62
     7
100
AcDbLine
 10
-224.7331390380859
 20
82.64498138427734
 30
0.0
 11
-214.2859497070313
 21
72.19779205322265
 31
0.0
  0
LINE
  5
B0
330
22
100
AcDbEntity
  8
0
  6
Continuous
 62
     7
100
AcDbLine
 10
-224.6647033691406
 20
80.45523071289062
 30
0.0
 11
-214.2859497070313
 21
70.07647705078125
 31
0.0
  0
LINE
  5
B1
330
22
100
AcDbEntity
  8
0
  6
Continuous
 62
     7
100
AcDbLine
 10
-224.6418914794922
 20
79.72531127929688
 30
0.0
 11
-214.2859497070313
 21
69.36936950683594
 31
0.0
  0
LINE
  5
B2
330
22
100
AcDbEntity
  8
0
  6
Continuous
 62
     7
100
AcDbLine
 10
-224.5734710693359
 20
77.53556060791016
 30
0.0
 11
-214.2859497070313
 21
67.248046875
 31
0.0
  0
LINE
  5
B3
330
22
100
AcDbEntity
  8
0
  6
Continuous
 62
     7
100
AcDbLine
 10
-224.5506591796875
 20
76.8056411743164
 30
0.0
 11
-214.2859497070313
 21
66.54093933105468
 31
0.0
  0
LINE
  5
B4
330
22
100
AcDbEntity
  8
0
  6
Continuous
 62
     7
100
AcDbLine
 10
-224.4822235107422
 20
74.61588287353515
 30
0.0
 11
-215.0022277832031
 21
65.1358871459961
 31
0.0
  0
LINE
  5
B5
330
22
100
AcDbEntity
  8
0
  6
Continuous
 62
     7
100
AcDbLine
 10
-224.4594116210938
 20
73.88597106933594
 30
0.0
 11
-215.7093353271484
 21
65.1358871459961
 31
0.0
  0
LINE
  5
B6
330
22
100
AcDbEntity
  8
0
  6
Continuous
 62
     7
100
AcDbLine
 10
-224.3909759521484
 20
71.69621276855469
 30
0.0
 11
-217.8306427001953
 21
65.1358871459961
 31
0.0
  0
LINE
  5
B7
330
22
100
AcDbEntity
  8
0
  6
Continuous
 62
     7
100
AcDbLine
 10
-224.3681640625
 20
70.96629333496093
 30
0.0
 11
-218.5377502441406
 21
65.1358871459961
 31
0.0
  0
LINE
  5
B8
330
22
100
AcDbEntity
  8
0
  6
Continuous
 62
     7
100
AcDbLine
 10
-224.2997283935547
 20
68.77654266357422
 30
0.0
 11
-220.6590728759766
 21
65.1358871459961
 31
0.0
  0
LINE
  5
B9
330
22
100
AcDbEntity
  8
0
  6
Continuous
 62
     7
100
AcDbLine
 10
-224.2769165039063
 20
68.04662322998047
 30
0.0
 11
-221.3661804199219
 21
65.1358871459961
 31
0.0
  0
LINE
  5
BA
330
22
100
AcDbEntity
  8
0
  6
Continuous
 62
     7
100
AcDbLine
 10
-224.2084808349609
 20
65.85687255859375
 30
0.0
 11
-223.4875030517578
 21
65.1358871459961
 31
0.0
  0
LINE
  5
BB
330
22
100
AcDbEntity
  8
0
  6
Continuous
 62
     7
100
AcDbLine
 10
-224.1859588623047
 20
65.1358871459961
 30
0.0
 11
-225.0922546386719
 21
94.13588714599608
 31
0.0
  0
LINE
  5
BC
330
22
100
AcDbEntity
  8
0
  6
Continuous
 62
     7
100
AcDbLine
 10
-225.735107421875
 20
66.68503570556641
 30
0.0
 11
-226.5475006103516
 21
92.68063354492188
 31
0.0
  0
LINE
  5
BD
330
22
100
AcDbEntity
  8
0
  6
Continuous
 62
     7
100
AcDbLine
 10
-226.5475006103516
 20
92.68063354492188
 30
0.0
 11
-246.3609313964844
 21
92.68063354492188
 31
0.0
  0
LINE
  5
BE
330
22
100
AcDbEntity
  8
0
  6
Continuous
 62
     7
100
AcDbLine
 10
-225.0922546386719
 20
94.13588714599608
 30
0.0
 11
-226.5475006103516
 21
92.68063354492188
 31
0.0
  0
LINE
  5
BF
330
22
100
AcDbEntity
  8
0
  6
Continuous
 62
     7
100
AcDbLine
 10
-224.1859588623047
 20
65.1358871459961
 30
0.0
 11
-225.735107421875
 21
66.68503570556641
 31
0.0
  0
LINE
  5
C0
330
22
100
AcDbEntity
  8
0
  6
Continuous
 62
     7
100
AcDbLine
 10
-246.3609313964844
 20
111.6358871459961
 30
0.0
 11
-243.7671356201172
 21
111.6358871459961
 31
0.0
  0
LINE
  5
C1
330
22
100
AcDbEntity
  8
0
  6
Continuous
 62
     7
100
AcDbLine
 10
-243.4609375
 20
115.1358871459961
 30
0.0
 11
-246.3609313964844
 21
115.1358871459961
 31
0.0
  0
LINE
  5
C2
330
22
100
AcDbEntity
  8
0
  6
Continuous
 62
     7
100
AcDbLine
 10
-243.2859497070313
 20
117.1358871459961
 30
0.0
 11
-243.4609375
 21
115.1358871459961
 31
0.0
  0
LINE
  5
C3
330
22
100
AcDbEntity
  8
0
  6
Continuous
 62
     7
100
AcDbLine
 10
-241.2859497070313
 20
117.1358871459961
 30
0.0
 11
-243.2859497070313
 21
117.1358871459961
 31
0.0
  0
LINE
  5
C4
330
22
100
AcDbEntity
  8
0
  6
Continuous
 62
     7
100
AcDbLine
 10
-241.2859497070313
 20
119.1358871459961
 30
0.0
 11
-241.2859497070313
 21
117.1358871459961
 31
0.0
  0
LINE
  5
C5
330
22
100
AcDbEntity
  8
0
  6
Continuous
 62
     7
100
AcDbLine
 10
-246.3609313964844
 20
85.17996978759766
 30
0.0
 11
-239.2388916015625
 21
85.17996978759766
 31
0.0
  0
LINE
  5
C6
330
22
100
AcDbEntity
  8
0
  6
Continuous
 62
     7
100
AcDbLine
 10
-243.3359527587891
 20
117.1358871459961
 30
0.0
 11
-244.4733123779297
 21
104.1358871459961
 31
0.0
  0
LINE
  5
C7
330
22
100
AcDbEntity
  8
0
  6
Continuous
 62
     7
100
AcDbLine
 10
-241.1859588623047
 20
119.1358871459961
 30
0.0
 11
-241.1859588623047
 21
117.1358871459961
 31
0.0
  0
LINE
  5
C8
330
22
100
AcDbEntity
  8
0
  6
Continuous
 62
     7
100
AcDbLine
 10
-246.2388916015625
 20
85.17996978759766
 30
0.0
 11
-246.2388916015625
 21
81.17996978759766
 31
0.0
  0
LINE
  5
C9
330
22
100
AcDbEntity
  8
0
  6
Continuous
 62
     7
100
AcDbLine
 10
-240.2388916015625
 20
85.17996978759766
 30
0.0
 11
-240.2388916015625
 21
81.17996978759766
 31
0.0
  0
LINE
  5
CA
330
22
100
AcDbEntity
  8
0
  6
Continuous
 62
     7
100
AcDbLine
 10
-250.6996612548828
 20
105.1358871459961
 30
0.0
 11
-250.6996612548828
 21
97.13588714599609
 31
0.0
  0
LINE
  5
CB
330
22
100
AcDbEntity
  8
0
  6
Continuous
 62
     7
100
AcDbLine
 10
-246.3609313964844
 20
115.1358871459961
 30
0.0
 11
-246.3609313964844
 21
111.6358871459961
 31
0.0
  0
LINE
  5
CC
330
22
100
AcDbEntity
  8
0
  6
Continuous
 62
     7
100
AcDbLine
 10
-252.3859558105469
 20
119.1358871459961
 30
0.0
 11
-252.3859558105469
 21
115.1358871459961
 31
0.0
  0
LINE
  5
CD
330
22
100
AcDbEntity
  8
0
  6
Continuous
 62
     7
100
AcDbLine
 10
-244.1608428955078
 20
107.1358871459961
 30
0.0
 11
-244.3609313964844
 21
107.1358871459961
 31
0.0
  0
LINE
  5
CE
330
22
100
AcDbEntity
  8
0
  6
Continuous
 62
     7
100
AcDbLine
 10
-250.6996612548828
 20
115.1358871459961
 30
0.0
 11
-250.6996612548828
 21
97.00924682617188
 31
0.0
  0
LINE
  5
CF
330
22
100
AcDbEntity
  8
0
  6
Continuous
 62
     7
100
AcDbLine
 10
-243.7671356201172
 20
111.6358871459961
 30
0.0
 11
-244.1608428955078
 21
107.1358871459961
 31
0.0
  0
LINE
  5
D0
330
22
100
AcDbEntity
  8
0
  6
CENTER
 62
     7
100
AcDbLine
 10
-261.7859497070313
 20
127.4907608032227
 30
0.0
 11
-261.7859497070313
 21
55.16029357910156
 31
0.0
  0
LINE
  5
D1
330
22
100
AcDbEntity
  8
0
  6
Continuous
 62
     7
100
AcDbLine
 10
-311.2859497070313
 20
109.1358871459961
 30
0.0
 11
-261.7859497070313
 21
109.1358871459961
 31
0.0
  0
LINE
  5
D2
330
22
100
AcDbEntity
  8
0
  6
Continuous
 62
     7
100
AcDbLine
 10
-309.2859497070313
 20
65.1358871459961
 30
0.0
 11
-309.2859497070313
 21
107.1358871459961
 31
0.0
  0
LINE
  5
D3
330
22
100
AcDbEntity
  8
0
  6
Continuous
 62
     7
100
AcDbLine
 10
-312.7859497070313
 20
109.1358871459961
 30
0.0
 11
-311.2859497070313
 21
109.1358871459961
 31
0.0
  0
LINE
  5
D4
330
22
100
AcDbEntity
  8
0
  6
Continuous
 62
     7
100
AcDbLine
 10
-239.2388916015625
 20
85.17996978759766
 30
0.0
 11
-239.2388916015625
 21
81.17996978759766
 31
0.0
  0
LINE
  5
D5
330
22
100
AcDbEntity
  8
0
  6
Continuous
 62
     7
100
AcDbLine
 10
-228.9283905029297
 20
112.9358901977539
 30
0.0
 11
-229.6982879638672
 21
104.1358871459961
 31
0.0
  0
LINE
  5
D6
330
22
100
AcDbEntity
  8
0
  6
Continuous
 62
     7
100
AcDbLine
 10
-228.3859558105469
 20
119.1358871459961
 30
0.0
 11
-228.6484222412109
 21
116.1358871459961
 31
0.0
  0
LINE
  5
D7
330
22
100
AcDbEntity
  8
0
  6
Continuous
 62
     7
100
AcDbLine
 10
-231.2859497070313
 20
116.1358871459961
 30
0.0
 11
-228.6484222412109
 21
116.1358871459961
 31
0.0
  0
LINE
  5
D8
330
22
100
AcDbEntity
  8
0
  6
Continuous
 62
     7
100
AcDbLine
 10
-231.2859497070313
 20
112.9358901977539
 30
0.0
 11
-228.9283905029297
 21
112.9358901977539
 31
0.0
  0
LINE
  5
D9
330
22
100
AcDbEntity
  8
0
  6
Continuous
 62
     7
100
AcDbLine
 10
-231.2859497070313
 20
112.9358901977539
 30
0.0
 11
-231.2859497070313
 21
116.1358871459961
 31
0.0
  0
LINE
  5
DA
330
22
100
AcDbEntity
  8
0
  6
Continuous
 62
     7
100
AcDbLine
 10
-228.2859497070313
 20
119.1358871459961
 30
0.0
 11
-229.5982818603516
 21
104.1358871459961
 31
0.0
  0
LINE
  5
DB
330
22
100
AcDbEntity
  8
0
  6
Continuous
 62
     7
100
AcDbLine
 10
-229.5982818603516
 20
104.1358871459961
 30
0.0
 11
-246.3609313964844
 21
104.1358871459961
 31
0.0
  0
LINE
  5
DC
330
22
100
AcDbEntity
  8
0
  6
Continuous
 62
     7
100
AcDbLine
 10
-246.3609313964844
 20
105.1358871459961
 30
0.0
 11
-246.3609313964844
 21
84.1358871459961
 31
0.0
  0
LINE
  5
DD
330
22
100
AcDbEntity
  8
0
  6
Continuous
 62
     7
100
AcDbLine
 10
-246.3609313964844
 20
94.13588714599608
 30
0.0
 11
-225.0922546386719
 21
94.13588714599608
 31
0.0
  0
LINE
  5
DE
330
22
100
AcDbEntity
  8
0
  6
Continuous
 62
     7
100
AcDbLine
 10
-233.7859497070313
 20
94.13588714599608
 30
0.0
 11
-233.7859497070313
 21
104.1358871459961
 31
0.0
  0
LINE
  5
DF
330
22
100
AcDbEntity
  8
0
  6
Continuous
 62
     7
100
AcDbLine
 10
-225.735107421875
 20
66.68503570556641
 30
0.0
 11
-261.7859497070313
 21
66.68503570556641
 31
0.0
  0
LINE
  5
E0
330
22
100
AcDbEntity
  8
0
  6
Continuous
 62
     7
100
AcDbLine
 10
-261.7859497070313
 20
119.1358871459961
 30
0.0
 11
-241.2859497070313
 21
119.1358871459961
 31
0.0
  0
LINE
  5
E1
330
22
100
AcDbEntity
  8
0
  6
Continuous
 62
     7
100
AcDbLine
 10
-250.6996612548828
 20
115.1358871459961
 30
0.0
 11
-261.8859558105469
 21
115.1358871459961
 31
0.0
  0
LINE
  5
E2
330
22
100
AcDbEntity
  8
0
  6
Continuous
 62
     7
100
AcDbLine
 10
-239.2388916015625
 20
81.17996978759766
 30
0.0
 11
-261.7388916015625
 21
81.17996978759766
 31
0.0
  0
LINE
  5
E3
330
22
100
AcDbEntity
  8
0
  6
Continuous
 62
     7
100
AcDbLine
 10
-261.8859558105469
 20
97.13588714599609
 30
0.0
 11
-250.5960540771484
 21
97.13588714599609
 31
0.0
  0
LINE
  5
E4
330
22
100
AcDbEntity
  8
0
  6
Continuous
 62
     7
100
AcDbLine
 10
-256.8859558105469
 20
119.1358871459961
 30
0.0
 11
-256.8859558105469
 21
115.1358871459961
 31
0.0
  0
LINE
  5
E5
330
22
100
AcDbEntity
  8
0
  6
Continuous
 62
     7
100
AcDbLine
 10
-309.2859497070313
 20
65.1358871459961
 30
0.0
 11
-214.2859497070313
 21
65.1358871459961
 31
0.0
  0
LINE
  5
E6
330
22
100
AcDbEntity
  8
0
  6
Continuous
 62
     7
100
AcDbLine
 10
-312.7859497070313
 20
119.1358871459961
 30
0.0
 11
-210.7859497070313
 21
119.1358871459961
 31
0.0
  0
LINE
  5
E7
330
22
100
AcDbEntity
  8
0
  6
Continuous
 62
     7
100
AcDbLine
 10
-252.3859558105469
 20
118.3774642944336
 30
0.0
 11
-251.6275329589844
 21
119.1358871459961
 31
0.0
  0
LINE
  5
E8
330
22
100
AcDbEntity
  8
0
  6
Continuous
 62
     7
100
AcDbLine
 10
-252.3859558105469
 20
115.5490341186523
 30
0.0
 11
-248.7991027832031
 21
119.1358871459961
 31
0.0
  0
LINE
  5
E9
330
22
100
AcDbEntity
  8
0
  6
Continuous
 62
     7
100
AcDbLine
 10
-250.6996612548828
 20
114.4068984985352
 30
0.0
 11
-245.9706726074219
 21
119.1358871459961
 31
0.0
  0
LINE
  5
EA
330
22
100
AcDbEntity
  8
0
  6
Continuous
 62
     7
100
AcDbLine
 10
-250.6996612548828
 20
111.5784683227539
 30
0.0
 11
-243.1422424316406
 21
119.1358871459961
 31
0.0
  0
LINE
  5
EB
330
22
100
AcDbEntity
  8
0
  6
Continuous
 62
     7
100
AcDbLine
 10
-242.3138275146484
 20
117.1358871459961
 30
0.0
 11
-241.2859497070313
 21
118.1637496948242
 31
0.0
  0
LINE
  5
EC
330
22
100
AcDbEntity
  8
0
  6
Continuous
 62
     7
100
AcDbLine
 10
-244.3138122558594
 20
115.1358871459961
 30
0.0
 11
-243.4339599609375
 21
116.015754699707
 31
0.0
  0
LINE
  5
ED
330
22
100
AcDbEntity
  8
0
  6
Continuous
 62
     7
100
AcDbLine
 10
-250.6996612548828
 20
108.7500457763672
 30
0.0
 11
-246.3609313964844
 21
113.0887756347656
 31
0.0
  0
LINE
  5
EE
330
22
100
AcDbEntity
  8
0
  6
Continuous
 62
     7
100
AcDbLine
 10
-250.6996612548828
 20
105.9216156005859
 30
0.0
 11
-244.9853973388672
 21
111.6358871459961
 31
0.0
  0
LINE
  5
EF
330
22
100
AcDbEntity
  8
0
  6
Continuous
 62
     7
100
AcDbLine
 10
-261.7859497070313
 20
94.8353271484375
 30
0.0
 11
-259.4853820800781
 21
97.13588714599609
 31
0.0
  0
LINE
  5
F0
330
22
100
AcDbEntity
  8
0
  6
Continuous
 62
     7
100
AcDbLine
 10
-250.6996612548828
 20
103.0931930541992
 30
0.0
 11
-243.976318359375
 21
109.816535949707
 31
0.0
  0
LINE
  5
F1
330
22
100
AcDbEntity
  8
0
  6
Continuous
 62
     7
100
AcDbLine
 10
-261.7859497070313
 20
92.00689697265623
 30
0.0
 11
-256.6569519042969
 21
97.13588714599609
 31
0.0
  0
LINE
  5
F2
330
22
100
AcDbEntity
  8
0
  6
Continuous
 62
     7
100
AcDbLine
 10
-250.6996612548828
 20
100.264762878418
 30
0.0
 11
-246.3609313964844
 21
104.6034927368164
 31
0.0
  0
LINE
  5
F3
330
22
100
AcDbEntity
  8
0
  6
Continuous
 62
     7
100
AcDbLine
 10
-261.7859497070313
 20
89.17847442626953
 30
0.0
 11
-253.8285369873047
 21
97.13588714599609
 31
0.0
  0
LINE
  5
F4
330
22
100
AcDbEntity
  8
0
  6
Continuous
 62
     7
100
AcDbLine
 10
-250.6996612548828
 20
97.43633270263671
 30
0.0
 11
-246.3609313964844
 21
101.7750701904297
 31
0.0
  0
LINE
  5
F5
330
22
100
AcDbEntity
  8
0
  6
Continuous
 62
     7
100
AcDbLine
 10
-261.7859497070313
 20
86.35004425048828
 30
0.0
 11
-251.0001068115234
 21
97.13588714599609
 31
0.0
  0
LINE
  5
F6
330
22
100
AcDbEntity
  8
0
  6
Continuous
 62
     7
100
AcDbLine
 10
-261.7859497070313
 20
83.52161407470703
 30
0.0
 11
-246.3609313964844
 21
98.94664001464844
 31
0.0
  0
LINE
  5
F7
330
22
100
AcDbEntity
  8
0
  6
Continuous
 62
     7
100
AcDbLine
 10
-261.2991638183594
 20
81.17996978759766
 30
0.0
 11
-246.3609313964844
 21
96.11820983886721
 31
0.0
  0
LINE
  5
F8
330
22
100
AcDbEntity
  8
0
  6
Continuous
 62
     7
100
AcDbLine
 10
-258.4707336425781
 20
81.17996978759766
 30
0.0
 11
-246.3609313964844
 21
93.28978729248047
 31
0.0
  0
LINE
  5
F9
330
22
100
AcDbEntity
  8
0
  6
Continuous
 62
     7
100
AcDbLine
 10
-255.6423187255859
 20
81.17996978759766
 30
0.0
 11
-246.3609313964844
 21
90.46135711669922
 31
0.0
  0
LINE
  5
FA
330
22
100
AcDbEntity
  8
0
  6
Continuous
 62
     7
100
AcDbLine
 10
-252.8138885498047
 20
81.17996978759766
 30
0.0
 11
-246.3609313964844
 21
87.63293457031251
 31
0.0
  0
LINE
  5
FB
330
22
100
AcDbEntity
  8
0
  6
Continuous
 62
     7
100
AcDbLine
 10
-249.9854583740234
 20
81.17996978759766
 30
0.0
 11
-246.3609313964844
 21
84.80450439453125
 31
0.0
  0
LINE
  5
FC
330
22
100
AcDbEntity
  8
0
  6
Continuous
 62
     7
100
AcDbLine
 10
-247.1570434570313
 20
81.17996978759766
 30
0.0
 11
-246.2388916015625
 21
82.09811401367188
 31
0.0
  0
LINE
  5
FD
330
22
100
AcDbEntity
  8
0
  6
Continuous
 62
     7
100
AcDbLine
 10
-240.2388916015625
 20
82.44126129150391
 30
0.0
 11
-239.2388916015625
 21
83.4412612915039
 31
0.0
  0
LINE
  5
FE
330
22
100
AcDbEntity
  8
0
  6
Continuous
 62
     7
100
AcDbLine
 10
-259.9920959472656
 20
81.17996978759766
 30
0.0
 11
-261.7859497070313
 21
82.97383880615234
 31
0.0
  0
LINE
  5
FF
330
22
100
AcDbEntity
  8
0
  6
Continuous
 62
     7
100
AcDbLine
 10
-257.1636657714844
 20
81.17996978759766
 30
0.0
 11
-261.7859497070313
 21
85.80226135253907
 31
0.0
  0
LINE
  5
100
330
22
100
AcDbEntity
  8
0
  6
Continuous
 62
     7
100
AcDbLine
 10
-254.3352355957031
 20
81.17996978759766
 30
0.0
 11
-261.7859497070313
 21
88.6306915283203
 31
0.0
  0
LINE
  5
101
330
22
100
AcDbEntity
  8
0
  6
Continuous
 62
     7
100
AcDbLine
 10
-251.5068054199219
 20
81.17996978759766
 30
0.0
 11
-261.7859497070313
 21
91.45911407470704
 31
0.0
  0
LINE
  5
102
330
22
100
AcDbEntity
  8
0
  6
Continuous
 62
     7
100
AcDbLine
 10
-248.6783752441406
 20
81.17996978759766
 30
0.0
 11
-261.7859497070313
 21
94.28754425048827
 31
0.0
  0
LINE
  5
103
330
22
100
AcDbEntity
  8
0
  6
Continuous
 62
     7
100
AcDbLine
 10
-246.2388916015625
 20
81.56890869140625
 30
0.0
 11
-261.7859497070313
 21
97.11597442626953
 31
0.0
  0
LINE
  5
104
330
22
100
AcDbEntity
  8
0
  6
Continuous
 62
     7
100
AcDbLine
 10
-246.3609313964844
 20
84.51937866210938
 30
0.0
 11
-258.9774475097656
 21
97.13588714599609
 31
0.0
  0
LINE
  5
105
330
22
100
AcDbEntity
  8
0
  6
Continuous
 62
     7
100
AcDbLine
 10
-246.3609313964844
 20
87.3478012084961
 30
0.0
 11
-256.1490173339844
 21
97.13588714599609
 31
0.0
  0
LINE
  5
106
330
22
100
AcDbEntity
  8
0
  6
Continuous
 62
     7
100
AcDbLine
 10
-240.1930999755859
 20
81.17996978759766
 30
0.0
 11
-240.2388916015625
 21
81.22576904296876
 31
0.0
  0
LINE
  5
107
330
22
100
AcDbEntity
  8
0
  6
Continuous
 62
     7
100
AcDbLine
 10
-246.3609313964844
 20
90.17623138427735
 30
0.0
 11
-253.3205871582031
 21
97.13588714599609
 31
0.0
  0
LINE
  5
108
330
22
100
AcDbEntity
  8
0
  6
Continuous
 62
     7
100
AcDbLine
 10
-239.2388916015625
 20
83.05419158935547
 30
0.0
 11
-240.2388916015625
 21
84.05419158935547
 31
0.0
  0
LINE
  5
109
330
22
100
AcDbEntity
  8
0
  6
Continuous
 62
     7
100
AcDbLine
 10
-246.3609313964844
 20
93.00465393066406
 30
0.0
 11
-250.6996612548828
 21
97.34339141845705
 31
0.0
  0
LINE
  5
10A
330
22
100
AcDbEntity
  8
0
  6
Continuous
 62
     7
100
AcDbLine
 10
-246.3609313964844
 20
95.83308410644532
 30
0.0
 11
-250.6996612548828
 21
100.1718139648438
 31
0.0
  0
LINE
  5
10B
330
22
100
AcDbEntity
  8
0
  6
Continuous
 62
     7
100
AcDbLine
 10
-246.3609313964844
 20
98.66151428222657
 30
0.0
 11
-250.6996612548828
 21
103.000244140625
 31
0.0
  0
LINE
  5
10C
330
22
100
AcDbEntity
  8
0
  6
Continuous
 62
     7
100
AcDbLine
 10
-246.3609313964844
 20
101.4899368286133
 30
0.0
 11
-250.6996612548828
 21
105.8286666870117
 31
0.0
  0
LINE
  5
10D
330
22
100
AcDbEntity
  8
0
  6
Continuous
 62
     7
100
AcDbLine
 10
-246.3609313964844
 20
104.3183670043945
 30
0.0
 11
-250.6996612548828
 21
108.657096862793
 31
0.0
  0
LINE
  5
10E
330
22
100
AcDbEntity
  8
0
  6
Continuous
 62
     7
100
AcDbLine
 10
-245.7691497802734
 20
106.5550155639648
 30
0.0
 11
-250.6996612548828
 21
111.4855270385742
 31
0.0
  0
LINE
  5
10F
330
22
100
AcDbEntity
  8
0
  6
Continuous
 62
     7
100
AcDbLine
 10
-251.5216064453125
 20
115.1358871459961
 30
0.0
 11
-252.3859558105469
 21
116.000244140625
 31
0.0
  0
LINE
  5
110
330
22
100
AcDbEntity
  8
0
  6
Continuous
 62
     7
100
AcDbLine
 10
-244.1553955078125
 20
107.7696762084961
 30
0.0
 11
-250.6996612548828
 21
114.3139495849609
 31
0.0
  0
LINE
  5
111
330
22
100
AcDbEntity
  8
0
  6
Continuous
 62
     7
100
AcDbLine
 10
-246.3609313964844
 20
112.8036499023438
 30
0.0
 11
-252.3859558105469
 21
118.8286666870117
 31
0.0
  0
LINE
  5
112
330
22
100
AcDbEntity
  8
0
  6
Continuous
 62
     7
100
AcDbLine
 10
-243.9278411865234
 20
110.3705596923828
 30
0.0
 11
-245.1931762695313
 21
111.6358871459961
 31
0.0
  0
LINE
  5
113
330
22
100
AcDbEntity
  8
0
  6
Continuous
 62
     7
100
AcDbLine
 10
-245.86474609375
 20
115.1358871459961
 30
0.0
 11
-249.86474609375
 21
119.1358871459961
 31
0.0
  0
LINE
  5
114
330
22
100
AcDbEntity
  8
0
  6
Continuous
 62
     7
100
AcDbLine
 10
-243.4727478027344
 20
115.5723190307617
 30
0.0
 11
-247.0363159179688
 21
119.1358871459961
 31
0.0
  0
LINE
  5
115
330
22
100
AcDbEntity
  8
0
  6
Continuous
 62
     7
100
AcDbLine
 10
-242.2078857421875
 20
117.1358871459961
 30
0.0
 11
-244.2078857421875
 21
119.1358871459961
 31
0.0
  0
LINE
  5
116
330
22
100
AcDbEntity
  8
0
  6
Continuous
 62
     7
100
AcDbLine
 10
-241.2859497070313
 20
119.0423812866211
 30
0.0
 11
-241.3794708251953
 21
119.1358871459961
 31
0.0
  0
LINE
  5
117
330
22
100
AcDbEntity
  8
0
  6
Continuous
 62
     7
100
AcDbLine
 10
-312.7859497070313
 20
119.1358871459961
 30
0.0
 11
-312.7859497070313
 21
109.1358871459961
 31
0.0
  0
ARC
  5
118
330
22
100
AcDbEntity
  8
0
  6
Continuous
 62
     7
100
AcDbCircle
 10
-268.1912841796875
 20
219.3305511474609
 30
0.0
 40
3.200591087341308
100
AcDbArc
 50
111.911277688175
 51
251.6140284876378
  0
ARC
  5
119
330
22
100
AcDbEntity
  8
0
  6
Continuous
 62
     7
100
AcDbCircle
 10
-261.8859558105469
 20
219.1358947753906
 30
0.0
 40
18.5
100
AcDbArc
 50
90.00000000000019
 51
270.0000000000005
  0
ARC
  5
11A
330
22
100
AcDbEntity
  8
0
  6
Continuous
 62
     7
100
AcDbCircle
 10
-261.8859558105469
 20
219.1358947753906
 30
0.0
 40
5.0
100
AcDbArc
 50
90.00000000000019
 51
134.4418800561433
  0
CIRCLE
  5
11B
330
22
100
AcDbEntity
  8
0
  6
Continuous
 62
     7
100
AcDbCircle
 10
-261.7859497070313
 20
219.1358947753906
 30
0.0
 40
33.25
  0
CIRCLE
  5
11C
330
22
100
AcDbEntity
  8
0
  6
Continuous
 62
     7
100
AcDbCircle
 10
-261.7859497070313
 20
219.2354125976563
 30
0.0
 40
51.0
  0
CIRCLE
  5
11D
330
22
100
AcDbEntity
  8
0
  6
Continuous
 62
     7
100
AcDbCircle
 10
-261.7859497070313
 20
219.1358947753906
 30
0.0
 40
33.5
  0
ARC
  5
11E
330
22
100
AcDbEntity
  8
0
  6
Continuous
 62
     7
100
AcDbCircle
 10
-255.5806274414063
 20
219.3305511474609
 30
0.0
 40
3.200591087341308
100
AcDbArc
 50
273.4871004687429
 51
70.12702255630578
  0
ARC
  5
11F
330
22
100
AcDbEntity
  8
0
  6
Continuous
 62
     7
100
AcDbCircle
 10
-261.8859558105469
 20
219.1358947753906
 30
0.0
 40
5.0
100
AcDbArc
 50
216.8698976458447
 51
323.1301023541567
  0
ARC
  5
120
330
22
100
AcDbEntity
  8
0
  6
Continuous
 62
     7
100
AcDbCircle
 10
-261.8859558105469
 20
219.1358947753906
 30
0.0
 40
18.5
100
AcDbArc
 50
270.0000000000005
 51
90.00000000000019
  0
ARC
  5
121
330
22
100
AcDbEntity
  8
0
  6
Continuous
 62
     7
100
AcDbCircle
 10
-261.8859558105469
 20
219.1358947753906
 30
0.0
 40
5.0
100
AcDbArc
 50
41.4928617905997
 51
90.00000000000019
  0
CIRCLE
  5
122
330
22
100
AcDbEntity
  8
0
  6
Continuous
 62
     7
100
AcDbCircle
 10
-261.7859497070313
 20
219.2354125976563
 30
0.0
 40
19.0
  0
ARC
  5
123
330
22
100
AcDbEntity
  8
0
  6
Continuous
 62
     7
100
AcDbCircle
 10
-244.3609313964844
 20
105.1358871459961
 30
0.0
 40
2.0
100
AcDbArc
 50
90.00000000000019
 51
180.0000000000004
  0
ARC
  5
124
330
22
100
AcDbEntity
  8
0
  6
Continuous
 62
     7
100
AcDbCircle
 10
-212.2859497070313
 20
107.1358871459961
 30
0.0
 40
2.0
100
AcDbArc
 50
90.00000000000019
 51
180.0000000000004
  0
ARC
  5
125
330
22
100
AcDbEntity
  8
0
  6
Continuous
 62
     7
100
AcDbCircle
 10
-311.2859497070313
 20
107.1358871459961
 30
0.0
 40
2.0
100
AcDbArc
 50
0.0
 51
90.00000000000019
  0
LWPOLYLINE
  5
126
330
22
100
AcDbEntity
  8
0
  6
Continuous
 62
     7
100
AcDbPolyline
 90
       16
 70
     1
 43
0.0
 10
-245.0640411376953
 20
115.1358871459961
 42
0.0984914033571643
 10
-245.5603411763516
 20
115.0026763278908
 42
0.0984914033571643
 10
-245.9810840330935
 20
114.6233240130725
 42
0.0984914033571643
 10
-246.2622154220256
 20
114.055583152635
 42
0.0984914033571643
 10
-246.3609356376453
 20
113.3858871459961
 42
0.0984914033571643
 10
-246.2622154220256
 20
112.7161911393572
 42
0.0984914033571643
 10
-245.9810840330935
 20
112.1484502789196
 42
0.0984914033571643
 10
-245.5603411763516
 20
111.7690979641013
 42
0.0984914033571643
 10
-245.0640411376953
 20
111.6358871459961
 42
0.0984914033571643
 10
-244.567741099039
 20
111.7690979641014
 42
0.0984914033571643
 10
-244.1469982422971
 20
112.1484502789197
 42
0.0984914033571643
 10
-243.8658668533651
 20
112.7161911393572
 42
0.0984914033571643
 10
-243.7671466377453
 20
113.3858871459961
 42
0.0984914033571643
 10
-243.8658668533651
 20
114.055583152635
 42
0.0984914033571643
 10
-244.1469982422971
 20
114.6233240130726
 42
0.0984914033571643
 10
-244.5677410990391
 20
115.0026763278909
 42
0.0984914033571643
  0
LWPOLYLINE
  5
138
330
22
100
AcDbEntity
  8
0
  6
Continuous
 62
     7
100
AcDbPolyline
 90
       16
 70
     1
 43
0.0
 10
-229.9671936035157
 20
116.135888671875
 42
0.0984914033571643
 10
-230.4718638873411
 20
116.014095923893
 42
0.0984914033571643
 10
-230.8997026953017
 20
115.6672595217735
 42
0.0984914033571643
 10
-231.1855754472537
 20
115.1481821636591
 42
0.0984914033571643
 10
-231.2859606081556
 20
114.535888671875
 42
0.0984914033571643
 10
-231.1855754472537
 20
113.9235951800908
 42
0.0984914033571643
 10
-230.8997026953016
 20
113.4045178219765
 42
0.0984914033571643
 10
-230.4718638873411
 20
113.057681419857
 42
0.0984914033571643
 10
-229.9671936035156
 20
112.935888671875
 42
0.0984914033571643
 10
-229.4625233196902
 20
113.057681419857
 42
0.0984914033571643
 10
-229.0346845117296
 20
113.4045178219766
 42
0.0984914033571643
 10
-228.7488117597775
 20
113.9235951800909
 42
0.0984914033571643
 10
-228.6484265988756
 20
114.535888671875
 42
0.0984914033571643
 10
-228.7488117597775
 20
115.1481821636592
 42
0.0984914033571643
 10
-229.0346845117296
 20
115.6672595217735
 42
0.0984914033571643
 10
-229.4625233196902
 20
116.0140959238931
 42
0.0984914033571643
  0
TEXT
  5
14A
330
22
100
AcDbEntity
  8
0
  6
Continuous
 62
     7
100
AcDbText
 10
-382.4145441055298
 20
142.8418884277344
 30
0.0
 40
7.0
  1
ＤＬ－ＨＳＰ－６５Ｇ
 41
0.8443929888818491
100
AcDbText
  0
SOLID
  5
14B
330
22
100
AcDbEntity
  8
0
  6
Continuous
 62
     7
100
AcDbTrace
 10
-244.8110198974609
 20
115.1022644042969
 30
0.0
 11
-245.3170471191406
 21
115.1022644042969
 31
0.0
 12
-245.0640411376953
 22
115.1358871459961
 32
0.0
 13
-245.0640411376953
 23
115.1358871459961
 33
0.0
  0
SOLID
  5
14C
330
22
100
AcDbEntity
  8
0
  6
Continuous
 62
     7
100
AcDbTrace
 10
-245.0640411376953
 20
111.6358871459961
 30
0.0
 11
-245.3170471191406
 21
111.6695098876953
 31
0.0
 12
-244.8110198974609
 22
111.6695098876953
 32
0.0
 13
-244.8110198974609
 23
111.6695098876953
 33
0.0
  0
SOLID
  5
14D
330
22
100
AcDbEntity
  8
0
  6
Continuous
 62
     7
100
AcDbTrace
 10
-244.5677337646484
 20
115.0026779174805
 30
0.0
 11
-245.5603332519531
 21
115.0026779174805
 31
0.0
 12
-244.8110198974609
 22
115.1022644042969
 32
0.0
 13
-245.3170471191406
 23
115.1022644042969
 33
0.0
  0
SOLID
  5
14E
330
22
100
AcDbEntity
  8
0
  6
Continuous
 62
     7
100
AcDbTrace
 10
-244.3435211181641
 20
114.8409576416016
 30
0.0
 11
-245.7845458984375
 21
114.8409576416016
 31
0.0
 12
-244.5677337646484
 22
115.0026779174805
 32
0.0
 13
-245.5603332519531
 23
115.0026779174805
 33
0.0
  0
SOLID
  5
14F
330
22
100
AcDbEntity
  8
0
  6
Continuous
 62
     7
100
AcDbTrace
 10
-244.1469879150391
 20
114.6233215332031
 30
0.0
 11
-245.9810791015625
 21
114.6233215332031
 31
0.0
 12
-244.3435211181641
 22
114.8409576416016
 32
0.0
 13
-245.7845458984375
 23
114.8409576416016
 33
0.0
  0
SOLID
  5
150
330
22
100
AcDbEntity
  8
0
  6
Continuous
 62
     7
100
AcDbTrace
 10
-243.9857025146484
 20
114.3581390380859
 30
0.0
 11
-246.1423645019531
 21
114.3581390380859
 31
0.0
 12
-244.1469879150391
 22
114.6233215332031
 32
0.0
 13
-245.9810791015625
 23
114.6233215332031
 33
0.0
  0
SOLID
  5
151
330
22
100
AcDbEntity
  8
0
  6
Continuous
 62
     7
100
AcDbTrace
 10
-243.8658599853516
 20
114.0555801391602
 30
0.0
 11
-246.26220703125
 21
114.0555801391602
 31
0.0
 12
-243.9857025146484
 22
114.3581390380859
 32
0.0
 13
-246.1423645019531
 23
114.3581390380859
 33
0.0
  0
SOLID
  5
152
330
22
100
AcDbEntity
  8
0
  6
Continuous
 62
     7
100
AcDbTrace
 10
-243.7920684814453
 20
113.727294921875
 30
0.0
 11
-246.3360137939453
 21
113.727294921875
 31
0.0
 12
-243.8658599853516
 22
114.0555801391602
 32
0.0
 13
-246.26220703125
 23
114.0555801391602
 33
0.0
  0
SOLID
  5
153
330
22
100
AcDbEntity
  8
0
  6
Continuous
 62
     7
100
AcDbTrace
 10
-243.7671356201172
 20
113.3858871459961
 30
0.0
 11
-246.3609313964844
 21
113.3858871459961
 31
0.0
 12
-243.7920684814453
 22
113.727294921875
 32
0.0
 13
-246.3360137939453
 23
113.727294921875
 33
0.0
  0
SOLID
  5
154
330
22
100
AcDbEntity
  8
0
  6
Continuous
 62
     7
100
AcDbTrace
 10
-243.7920684814453
 20
113.0444793701172
 30
0.0
 11
-246.3360137939453
 21
113.0444793701172
 31
0.0
 12
-243.7671356201172
 22
113.3858871459961
 32
0.0
 13
-246.3609313964844
 23
113.3858871459961
 33
0.0
  0
SOLID
  5
155
330
22
100
AcDbEntity
  8
0
  6
Continuous
 62
     7
100
AcDbTrace
 10
-243.8658599853516
 20
112.716194152832
 30
0.0
 11
-246.26220703125
 21
112.716194152832
 31
0.0
 12
-243.7920684814453
 22
113.0444793701172
 32
0.0
 13
-246.3360137939453
 23
113.0444793701172
 33
0.0
  0
SOLID
  5
156
330
22
100
AcDbEntity
  8
0
  6
Continuous
 62
     7
100
AcDbTrace
 10
-243.9857025146484
 20
112.4136428833008
 30
0.0
 11
-246.1423645019531
 21
112.4136428833008
 31
0.0
 12
-243.8658599853516
 22
112.716194152832
 32
0.0
 13
-246.26220703125
 23
112.716194152832
 33
0.0
  0
SOLID
  5
157
330
22
100
AcDbEntity
  8
0
  6
Continuous
 62
     7
100
AcDbTrace
 10
-244.1469879150391
 20
112.1484527587891
 30
0.0
 11
-245.9810791015625
 21
112.1484527587891
 31
0.0
 12
-243.9857025146484
 22
112.4136428833008
 32
0.0
 13
-246.1423645019531
 23
112.4136428833008
 33
0.0
  0
SOLID
  5
158
330
22
100
AcDbEntity
  8
0
  6
Continuous
 62
     7
100
AcDbTrace
 10
-244.3435211181641
 20
111.9308166503905
 30
0.0
 11
-245.7845458984375
 21
111.9308166503905
 31
0.0
 12
-244.1469879150391
 22
112.1484527587891
 32
0.0
 13
-245.9810791015625
 23
112.1484527587891
 33
0.0
  0
SOLID
  5
159
330
22
100
AcDbEntity
  8
0
  6
Continuous
 62
     7
100
AcDbTrace
 10
-244.5677337646484
 20
111.7690963745117
 30
0.0
 11
-245.5603332519531
 21
111.7690963745117
 31
0.0
 12
-244.3435211181641
 22
111.9308166503905
 32
0.0
 13
-245.7845458984375
 23
111.9308166503905
 33
0.0
  0
SOLID
  5
15A
330
22
100
AcDbEntity
  8
0
  6
Continuous
 62
     7
100
AcDbTrace
 10
-244.8110198974609
 20
111.6695098876953
 30
0.0
 11
-245.3170471191406
 21
111.6695098876953
 31
0.0
 12
-244.5677337646484
 22
111.7690963745117
 32
0.0
 13
-245.5603332519531
 23
111.7690963745117
 33
0.0
  0
SOLID
  5
15B
330
22
100
AcDbEntity
  8
0
  6
Continuous
 62
     7
100
AcDbTrace
 10
-229.6737365722656
 20
116.0957717895508
 30
0.0
 11
-230.2606353759766
 21
116.0957717895508
 31
0.0
 12
-229.9671936035156
 22
116.1358871459961
 32
0.0
 13
-229.9671936035156
 23
116.1358871459961
 33
0.0
  0
SOLID
  5
15C
330
22
100
AcDbEntity
  8
0
  6
Continuous
 62
     7
100
AcDbTrace
 10
-229.9671936035156
 20
112.9358901977539
 30
0.0
 11
-230.2606353759766
 21
112.9760055541992
 31
0.0
 12
-229.6737365722656
 22
112.9760055541992
 32
0.0
 13
-229.6737365722656
 23
112.9760055541992
 33
0.0
  0
SOLID
  5
15D
330
22
100
AcDbEntity
  8
0
  6
Continuous
 62
     7
100
AcDbTrace
 10
-229.3949890136719
 20
115.9774398803711
 30
0.0
 11
-230.5393829345703
 21
115.9774398803711
 31
0.0
 12
-229.6737365722656
 22
116.0957717895508
 32
0.0
 13
-230.2606353759766
 23
116.0957717895508
 33
0.0
  0
SOLID
  5
15E
330
22
100
AcDbEntity
  8
0
  6
Continuous
 62
     7
100
AcDbTrace
 10
-229.1449432373047
 20
115.7868194580078
 30
0.0
 11
-230.7894287109375
 21
115.7868194580078
 31
0.0
 12
-229.3949890136719
 22
115.9774398803711
 32
0.0
 13
-230.5393829345703
 23
115.9774398803711
 33
0.0
  0
SOLID
  5
15F
330
22
100
AcDbEntity
  8
0
  6
Continuous
 62
     7
100
AcDbTrace
 10
-228.9361267089844
 20
115.5334701538086
 30
0.0
 11
-230.9982452392578
 21
115.5334701538086
 31
0.0
 12
-229.1449432373047
 22
115.7868194580078
 32
0.0
 13
-230.7894287109375
 23
115.7868194580078
 33
0.0
  0
SOLID
  5
160
330
22
100
AcDbEntity
  8
0
  6
Continuous
 62
     7
100
AcDbTrace
 10
-228.7790222167969
 20
115.2301025390625
 30
0.0
 11
-231.1553497314453
 21
115.2301025390625
 31
0.0
 12
-228.9361267089844
 22
115.5334701538086
 32
0.0
 13
-230.9982452392578
 23
115.5334701538086
 33
0.0
  0
SOLID
  5
161
330
22
100
AcDbEntity
  8
0
  6
Continuous
 62
     7
100
AcDbTrace
 10
-228.6814880371094
 20
114.8919219970703
 30
0.0
 11
-231.2528839111328
 21
114.8919219970703
 31
0.0
 12
-228.7790222167969
 22
115.2301025390625
 32
0.0
 13
-231.1553497314453
 23
115.2301025390625
 33
0.0
  0
SOLID
  5
162
330
22
100
AcDbEntity
  8
0
  6
Continuous
 62
     7
100
AcDbTrace
 10
-228.6484222412109
 20
114.535888671875
 30
0.0
 11
-231.2859497070313
 21
114.535888671875
 31
0.0
 12
-228.6814880371094
 22
114.8919219970703
 32
0.0
 13
-231.2528839111328
 23
114.8919219970703
 33
0.0
  0
SOLID
  5
163
330
22
100
AcDbEntity
  8
0
  6
Continuous
 62
     7
100
AcDbTrace
 10
-228.6814880371094
 20
114.1798553466797
 30
0.0
 11
-231.2528839111328
 21
114.1798553466797
 31
0.0
 12
-228.6484222412109
 22
114.535888671875
 32
0.0
 13
-231.2859497070313
 23
114.535888671875
 33
0.0
  0
SOLID
  5
164
330
22
100
AcDbEntity
  8
0
  6
Continuous
 62
     7
100
AcDbTrace
 10
-228.7790222167969
 20
113.8416748046875
 30
0.0
 11
-231.1553497314453
 21
113.8416748046875
 31
0.0
 12
-228.6814880371094
 22
114.1798553466797
 32
0.0
 13
-231.2528839111328
 23
114.1798553466797
 33
0.0
  0
SOLID
  5
165
330
22
100
AcDbEntity
  8
0
  6
Continuous
 62
     7
100
AcDbTrace
 10
-228.9361267089844
 20
113.5383071899414
 30
0.0
 11
-230.9982452392578
 21
113.5383071899414
 31
0.0
 12
-228.7790222167969
 22
113.8416748046875
 32
0.0
 13
-231.1553497314453
 23
113.8416748046875
 33
0.0
  0
SOLID
  5
166
330
22
100
AcDbEntity
  8
0
  6
Continuous
 62
     7
100
AcDbTrace
 10
-229.1449432373047
 20
113.2849578857422
 30
0.0
 11
-230.7894287109375
 21
113.2849578857422
 31
0.0
 12
-228.9361267089844
 22
113.5383071899414
 32
0.0
 13
-230.9982452392578
 23
113.5383071899414
 33
0.0
  0
SOLID
  5
167
330
22
100
AcDbEntity
  8
0
  6
Continuous
 62
     7
100
AcDbTrace
 10
-229.3949890136719
 20
113.0943374633789
 30
0.0
 11
-230.5393829345703
 21
113.0943374633789
 31
0.0
 12
-229.1449432373047
 22
113.2849578857422
 32
0.0
 13
-230.7894287109375
 23
113.2849578857422
 33
0.0
  0
SOLID
  5
168
330
22
100
AcDbEntity
  8
0
  6
Continuous
 62
     7
100
AcDbTrace
 10
-229.6737365722656
 20
112.9760055541992
 30
0.0
 11
-230.2606353759766
 21
112.9760055541992
 31
0.0
 12
-229.3949890136719
 22
113.0943374633789
 32
0.0
 13
-230.5393829345703
 23
113.0943374633789
 33
0.0
  0
DIMENSION
  5
169
330
22
100
AcDbEntity
  8
0
  6
Continuous
 62
     7
100
AcDbDimension
  2
*D1
 10
-303.1315596546725
 20
189.3767365041401
 30
0.0
 11
-212.9864044189453
 21
254.4771270751953
 31
0.0
 70
     3
 71
     5
 42
-1.0
  3
DIMSTYLE1
100
AcDbDiametricDimension
 15
-220.44033975939
 25
249.0940886911724
 35
0.0
 40
0.0
  0
DIMENSION
  5
16A
330
22
100
AcDbEntity
  8
0
  6
Continuous
 62
     7
100
AcDbDimension
  2
*D2
 10
-294.3401216794702
 20
211.2317258001682
 30
0.0
 11
-202.3258819580078
 21
233.5728302001953
 31
0.0
 70
     3
 71
     5
 42
-1.0
  3
DIMSTYLE2
100
AcDbDiametricDimension
 15
-229.2317777345923
 25
227.0400637506131
 35
0.0
 40
0.0
  0
DIMENSION
  5
16B
330
22
100
AcDbEntity
  8
0
  6
Continuous
 62
     7
100
AcDbDimension
  2
*D3
 10
-278.6560776030742
 20
227.9760524352857
 30
0.0
 11
-204.8207244873047
 21
189.7209625244141
 31
0.0
 70
     3
 71
     5
 42
-1.0
  3
DIMSTYLE3
100
AcDbDiametricDimension
 15
-244.9158218109884
 25
210.4947727600268
 35
0.0
 40
0.0
  0
DIMENSION
  5
16C
330
22
100
AcDbEntity
  8
0
  6
Continuous
 62
     7
100
AcDbDimension
  2
*D4
 10
-345.4900207519531
 20
65.1358871459961
 30
0.0
 11
-345.4900207519531
 21
92.13588714599607
 31
0.0
 71
     5
 42
-1.0
  3
DIMSTYLE4
100
AcDbAlignedDimension
 13
-312.7859497070313
 23
119.1358871459961
 33
0.0
 14
-309.2859497070313
 24
65.1358871459961
 34
0.0
 50
90.0
100
AcDbRotatedDimension
  0
INSERT
  5
16D
330
22
100
AcDbEntity
  8
0
  6
Continuous
 62
     7
100
AcDbBlockReference
  2
KOZU0001
 10
-226.06005859375
 20
77.08327484130859
 30
0.0
  0
ENDSEC
  0
SECTION
  2
OBJECTS
  0
DICTIONARY
  5
C
330
0
100
AcDbDictionary
281
     1
  3
ACAD_COLOR
350
1B
  3
ACAD_GROUP
350
D
  3
ACAD_LAYOUT
350
19
  3
ACAD_MATERIAL
350
1A
  3
ACAD_MLINESTYLE
350
16
  3
ACAD_PLOTSETTINGS
350
18
  3
ACAD_PLOTSTYLENAME
350
E
  3
ACAD_TABLESTYLE
350
1C
  3
AcDbVariableDictionary
350
179
  0
DICTIONARY
  5
1B
102
{ACAD_REACTORS
330
C
102
}
330
C
100
AcDbDictionary
281
     1
  0
DICTIONARY
  5
D
102
{ACAD_REACTORS
330
C
102
}
330
C
100
AcDbDictionary
281
     1
  0
DICTIONARY
  5
19
102
{ACAD_REACTORS
330
C
102
}
330
C
100
AcDbDictionary
281
     1
  3
Model
350
25
  3
レイアウト1
350
21
  0
DICTIONARY
  5
1A
102
{ACAD_REACTORS
330
C
102
}
330
C
100
AcDbDictionary
281
     1
  0
DICTIONARY
  5
16
102
{ACAD_REACTORS
330
C
102
}
330
C
100
AcDbDictionary
281
     1
  3
Standard
350
17
  0
DICTIONARY
  5
18
102
{ACAD_REACTORS
330
C
102
}
330
C
100
AcDbDictionary
281
     1
  0
ACDBDICTIONARYWDFLT
  5
E
102
{ACAD_REACTORS
330
C
102
}
330
C
100
AcDbDictionary
281
     1
  3
Normal
350
F
100
AcDbDictionaryWithDefault
340
F
  0
DICTIONARY
  5
1C
102
{ACAD_REACTORS
330
C
102
}
330
C
100
AcDbDictionary
281
     1
  3
Standard
350
1D
  0
DICTIONARY
  5
179
102
{ACAD_REACTORS
330
C
102
}
330
C
100
AcDbDictionary
281
     1
  3
CTABLESTYLE
350
17A
  0
LAYOUT
  5
25
102
{ACAD_REACTORS
330
19
102
}
330
19
100
AcDbPlotSettings
  1

  2
PDF reDirect v2
  4
A3
  6

 40
3.174999952316284
 41
3.174999952316284
 42
3.17498779296875
 43
3.17498779296875
 44
297.0530090332031
 45
420.1583251953125
 46
0.0
 47
0.0
 48
0.0
 49
0.0
140
0.0
141
0.0
142
1.0
143
1.0
 70
 11952
 72
     1
 73
     1
 74
     2
  7
C:\Users\ck\AppData\Roaming\Autodesk\AutoCAD 2005\R16.1\jpn\Plot Styles\black.ctb
 75
    16
147
1.0
 76
     0
 77
     2
 78
   300
148
423.0
149
2.0
100
AcDbLayout
  1
Model
 70
     1
 71
     0
 10
0.0
 20
0.0
 11
12.0
 21
9.0
 12
0.0
 22
0.0
 32
0.0
 14
0.0
 24
0.0
 34
0.0
 15
0.0
 25
0.0
 35
0.0
146
0.0
 13
0.0
 23
0.0
 33
0.0
 16
1.0
 26
0.0
 36
0.0
 17
0.0
 27
1.0
 37
0.0
 76
     0
330
22
1001
ACAD_PSEXT
1000
PDF reDirect v2
1000
PDF reDirect Pro
1000
PDF_REDIRECT_PORT:
1000
PDF reDirect provided by EXP Systems
1070
     0
  0
LAYOUT
  5
21
102
{ACAD_REACTORS
330
19
102
}
330
19
100
AcDbPlotSettings
  1

  2
PDF reDirect v2
  4

  6

 40
0.0
 41
0.0
 42
0.0
 43
0.0
 44
0.0
 45
0.0
 46
0.0
 47
0.0
 48
0.0
 49
0.0
140
0.0
141
0.0
142
1.0
143
1.0
 70
   688
 72
     0
 73
     0
 74
     5
  7
C:\Users\ck\AppData\Roaming\Autodesk\AutoCAD 2005\R16.1\jpn\Plot Styles\black.ctb
 75
    16
147
1.0
 76
     0
 77
     2
 78
   300
148
0.0
149
0.0
100
AcDbLayout
  1
レイアウト1
 70
     1
 71
     1
 10
-423.0
 20
-2.0
 11
-5.0
 21
293.0
 12
0.0
 22
0.0
 32
0.0
 14
1.000000000000000E+20
 24
1.000000000000000E+20
 34
1.000000000000000E+20
 15
-1.000000000000000E+20
 25
-1.000000000000000E+20
 35
-1.000000000000000E+20
146
0.0
 13
0.0
 23
0.0
 33
0.0
 16
1.0
 26
0.0
 36
0.0
 17
0.0
 27
1.0
 37
0.0
 76
     0
330
1E
  0
MLINESTYLE
  5
17
102
{ACAD_REACTORS
330
16
102
}
330
16
100
AcDbMlineStyle
  2
STANDARD
 70
     0
  3

 62
   256
 51
90.0
 52
90.0
 71
     2
 49
0.5
 62
   256
  6
BYLAYER
 49
-0.5
 62
   256
  6
BYLAYER
  0
ACDBPLACEHOLDER
  5
F
102
{ACAD_REACTORS
330
E
102
}
330
E
  0
TABLESTYLE
  5
1D
102
{ACAD_REACTORS
330
1C
102
}
330
1C
100
AcDbTableStyle
  3
Standard
 70
     0
 71
     0
 40
0.06
 41
0.06
280
     0
281
     0
  7
STANDARD
140
0.18
170
     2
 62
     0
 63
     7
283
     0
274
    -2
284
     1
 64
     0
275
    -2
285
     1
 65
     0
276
    -2
286
     1
 66
     0
277
    -2
287
     1
 67
     0
278
    -2
288
     1
 68
     0
279
    -2
289
     1
 69
     0
  7
STANDARD
140
0.25
170
     5
 62
     0
 63
     7
283
     0
274
    -2
284
     1
 64
     0
275
    -2
285
     1
 65
     0
276
    -2
286
     1
 66
     0
277
    -2
287
     1
 67
     0
278
    -2
288
     1
 68
     0
279
    -2
289
     1
 69
     0
  7
STANDARD
140
0.18
170
     5
 62
     0
 63
     7
283
     0
274
    -2
284
     1
 64
     0
275
    -2
285
     1
 65
     0
276
    -2
286
     1
 66
     0
277
    -2
287
     1
 67
     0
278
    -2
288
     1
 68
     0
279
    -2
289
     1
 69
     0
  0
DICTIONARYVAR
  5
17A
102
{ACAD_REACTORS
330
179
102
}
330
179
100
DictionaryVariables
280
     0
  1
STANDARD
  0
ENDSEC
  0
EOF
