  0
SECTION
  2
HEADER
  9
$ACADVER
  1
AC1018
  9
$ACADMAINTVER
 70
    39
  9
$DWGCODEPAGE
  3
ANSI_932
  9
$INSBASE
 10
0.0
 20
0.0
 30
0.0
  9
$EXTMIN
 10
-342.4245289622626
 20
48.60859754752437
 30
-0.0015258207003583
  9
$EXTMAX
 10
-164.951842474695
 20
270.9749304707801
 30
0.0000000349246037
  9
$LIMMIN
 10
-423.0
 20
-2.0
  9
$LIMMAX
 10
-5.0
 20
293.0
  9
$ORTHOMODE
 70
     0
  9
$REGENMODE
 70
     1
  9
$FILLMODE
 70
     1
  9
$QTEXTMODE
 70
     0
  9
$MIRRTEXT
 70
     0
  9
$LTSCALE
 40
1.0
  9
$ATTMODE
 70
     1
  9
$TEXTSIZE
 40
0.2
  9
$TRACEWID
 40
0.05
  9
$TEXTSTYLE
  7
STANDARD
  9
$CLAYER
  8
0
  9
$CELTYPE
  6
CONTINUOUS
  9
$CECOLOR
 62
   256
  9
$CELTSCALE
 40
1.0
  9
$DISPSILH
 70
     0
  9
$DIMSCALE
 40
1.0
  9
$DIMASZ
 40
1.0
  9
$DIMEXO
 40
2.54
  9
$DIMDLI
 40
0.38
  9
$DIMRND
 40
0.0
  9
$DIMDLE
 40
0.0
  9
$DIMEXE
 40
2.54
  9
$DIMTP
 40
0.0
  9
$DIMTM
 40
0.0
  9
$DIMTXT
 40
3.0
  9
$DIMCEN
 40
0.09
  9
$DIMTSZ
 40
0.0
  9
$DIMTOL
 70
     0
  9
$DIMLIM
 70
     0
  9
$DIMTIH
 70
     0
  9
$DIMTOH
 70
     0
  9
$DIMSE1
 70
     0
  9
$DIMSE2
 70
     0
  9
$DIMTAD
 70
     1
  9
$DIMZIN
 70
     0
  9
$DIMBLK
  1

  9
$DIMASO
 70
     1
  9
$DIMSHO
 70
     0
  9
$DIMPOST
  1

  9
$DIMAPOST
  1

  9
$DIMALT
 70
     0
  9
$DIMALTD
 70
     2
  9
$DIMALTF
 40
25.4
  9
$DIMLFAC
 40
1.0
  9
$DIMTOFL
 70
     0
  9
$DIMTVP
 40
1.0
  9
$DIMTIX
 70
     0
  9
$DIMSOXD
 70
     0
  9
$DIMSAH
 70
     1
  9
$DIMBLK1
  1

  9
$DIMBLK2
  1

  9
$DIMSTYLE
  2
DIMSTYLE1
  9
$DIMCLRD
 70
     0
  9
$DIMCLRE
 70
     0
  9
$DIMCLRT
 70
     0
  9
$DIMTFAC
 40
1.0
  9
$DIMGAP
 40
1.5
  9
$DIMJUST
 70
     0
  9
$DIMSD1
 70
     0
  9
$DIMSD2
 70
     0
  9
$DIMTOLJ
 70
     1
  9
$DIMTZIN
 70
     0
  9
$DIMALTZ
 70
     0
  9
$DIMALTTZ
 70
     0
  9
$DIMUPT
 70
     0
  9
$DIMDEC
 70
     4
  9
$DIMTDEC
 70
     4
  9
$DIMALTU
 70
     2
  9
$DIMALTTD
 70
     2
  9
$DIMTXSTY
  7
STANDARD
  9
$DIMAUNIT
 70
     0
  9
$DIMADEC
 70
     0
  9
$DIMALTRND
 40
0.0
  9
$DIMAZIN
 70
     0
  9
$DIMDSEP
 70
    46
  9
$DIMATFIT
 70
     3
  9
$DIMFRAC
 70
     0
  9
$DIMLDRBLK
  1

  9
$DIMLUNIT
 70
     2
  9
$DIMLWD
 70
    -2
  9
$DIMLWE
 70
    -2
  9
$DIMTMOVE
 70
     0
  9
$LUNITS
 70
     2
  9
$LUPREC
 70
     4
  9
$SKETCHINC
 40
0.1
  9
$FILLETRAD
 40
0.0
  9
$AUNITS
 70
     0
  9
$AUPREC
 70
     0
  9
$MENU
  1
.
  9
$ELEVATION
 40
0.0
  9
$PELEVATION
 40
0.0
  9
$THICKNESS
 40
0.0
  9
$LIMCHECK
 70
     0
  9
$CHAMFERA
 40
0.0
  9
$CHAMFERB
 40
0.0
  9
$CHAMFERC
 40
0.0
  9
$CHAMFERD
 40
0.0
  9
$SKPOLY
 70
     0
  9
$TDCREATE
 40
2457843.765444445
  9
$TDUCREATE
 40
2457843.390444445
  9
$TDUPDATE
 40
2457843.765937269
  9
$TDUUPDATE
 40
2457843.390937269
  9
$TDINDWG
 40
0.0004942130
  9
$TDUSRTIMER
 40
0.0004942130
  9
$USRTIMER
 70
     1
  9
$ANGBASE
 50
0.0
  9
$ANGDIR
 70
     0
  9
$PDMODE
 70
     0
  9
$PDSIZE
 40
0.0
  9
$PLINEWID
 40
0.0
  9
$SPLFRAME
 70
     0
  9
$SPLINETYPE
 70
     6
  9
$SPLINESEGS
 70
     8
  9
$HANDSEED
  5
132
  9
$SURFTAB1
 70
     6
  9
$SURFTAB2
 70
     6
  9
$SURFTYPE
 70
     6
  9
$SURFU
 70
     6
  9
$SURFV
 70
     6
  9
$UCSBASE
  2

  9
$UCSNAME
  2

  9
$UCSORG
 10
0.0
 20
0.0
 30
0.0
  9
$UCSXDIR
 10
1.0
 20
0.0
 30
0.0
  9
$UCSYDIR
 10
0.0
 20
1.0
 30
0.0
  9
$UCSORTHOREF
  2

  9
$UCSORTHOVIEW
 70
     0
  9
$UCSORGTOP
 10
0.0
 20
0.0
 30
0.0
  9
$UCSORGBOTTOM
 10
0.0
 20
0.0
 30
0.0
  9
$UCSORGLEFT
 10
0.0
 20
0.0
 30
0.0
  9
$UCSORGRIGHT
 10
0.0
 20
0.0
 30
0.0
  9
$UCSORGFRONT
 10
0.0
 20
0.0
 30
0.0
  9
$UCSORGBACK
 10
0.0
 20
0.0
 30
0.0
  9
$PUCSBASE
  2

  9
$PUCSNAME
  2

  9
$PUCSORG
 10
0.0
 20
0.0
 30
0.0
  9
$PUCSXDIR
 10
1.0
 20
0.0
 30
0.0
  9
$PUCSYDIR
 10
0.0
 20
1.0
 30
0.0
  9
$PUCSORTHOREF
  2

  9
$PUCSORTHOVIEW
 70
     0
  9
$PUCSORGTOP
 10
0.0
 20
0.0
 30
0.0
  9
$PUCSORGBOTTOM
 10
0.0
 20
0.0
 30
0.0
  9
$PUCSORGLEFT
 10
0.0
 20
0.0
 30
0.0
  9
$PUCSORGRIGHT
 10
0.0
 20
0.0
 30
0.0
  9
$PUCSORGFRONT
 10
0.0
 20
0.0
 30
0.0
  9
$PUCSORGBACK
 10
0.0
 20
0.0
 30
0.0
  9
$USERI1
 70
     0
  9
$USERI2
 70
     0
  9
$USERI3
 70
     0
  9
$USERI4
 70
     0
  9
$USERI5
 70
     0
  9
$USERR1
 40
0.0
  9
$USERR2
 40
0.0
  9
$USERR3
 40
0.0
  9
$USERR4
 40
0.0
  9
$USERR5
 40
0.0
  9
$WORLDVIEW
 70
     1
  9
$SHADEDGE
 70
     3
  9
$SHADEDIF
 70
    70
  9
$TILEMODE
 70
     1
  9
$MAXACTVP
 70
    64
  9
$PINSBASE
 10
0.0
 20
0.0
 30
0.0
  9
$PLIMCHECK
 70
     0
  9
$PEXTMIN
 10
1.000000000000000E+20
 20
1.000000000000000E+20
 30
1.000000000000000E+20
  9
$PEXTMAX
 10
-1.000000000000000E+20
 20
-1.000000000000000E+20
 30
-1.000000000000000E+20
  9
$PLIMMIN
 10
-423.0
 20
-2.0
  9
$PLIMMAX
 10
-5.0
 20
293.0
  9
$UNITMODE
 70
     0
  9
$VISRETAIN
 70
     1
  9
$PLINEGEN
 70
     0
  9
$PSLTSCALE
 70
     1
  9
$TREEDEPTH
 70
  3020
  9
$CMLSTYLE
  2
Standard
  9
$CMLJUST
 70
     0
  9
$CMLSCALE
 40
1.0
  9
$PROXYGRAPHICS
 70
     1
  9
$MEASUREMENT
 70
     0
  9
$CELWEIGHT
370
    -1
  9
$ENDCAPS
280
     0
  9
$JOINSTYLE
280
     0
  9
$LWDISPLAY
290
     0
  9
$INSUNITS
 70
     0
  9
$HYPERLINKBASE
  1

  9
$STYLESHEET
  1

  9
$XEDIT
290
     1
  9
$CEPSNTYPE
380
     0
  9
$PSTYLEMODE
290
     1
  9
$FINGERPRINTGUID
  2
{D2D2A64B-58A3-4402-AFE5-6BAFAC32DF38}
  9
$VERSIONGUID
  2
{7DE5A545-176B-4B65-BB7B-22D891F32196}
  9
$EXTNAMES
290
     1
  9
$PSVPSCALE
 40
0.0
  9
$OLESTARTUP
290
     0
  9
$SORTENTS
280
   127
  9
$INDEXCTL
280
     0
  9
$HIDETEXT
280
     0
  9
$XCLIPFRAME
290
     0
  9
$HALOGAP
280
     0
  9
$OBSCOLOR
 70
   257
  9
$OBSLTYPE
280
     0
  9
$INTERSECTIONDISPLAY
280
     0
  9
$INTERSECTIONCOLOR
 70
   257
  9
$DIMASSOC
280
     1
  9
$PROJECTNAME
  1

  0
ENDSEC
  0
SECTION
  2
CLASSES
  0
CLASS
  1
ACDBDICTIONARYWDFLT
  2
AcDbDictionaryWithDefault
  3
ObjectDBX Classes
 90
        0
 91
        1
280
     0
281
     0
  0
CLASS
  1
TABLESTYLE
  2
AcDbTableStyle
  3
ObjectDBX Classes
 90
     2047
 91
        1
280
     0
281
     0
  0
CLASS
  1
DICTIONARYVAR
  2
AcDbDictionaryVar
  3
ObjectDBX Classes
 90
        0
 91
        1
280
     0
281
     0
  0
ENDSEC
  0
SECTION
  2
TABLES
  0
TABLE
  2
VPORT
  5
8
330
0
100
AcDbSymbolTable
 70
     2
  0
VPORT
  5
131
330
8
100
AcDbSymbolTableRecord
100
AcDbViewportTableRecord
  2
*Active
 70
     0
 10
0.0
 20
0.0
 11
1.0
 21
1.0
 12
-214.0
 22
145.5
 13
0.0
 23
0.0
 14
1.0
 24
1.0
 15
0.0
 25
0.0
 16
0.0
 26
0.0
 36
1.0
 17
0.0
 27
0.0
 37
0.0
 40
297.1987577639752
 41
1.639303482587064
 42
50.0
 43
0.0
 44
0.0
 50
0.0
 51
0.0
 71
     0
 72
   100
 73
     1
 74
     1
 75
     0
 76
     0
 77
     0
 78
     0
281
     0
 65
     1
110
0.0
120
0.0
130
0.0
111
1.0
121
0.0
131
0.0
112
0.0
122
1.0
132
0.0
 79
     0
146
0.0
  0
ENDTAB
  0
TABLE
  2
LTYPE
  5
5
330
0
100
AcDbSymbolTable
 70
     6
  0
LTYPE
  5
13
330
5
100
AcDbSymbolTableRecord
100
AcDbLinetypeTableRecord
  2
ByBlock
 70
     0
  3

 72
    65
 73
     0
 40
0.0
  0
LTYPE
  5
14
330
5
100
AcDbSymbolTableRecord
100
AcDbLinetypeTableRecord
  2
ByLayer
 70
     0
  3

 72
    65
 73
     0
 40
0.0
  0
LTYPE
  5
15
330
5
100
AcDbSymbolTableRecord
100
AcDbLinetypeTableRecord
  2
CONTINUOUS
 70
     0
  3
Solid line
 72
    65
 73
     0
 40
0.0
  0
LTYPE
  5
26
330
5
100
AcDbSymbolTableRecord
100
AcDbLinetypeTableRecord
  2
DASHED
 70
     0
  3
__ __ __ __ __ __ __ __ __ __ __ __ __ __ __
 72
    65
 73
     2
 40
3.5
 49
2.0
 74
     0
 49
-1.5
 74
     0
  0
LTYPE
  5
27
330
5
100
AcDbSymbolTableRecord
100
AcDbLinetypeTableRecord
  2
CENTER
 70
     0
  3
____ _ ____ _ ____ _ ____ _ ____ _ ____ _ ____
 72
    65
 73
     4
 40
17.5
 49
13.0
 74
     0
 49
-1.5
 74
     0
 49
1.5
 74
     0
 49
-1.5
 74
     0
  0
LTYPE
  5
28
330
5
100
AcDbSymbolTableRecord
100
AcDbLinetypeTableRecord
  2
PHANTOM
 70
     0
  3
_____ _ _ _____ _ _ _____ _ _ _____ _ _ ____  
 72
    65
 73
     6
 40
15.5
 49
8.0
 74
     0
 49
-1.5
 74
     0
 49
1.5
 74
     0
 49
-1.5
 74
     0
 49
1.5
 74
     0
 49
-1.5
 74
     0
  0
LTYPE
  5
29
330
5
100
AcDbSymbolTableRecord
100
AcDbLinetypeTableRecord
  2
DOT
 70
     0
  3
. . . . . . . . . . . . . . . . . . . . . . . .
 72
    65
 73
     2
 40
0.25
 49
0.0
 74
     0
 49
-0.25
 74
     0
  0
LTYPE
  5
2A
330
5
100
AcDbSymbolTableRecord
100
AcDbLinetypeTableRecord
  2
HIDDEN
 70
     0
  3
__ __ __ __ __ __ __ __ __ __ __ __ __ __ __
 72
    65
 73
     2
 40
3.5
 49
2.0
 74
     0
 49
-1.5
 74
     0
  0
ENDTAB
  0
TABLE
  2
LAYER
  5
2
330
0
100
AcDbSymbolTable
 70
     3
  0
LAYER
  5
10
330
2
100
AcDbSymbolTableRecord
100
AcDbLayerTableRecord
  2
0
 70
     0
 62
     7
  6
CONTINUOUS
370
    -3
390
F
  0
LAYER
  5
2B
330
2
100
AcDbSymbolTableRecord
100
AcDbLayerTableRecord
  2
1
 70
     0
 62
     7
  6
CONTINUOUS
370
    -3
390
F
  0
LAYER
  5
2C
330
2
100
AcDbSymbolTableRecord
100
AcDbLayerTableRecord
  2
DEFPOINTS
 70
     0
 62
     7
  6
CONTINUOUS
290
     0
370
    -3
390
F
  0
ENDTAB
  0
TABLE
  2
STYLE
  5
3
330
0
100
AcDbSymbolTable
 70
     2
  0
STYLE
  5
11
330
3
100
AcDbSymbolTableRecord
100
AcDbTextStyleTableRecord
  2
STANDARD
 70
     0
 40
0.0
 41
1.0
 50
0.0
 71
     0
 42
0.2
  3

  4

1001
ACAD
1000
MS Gothic
1071
    32817
  0
ENDTAB
  0
TABLE
  2
VIEW
  5
6
330
0
100
AcDbSymbolTable
 70
     0
  0
ENDTAB
  0
TABLE
  2
UCS
  5
7
330
0
100
AcDbSymbolTable
 70
     0
  0
ENDTAB
  0
TABLE
  2
APPID
  5
9
330
0
100
AcDbSymbolTable
 70
     2
  0
APPID
  5
12
330
9
100
AcDbSymbolTableRecord
100
AcDbRegAppTableRecord
  2
ACAD
 70
     0
  0
APPID
  5
126
330
9
100
AcDbSymbolTableRecord
100
AcDbRegAppTableRecord
  2
ACAD_PSEXT
 70
     0
  0
ENDTAB
  0
TABLE
  2
DIMSTYLE
  5
A
330
0
100
AcDbSymbolTable
 70
     4
100
AcDbDimStyleTable
 71
     1
340
2D
  0
DIMSTYLE
105
2D
102
{ACAD_REACTORS
330
120
102
}
330
A
100
AcDbSymbolTableRecord
100
AcDbDimStyleTableRecord
  2
DIMSTYLE1
 70
     0
 41
1.0
 42
2.54
 44
2.54
 73
     0
 74
     0
 75
     1
 76
     1
 77
     1
140
3.0
145
1.0
147
1.5
172
     1
173
     1
279
     2
340
11
  0
DIMSTYLE
105
2E
102
{ACAD_REACTORS
330
121
102
}
330
A
100
AcDbSymbolTableRecord
100
AcDbDimStyleTableRecord
  2
DIMSTYLE2
 70
     0
 41
1.0
 42
2.54
 44
2.54
 73
     0
 74
     0
 75
     1
 76
     1
 77
     1
140
3.0
145
1.0
147
1.5
172
     1
173
     1
279
     2
340
11
  0
DIMSTYLE
105
2F
102
{ACAD_REACTORS
330
122
102
}
330
A
100
AcDbSymbolTableRecord
100
AcDbDimStyleTableRecord
  2
DIMSTYLE3
 70
     0
 41
1.0
 42
2.54
 44
2.54
 73
     0
 74
     0
 77
     1
140
3.0
145
1.0
147
1.5
172
     1
173
     1
279
     2
340
11
  0
ENDTAB
  0
TABLE
  2
BLOCK_RECORD
  5
1
330
0
100
AcDbSymbolTable
 70
     6
  0
BLOCK_RECORD
  5
22
330
1
100
AcDbSymbolTableRecord
100
AcDbBlockTableRecord
  2
*Model_Space
340
25
  0
BLOCK_RECORD
  5
1E
330
1
100
AcDbSymbolTableRecord
100
AcDbBlockTableRecord
  2
*Paper_Space
340
21
  0
BLOCK_RECORD
  5
33
330
1
100
AcDbSymbolTableRecord
100
AcDbBlockTableRecord
  2
_OPEN30
340
0
102
{BLKREFS
331
3D
331
3E
331
47
331
48
331
50
331
51
102
}
  0
BLOCK_RECORD
  5
39
330
1
100
AcDbSymbolTableRecord
100
AcDbBlockTableRecord
  2
*D1
340
0
  0
BLOCK_RECORD
  5
43
330
1
100
AcDbSymbolTableRecord
100
AcDbBlockTableRecord
  2
*D2
340
0
  0
BLOCK_RECORD
  5
4D
330
1
100
AcDbSymbolTableRecord
100
AcDbBlockTableRecord
  2
*D3
340
0
  0
BLOCK_RECORD
  5
59
330
1
100
AcDbSymbolTableRecord
100
AcDbBlockTableRecord
  2
KOZU0001
340
0
102
{BLKREFS
331
123
102
}
  0
ENDTAB
  0
ENDSEC
  0
SECTION
  2
BLOCKS
  0
BLOCK
  5
23
330
22
100
AcDbEntity
  8
0
100
AcDbBlockBegin
  2
*Model_Space
 70
     0
 10
0.0
 20
0.0
 30
0.0
  3
*Model_Space
  1

  0
ENDBLK
  5
24
330
22
100
AcDbEntity
  8
0
100
AcDbBlockEnd
  0
BLOCK
  5
1F
330
1E
100
AcDbEntity
 67
     1
  8
0
100
AcDbBlockBegin
  2
*Paper_Space
 70
     0
 10
0.0
 20
0.0
 30
0.0
  3
*Paper_Space
  1

  0
ENDBLK
  5
20
330
1E
100
AcDbEntity
 67
     1
  8
0
100
AcDbBlockEnd
  0
BLOCK
  5
34
330
33
100
AcDbEntity
  8
0
100
AcDbBlockBegin
  2
_OPEN30
 70
     0
 10
0.0
 20
0.0
 30
0.0
  3
_OPEN30
  1

  0
LINE
  5
35
330
33
100
AcDbEntity
  8
0
  6
ByBlock
 62
     0
100
AcDbLine
 10
0.0
 20
0.0
 30
0.0
 11
-2.999999999999993
 21
-1.000000000000017
 31
0.0
  0
LINE
  5
36
330
33
100
AcDbEntity
  8
0
  6
ByBlock
 62
     0
100
AcDbLine
 10
0.0
 20
0.0
 30
0.0
 11
-3.000000000000006
 21
0.9999999999999815
 31
0.0
  0
LINE
  5
37
330
33
100
AcDbEntity
  8
0
  6
ByBlock
 62
     0
100
AcDbLine
 10
0.0
 20
0.0
 30
0.0
 11
-3.0
 21
0.0
 31
0.0
  0
ENDBLK
  5
38
330
33
100
AcDbEntity
  8
0
100
AcDbBlockEnd
  0
BLOCK
  5
3A
330
39
100
AcDbEntity
  8
0
100
AcDbBlockBegin
  2
*D1
 70
     1
 10
0.0
 20
0.0
 30
0.0
  3
*D1
  1

  0
LINE
  5
3B
330
39
100
AcDbEntity
  8
0
  6
Continuous
 62
     7
100
AcDbLine
 10
-181.5499877929688
 20
235.6681976318359
 30
0.0
 11
-164.9825439453125
 21
242.4754943847656
 31
0.0
  0
LINE
  5
3C
330
39
100
AcDbEntity
  8
0
  6
Continuous
 62
     7
100
AcDbLine
 10
-259.2470176381712
 20
203.7437360277625
 30
0.0
 11
-184.3248817758913
 21
234.5280382642297
 31
0.0
  0
INSERT
  5
3D
330
39
100
AcDbEntity
  8
0
  6
Continuous
 62
     7
100
AcDbBlockReference
  2
_OPEN30
 10
-262.0219116210938
 20
202.6035766601563
 30
0.0
 50
202.3369732280234
  0
INSERT
  5
3E
330
39
100
AcDbEntity
  8
0
  6
Continuous
 62
     7
100
AcDbBlockReference
  2
_OPEN30
 10
-181.5499877929688
 20
235.6681976318359
 30
0.0
 50
22.33697322802269
  0
TEXT
  5
3F
330
39
100
AcDbEntity
  8
0
  6
Continuous
 62
     7
100
AcDbText
 10
-172.7973424278439
 20
240.0782010223767
 30
0.0
 40
3.0
  1
%%C87
 50
22.30000073439052
 41
0.9498249830693319
100
AcDbText
  0
POINT
  5
40
330
39
100
AcDbEntity
  8
DEFPOINTS
  6
Continuous
 62
     7
100
AcDbPoint
 10
-262.0219116210938
 20
202.6035766601563
 30
0.0
  0
POINT
  5
41
330
39
100
AcDbEntity
  8
DEFPOINTS
  6
Continuous
 62
     7
100
AcDbPoint
 10
-181.5499877929688
 20
235.6681976318359
 30
0.0
  0
ENDBLK
  5
42
330
39
100
AcDbEntity
  8
0
100
AcDbBlockEnd
  0
BLOCK
  5
44
330
43
100
AcDbEntity
  8
0
100
AcDbBlockBegin
  2
*D2
 70
     1
 10
0.0
 20
0.0
 30
0.0
  3
*D2
  1

  0
LINE
  5
45
330
43
100
AcDbEntity
  8
0
  6
Continuous
 62
     7
100
AcDbLine
 10
-197.1049652099609
 20
209.4871063232422
 30
0.0
 11
-166.4909973144531
 21
197.5188903808594
 31
0.0
  0
LINE
  5
46
330
43
100
AcDbEntity
  8
0
  6
Continuous
 62
     7
100
AcDbLine
 10
-243.672860422022
 20
227.6923531330477
 30
0.0
 11
-199.8990389920405
 21
210.5794211589445
 31
0.0
  0
INSERT
  5
47
330
43
100
AcDbEntity
  8
0
  6
Continuous
 62
     7
100
AcDbBlockReference
  2
_OPEN30
 10
-246.4669342041016
 20
228.78466796875
 30
0.0
 50
158.6474901140774
  0
INSERT
  5
48
330
43
100
AcDbEntity
  8
0
  6
Continuous
 62
     7
100
AcDbBlockReference
  2
_OPEN30
 10
-197.1049652099609
 20
209.4871063232422
 30
0.0
 50
338.6474901140782
  0
TEXT
  5
49
330
43
100
AcDbEntity
  8
0
  6
Continuous
 62
     7
100
AcDbText
 10
-173.7973559390541
 20
201.1841339163884
 30
0.0
 40
3.0
  1
%%C53
 50
338.5999996321637
 41
0.9498249830693319
100
AcDbText
  0
POINT
  5
4A
330
43
100
AcDbEntity
  8
DEFPOINTS
  6
Continuous
 62
     7
100
AcDbPoint
 10
-246.4669342041016
 20
228.78466796875
 30
0.0
  0
POINT
  5
4B
330
43
100
AcDbEntity
  8
DEFPOINTS
  6
Continuous
 62
     7
100
AcDbPoint
 10
-197.1049652099609
 20
209.4871063232422
 30
0.0
  0
ENDBLK
  5
4C
330
43
100
AcDbEntity
  8
0
100
AcDbBlockEnd
  0
BLOCK
  5
4E
330
4D
100
AcDbEntity
  8
0
100
AcDbBlockBegin
  2
*D3
 70
     1
 10
0.0
 20
0.0
 30
0.0
  3
*D3
  1

  0
LINE
  5
4F
330
4D
100
AcDbEntity
  8
0
  6
Continuous
 62
     7
100
AcDbLine
 10
-287.0766296386719
 20
72.13588714599609
 30
0.0
 11
-287.0766296386719
 21
116.1358871459961
 31
0.0
  0
INSERT
  5
50
330
4D
100
AcDbEntity
  8
0
  6
Continuous
 62
     7
100
AcDbBlockReference
  2
_OPEN30
 10
-287.0766296386719
 20
69.13588714599609
 30
0.0
 50
270.0000000000005
  0
INSERT
  5
51
330
4D
100
AcDbEntity
  8
0
  6
Continuous
 62
     7
100
AcDbBlockReference
  2
_OPEN30
 10
-287.0766296386719
 20
119.1358871459961
 30
0.0
 50
90.00000000000019
  0
LINE
  5
52
330
4D
100
AcDbEntity
  8
0
  6
Continuous
 62
     7
100
AcDbLine
 10
-264.3259497070313
 20
69.13588714599608
 30
0.0
 11
-289.3626098632813
 21
69.13588714599609
 31
0.0
  0
LINE
  5
53
330
4D
100
AcDbEntity
  8
0
  6
Continuous
 62
     7
100
AcDbLine
 10
-267.8259497070313
 20
119.1358871459961
 30
0.0
 11
-289.3626098632813
 21
119.1358871459961
 31
0.0
  0
TEXT
  5
54
330
4D
100
AcDbEntity
  8
0
  6
Continuous
 62
     7
100
AcDbText
 10
-287.8266295263336
 20
91.56588700115582
 30
0.0
 40
3.0
  1
50
 50
90.00000250447815
 41
1.101428593908038
100
AcDbText
  0
POINT
  5
55
330
4D
100
AcDbEntity
  8
DEFPOINTS
  6
Continuous
 62
     7
100
AcDbPoint
 10
-261.7859497070313
 20
69.13588714599609
 30
0.0
  0
POINT
  5
56
330
4D
100
AcDbEntity
  8
DEFPOINTS
  6
Continuous
 62
     7
100
AcDbPoint
 10
-265.2859497070313
 20
119.1358871459961
 30
0.0
  0
POINT
  5
57
330
4D
100
AcDbEntity
  8
DEFPOINTS
  6
Continuous
 62
     7
100
AcDbPoint
 10
-287.0766296386719
 20
119.1358871459961
 30
0.0
  0
ENDBLK
  5
58
330
4D
100
AcDbEntity
  8
0
100
AcDbBlockEnd
  0
BLOCK
  5
5A
330
59
100
AcDbEntity
  8
0
100
AcDbBlockBegin
  2
KOZU0001
 70
     0
 10
0.0
 20
0.0
 30
0.0
  3
KOZU0001
  1

  0
LINE
  5
5B
330
59
100
AcDbEntity
  8
0
  6
Continuous
 62
     7
100
AcDbLine
 10
0.0
 20
0.0
 30
0.0
 11
-13.79396057128906
 21
-25.78029251098633
 31
0.0
  0
LINE
  5
5C
330
59
100
AcDbEntity
  8
0
  6
Continuous
 62
     7
100
AcDbLine
 10
-13.79396057128906
 20
-25.78029251098633
 30
0.0
 11
-41.14047241210938
 21
-25.78029251098633
 31
0.0
  0
LINE
  5
5D
330
59
100
AcDbEntity
  8
0
  6
Continuous
 62
     7
100
AcDbLine
 10
0.0
 20
0.0
 30
0.0
 11
-0.5335952871689285
 21
-3.116933760847526
 31
0.0
  0
LINE
  5
5E
330
59
100
AcDbEntity
  8
0
  6
Continuous
 62
     7
100
AcDbLine
 10
0.0
 20
0.0
 30
0.0
 11
-2.297036486243659
 21
-2.173389836376665
 31
0.0
  0
TEXT
  5
5F
330
59
100
AcDbEntity
  8
0
  6
Continuous
 62
     7
100
AcDbText
 10
-39.42047202587128
 20
-25.03029251098633
 30
0.0
 40
3.0
  1
配管接続口
 41
0.8487395020950888
100
AcDbText
  0
TEXT
  5
60
330
59
100
AcDbEntity
  8
0
  6
Continuous
 62
     7
100
AcDbText
 10
-39.42047202587128
 20
-30.29529251098633
 30
0.0
 40
3.0
  1
Ｒｃ２（５０Ａ）
 41
0.8454512278006642
100
AcDbText
  0
ENDBLK
  5
61
330
59
100
AcDbEntity
  8
0
100
AcDbBlockEnd
  0
ENDSEC
  0
SECTION
  2
ENTITIES
  0
LINE
  5
62
330
22
100
AcDbEntity
  8
0
  6
Continuous
 62
     7
100
AcDbLine
 10
-215.2859497070313
 20
216.1358947753906
 30
0.0
 11
-217.7859497070314
 21
216.1358947753906
 31
0.0
  0
LINE
  5
63
330
22
100
AcDbEntity
  8
0
  6
CENTER
 62
     7
100
AcDbLine
 10
-221.7859497070314
 20
270.9536743164063
 30
0.0
 11
-221.7859497070314
 21
167.3180999755859
 31
0.0
  0
LINE
  5
64
330
22
100
AcDbEntity
  8
0
  6
Continuous
 62
     7
100
AcDbLine
 10
-218.040771484375
 20
222.4485321044922
 30
0.0
 11
-214.3926391601564
 21
222.3405456542969
 31
0.0
  0
LINE
  5
65
330
22
100
AcDbEntity
  8
0
  6
Continuous
 62
     7
100
AcDbLine
 10
-229.1007995605469
 20
216.2933349609375
 30
0.0
 11
-225.7859497070313
 21
216.1358947753906
 31
0.0
  0
LINE
  5
66
330
22
100
AcDbEntity
  8
0
  6
Continuous
 62
     7
100
AcDbLine
 10
-229.2856597900391
 20
222.2999420166016
 30
0.0
 11
-225.2868804931641
 21
222.7056884765625
 31
0.0
  0
LINE
  5
67
330
22
100
AcDbEntity
  8
0
  6
CENTER
 62
     7
100
AcDbLine
 10
-273.603759765625
 20
219.1358947753906
 30
0.0
 11
-169.9681701660156
 21
219.1358947753906
 31
0.0
  0
LINE
  5
68
330
22
100
AcDbEntity
  8
0
  6
Continuous
 62
     7
100
AcDbLine
 10
-181.7859497070313
 20
69.13588714599609
 30
0.0
 11
-181.7859497070313
 21
107.1358871459961
 31
0.0
  0
LINE
  5
69
330
22
100
AcDbEntity
  8
0
  6
Continuous
 62
     7
100
AcDbLine
 10
-179.7859497070313
 20
109.1358871459961
 30
0.0
 11
-178.2859497070313
 21
109.1358871459961
 31
0.0
  0
LINE
  5
6A
330
22
100
AcDbEntity
  8
0
  6
Continuous
 62
     7
100
AcDbLine
 10
-192.7672424316406
 20
94.13588714599608
 30
0.0
 11
-194.1827087402344
 21
92.72042083740235
 31
0.0
  0
LINE
  5
6B
330
22
100
AcDbEntity
  8
0
  6
Continuous
 62
     7
100
AcDbLine
 10
-191.9859619140625
 20
69.13588714599609
 30
0.0
 11
-193.4927520751953
 21
70.64267730712891
 31
0.0
  0
LINE
  5
6C
330
22
100
AcDbEntity
  8
0
  6
Continuous
 62
     7
100
AcDbLine
 10
-192.7672424316406
 20
94.13588714599608
 30
0.0
 11
-191.9859619140625
 21
69.13588714599609
 31
0.0
  0
LINE
  5
6D
330
22
100
AcDbEntity
  8
0
  6
Continuous
 62
     7
100
AcDbLine
 10
-194.1827087402344
 20
92.72042083740235
 30
0.0
 11
-193.4927520751953
 21
70.64267730712891
 31
0.0
  0
LINE
  5
6E
330
22
100
AcDbEntity
  8
0
  6
Continuous
 62
     7
100
AcDbLine
 10
-265.2859497070313
 20
109.1358871459961
 30
0.0
 11
-265.2859497070313
 21
119.1358871459961
 31
0.0
  0
LINE
  5
6F
330
22
100
AcDbEntity
  8
0
  6
CENTER
 62
     7
100
AcDbLine
 10
-221.7859497070314
 20
128.3963012695312
 30
0.0
 11
-221.7859497070314
 21
63.77779388427734
 31
0.0
  0
LINE
  5
70
330
22
100
AcDbEntity
  8
0
  6
Continuous
 62
     7
100
AcDbLine
 10
-195.3359527587891
 20
119.1358871459961
 30
0.0
 11
-195.6510314941406
 21
115.5345764160156
 31
0.0
  0
LINE
  5
71
330
22
100
AcDbEntity
  8
0
  6
Continuous
 62
     7
100
AcDbLine
 10
-178.2859497070313
 20
109.1358871459961
 30
0.0
 11
-178.2859497070313
 21
119.1358871459961
 31
0.0
  0
LINE
  5
72
330
22
100
AcDbEntity
  8
0
  6
Continuous
 62
     7
100
AcDbLine
 10
-265.2859497070313
 20
109.1358871459961
 30
0.0
 11
-263.7859497070313
 21
109.1358871459961
 31
0.0
  0
LINE
  5
73
330
22
100
AcDbEntity
  8
0
  6
Continuous
 62
     7
100
AcDbLine
 10
-261.7859497070313
 20
69.13588714599609
 30
0.0
 11
-261.7859497070313
 21
107.1358871459961
 31
0.0
  0
LINE
  5
74
330
22
100
AcDbEntity
  8
0
  6
Continuous
 62
     7
100
AcDbLine
 10
-221.7859497070314
 20
90.63588714599609
 30
0.0
 11
-206.2859497070313
 21
90.63588714599609
 31
0.0
  0
LINE
  5
75
330
22
100
AcDbEntity
  8
0
  6
Continuous
 62
     7
100
AcDbLine
 10
-263.7859497070313
 20
109.1358871459961
 30
0.0
 11
-221.7859497070314
 21
109.1358871459961
 31
0.0
  0
LINE
  5
76
330
22
100
AcDbEntity
  8
0
  6
Continuous
 62
     7
100
AcDbLine
 10
-206.2859497070313
 20
90.63588714599609
 30
0.0
 11
-206.2859497070313
 21
107.1358871459961
 31
0.0
  0
LINE
  5
77
330
22
100
AcDbEntity
  8
0
  6
Continuous
 62
     7
100
AcDbLine
 10
-210.6996612548828
 20
115.1358871459961
 30
0.0
 11
-221.8859558105469
 21
115.1358871459961
 31
0.0
  0
LINE
  5
78
330
22
100
AcDbEntity
  8
0
  6
Continuous
 62
     7
100
AcDbLine
 10
-210.6996612548828
 20
115.1358871459961
 30
0.0
 11
-210.6996612548828
 21
107.1358871459961
 31
0.0
  0
LINE
  5
79
330
22
100
AcDbEntity
  8
0
  6
Continuous
 62
     7
100
AcDbLine
 10
-221.7859497070314
 20
107.1358871459961
 30
0.0
 11
-210.6996612548828
 21
107.1358871459961
 31
0.0
  0
LINE
  5
7A
330
22
100
AcDbEntity
  8
0
  6
Continuous
 62
     7
100
AcDbLine
 10
-206.2859497070313
 20
94.13588714599608
 30
0.0
 11
-192.7672424316406
 21
94.13588714599608
 31
0.0
  0
LINE
  5
7B
330
22
100
AcDbEntity
  8
0
  6
Continuous
 62
     7
100
AcDbLine
 10
-194.1827087402344
 20
92.72042083740235
 30
0.0
 11
-206.2859497070313
 21
92.72042083740235
 31
0.0
  0
LINE
  5
7C
330
22
100
AcDbEntity
  8
0
  6
Continuous
 62
     7
100
AcDbLine
 10
-261.7859497070313
 20
69.13588714599609
 30
0.0
 11
-181.7859497070313
 21
69.13588714599609
 31
0.0
  0
LINE
  5
7D
330
22
100
AcDbEntity
  8
0
  6
Continuous
 62
     7
100
AcDbLine
 10
-198.2859497070313
 20
112.9358901977539
 30
0.0
 11
-198.2859497070313
 21
116.1358871459961
 31
0.0
  0
LINE
  5
7E
330
22
100
AcDbEntity
  8
0
  6
Continuous
 62
     7
100
AcDbLine
 10
-206.2859497070313
 20
107.1358871459961
 30
0.0
 11
-196.3858184814453
 21
107.1358871459961
 31
0.0
  0
LINE
  5
7F
330
22
100
AcDbEntity
  8
0
  6
Continuous
 62
     7
100
AcDbLine
 10
-198.2859497070313
 20
112.9358901977539
 30
0.0
 11
-195.8783874511719
 21
112.9358901977539
 31
0.0
  0
LINE
  5
80
330
22
100
AcDbEntity
  8
0
  6
Continuous
 62
     7
100
AcDbLine
 10
-195.0859527587891
 20
119.1358871459961
 30
0.0
 11
-196.1358184814453
 21
107.1358871459961
 31
0.0
  0
LINE
  5
81
330
22
100
AcDbEntity
  8
0
  6
Continuous
 62
     7
100
AcDbLine
 10
-265.2859497070313
 20
119.1358871459961
 30
0.0
 11
-178.2859497070313
 21
119.1358871459961
 31
0.0
  0
LINE
  5
82
330
22
100
AcDbEntity
  8
0
  6
Continuous
 62
     7
100
AcDbLine
 10
-200.2859497070313
 20
94.13588714599608
 30
0.0
 11
-200.2859497070313
 21
107.1358871459961
 31
0.0
  0
LINE
  5
83
330
22
100
AcDbEntity
  8
0
  6
Continuous
 62
     7
100
AcDbLine
 10
-193.4927520751953
 20
70.64267730712891
 30
0.0
 11
-221.7859497070314
 21
70.64267730712891
 31
0.0
  0
LINE
  5
84
330
22
100
AcDbEntity
  8
0
  6
Continuous
 62
     7
100
AcDbLine
 10
-198.2859497070313
 20
116.1358871459961
 30
0.0
 11
-195.5984191894531
 21
116.1358871459961
 31
0.0
  0
LINE
  5
85
330
22
100
AcDbEntity
  8
0
  6
Continuous
 62
     7
100
AcDbLine
 10
-196.3858184814453
 20
107.1358871459961
 30
0.0
 11
-196.1358184814453
 21
107.1358871459961
 31
0.0
  0
LINE
  5
86
330
22
100
AcDbEntity
  8
0
  6
Continuous
 62
     7
100
AcDbLine
 10
-195.8447418212891
 20
113.320442199707
 30
0.0
 11
-196.3858184814453
 21
107.1358871459961
 31
0.0
  0
LINE
  5
87
330
22
100
AcDbEntity
  8
0
  6
Continuous
 62
     7
100
AcDbLine
 10
-179.0618743896484
 20
119.1358871459961
 30
0.0
 11
-178.2859497070313
 21
118.3599624633789
 31
0.0
  0
LINE
  5
88
330
22
100
AcDbEntity
  8
0
  6
Continuous
 62
     7
100
AcDbLine
 10
-179.7689819335938
 20
119.1358871459961
 30
0.0
 11
-178.2859497070313
 21
117.652862548828
 31
0.0
  0
LINE
  5
89
330
22
100
AcDbEntity
  8
0
  6
Continuous
 62
     7
100
AcDbLine
 10
-181.8903045654297
 20
119.1358871459961
 30
0.0
 11
-178.2859497070313
 21
115.5315399169922
 31
0.0
  0
LINE
  5
8A
330
22
100
AcDbEntity
  8
0
  6
Continuous
 62
     7
100
AcDbLine
 10
-182.597412109375
 20
119.1358871459961
 30
0.0
 11
-178.2859497070313
 21
114.8244323730469
 31
0.0
  0
LINE
  5
8B
330
22
100
AcDbEntity
  8
0
  6
Continuous
 62
     7
100
AcDbLine
 10
-184.7187347412109
 20
119.1358871459961
 30
0.0
 11
-178.2859497070313
 21
112.7031097412109
 31
0.0
  0
LINE
  5
8C
330
22
100
AcDbEntity
  8
0
  6
Continuous
 62
     7
100
AcDbLine
 10
-185.4258422851563
 20
119.1358871459961
 30
0.0
 11
-178.2859497070313
 21
111.9960021972655
 31
0.0
  0
LINE
  5
8D
330
22
100
AcDbEntity
  8
0
  6
Continuous
 62
     7
100
AcDbLine
 10
-187.5471649169922
 20
119.1358871459961
 30
0.0
 11
-178.2859497070313
 21
109.8746871948242
 31
0.0
  0
LINE
  5
8E
330
22
100
AcDbEntity
  8
0
  6
Continuous
 62
     7
100
AcDbLine
 10
-188.2542572021484
 20
119.1358871459961
 30
0.0
 11
-178.2859497070313
 21
109.1675796508789
 31
0.0
  0
LINE
  5
8F
330
22
100
AcDbEntity
  8
0
  6
Continuous
 62
     7
100
AcDbLine
 10
-190.3755798339844
 20
119.1358871459961
 30
0.0
 11
-180.2996826171875
 21
109.0599822998047
 31
0.0
  0
LINE
  5
90
330
22
100
AcDbEntity
  8
0
  6
Continuous
 62
     7
100
AcDbLine
 10
-191.0826873779297
 20
119.1358871459961
 30
0.0
 11
-180.7983856201172
 21
108.8515853881836
 31
0.0
  0
LINE
  5
91
330
22
100
AcDbEntity
  8
0
  6
Continuous
 62
     7
100
AcDbLine
 10
-193.2040100097656
 20
119.1358871459961
 30
0.0
 11
-181.7118377685547
 21
107.6437149047852
 31
0.0
  0
LINE
  5
92
330
22
100
AcDbEntity
  8
0
  6
Continuous
 62
     7
100
AcDbLine
 10
-193.9111175537109
 20
119.1358871459961
 30
0.0
 11
-181.7859497070313
 21
107.0107269287109
 31
0.0
  0
LINE
  5
93
330
22
100
AcDbEntity
  8
0
  6
Continuous
 62
     7
100
AcDbLine
 10
-195.1620941162109
 20
118.2655487060547
 30
0.0
 11
-181.7859497070313
 21
104.889404296875
 31
0.0
  0
LINE
  5
94
330
22
100
AcDbEntity
  8
0
  6
Continuous
 62
     7
100
AcDbLine
 10
-195.218994140625
 20
117.6153259277344
 30
0.0
 11
-181.7859497070313
 21
104.1822967529297
 31
0.0
  0
LINE
  5
95
330
22
100
AcDbEntity
  8
0
  6
Continuous
 62
     7
100
AcDbLine
 10
-195.3896484375
 20
115.664665222168
 30
0.0
 11
-181.7859497070313
 21
102.0609741210938
 31
0.0
  0
LINE
  5
96
330
22
100
AcDbEntity
  8
0
  6
Continuous
 62
     7
100
AcDbLine
 10
-195.446533203125
 20
115.0144500732422
 30
0.0
 11
-181.7859497070313
 21
101.3538665771484
 31
0.0
  0
LINE
  5
97
330
22
100
AcDbEntity
  8
0
  6
Continuous
 62
     7
100
AcDbLine
 10
-195.6171875
 20
113.0637893676758
 30
0.0
 11
-181.7859497070313
 21
99.23255157470705
 31
0.0
  0
LINE
  5
98
330
22
100
AcDbEntity
  8
0
  6
Continuous
 62
     7
100
AcDbLine
 10
-195.6740875244141
 20
112.4135665893555
 30
0.0
 11
-181.7859497070313
 21
98.52544403076173
 31
0.0
  0
LINE
  5
99
330
22
100
AcDbEntity
  8
0
  6
Continuous
 62
     7
100
AcDbLine
 10
-195.8447418212891
 20
110.4629058837891
 30
0.0
 11
-181.7859497070313
 21
96.40412139892578
 31
0.0
  0
LINE
  5
9A
330
22
100
AcDbEntity
  8
0
  6
Continuous
 62
     7
100
AcDbLine
 10
-195.9016265869141
 20
109.8126907348633
 30
0.0
 11
-181.7859497070313
 21
95.69701385498047
 31
0.0
  0
LINE
  5
9B
330
22
100
AcDbEntity
  8
0
  6
Continuous
 62
     7
100
AcDbLine
 10
-196.0722961425781
 20
107.8620300292969
 30
0.0
 11
-181.7859497070313
 21
93.57569122314451
 31
0.0
  0
LINE
  5
9C
330
22
100
AcDbEntity
  8
0
  6
Continuous
 62
     7
100
AcDbLine
 10
-196.1291809082031
 20
107.2118072509766
 30
0.0
 11
-181.7859497070313
 21
92.86859130859376
 31
0.0
  0
LINE
  5
9D
330
22
100
AcDbEntity
  8
0
  6
Continuous
 62
     7
100
AcDbLine
 10
-198.1745758056641
 20
107.1358871459961
 30
0.0
 11
-181.7859497070313
 21
90.7472686767578
 31
0.0
  0
LINE
  5
9E
330
22
100
AcDbEntity
  8
0
  6
Continuous
 62
     7
100
AcDbLine
 10
-198.8816833496094
 20
107.1358871459961
 30
0.0
 11
-181.7859497070313
 21
90.04016113281251
 31
0.0
  0
LINE
  5
9F
330
22
100
AcDbEntity
  8
0
  6
Continuous
 62
     7
100
AcDbLine
 10
-200.2859497070313
 20
106.4188385009766
 30
0.0
 11
-181.7859497070313
 21
87.91883850097656
 31
0.0
  0
LINE
  5
A0
330
22
100
AcDbEntity
  8
0
  6
Continuous
 62
     7
100
AcDbLine
 10
-200.2859497070313
 20
105.7117309570313
 30
0.0
 11
-181.7859497070313
 21
87.21173095703125
 31
0.0
  0
LINE
  5
A1
330
22
100
AcDbEntity
  8
0
  6
Continuous
 62
     7
100
AcDbLine
 10
-200.2859497070313
 20
103.5904159545898
 30
0.0
 11
-181.7859497070313
 21
85.09041595458985
 31
0.0
  0
LINE
  5
A2
330
22
100
AcDbEntity
  8
0
  6
Continuous
 62
     7
100
AcDbLine
 10
-200.2859497070313
 20
102.8833084106445
 30
0.0
 11
-181.7859497070313
 21
84.38330841064454
 31
0.0
  0
LINE
  5
A3
330
22
100
AcDbEntity
  8
0
  6
Continuous
 62
     7
100
AcDbLine
 10
-192.7384490966797
 20
93.2144775390625
 30
0.0
 11
-181.7859497070313
 21
82.26198577880859
 31
0.0
  0
LINE
  5
A4
330
22
100
AcDbEntity
  8
0
  6
Continuous
 62
     7
100
AcDbLine
 10
-200.2859497070313
 20
100.7619857788086
 30
0.0
 11
-193.6598510742188
 21
94.13588714599608
 31
0.0
  0
LINE
  5
A5
330
22
100
AcDbEntity
  8
0
  6
Continuous
 62
     7
100
AcDbLine
 10
-192.7156372070313
 20
92.48456573486327
 30
0.0
 11
-181.7859497070313
 21
81.55487823486328
 31
0.0
  0
LINE
  5
A6
330
22
100
AcDbEntity
  8
0
  6
Continuous
 62
     7
100
AcDbLine
 10
-200.2859497070313
 20
100.0548782348633
 30
0.0
 11
-194.3669586181641
 21
94.13588714599608
 31
0.0
  0
LINE
  5
A7
330
22
100
AcDbEntity
  8
0
  6
Continuous
 62
     7
100
AcDbLine
 10
-192.6472015380859
 20
90.29480743408205
 30
0.0
 11
-181.7859497070313
 21
79.43355560302734
 31
0.0
  0
LINE
  5
A8
330
22
100
AcDbEntity
  8
0
  6
Continuous
 62
     7
100
AcDbLine
 10
-200.2859497070313
 20
97.93355560302735
 30
0.0
 11
-196.48828125
 21
94.13588714599608
 31
0.0
  0
LINE
  5
A9
330
22
100
AcDbEntity
  8
0
  6
Continuous
 62
     7
100
AcDbLine
 10
-192.6243896484375
 20
89.56488800048829
 30
0.0
 11
-181.7859497070313
 21
78.72645568847656
 31
0.0
  0
LINE
  5
AA
330
22
100
AcDbEntity
  8
0
  6
Continuous
 62
     7
100
AcDbLine
 10
-200.2859497070313
 20
97.22645568847656
 30
0.0
 11
-197.1953887939453
 21
94.13588714599608
 31
0.0
  0
LINE
  5
AB
330
22
100
AcDbEntity
  8
0
  6
Continuous
 62
     7
100
AcDbLine
 10
-192.5559539794922
 20
87.37513732910157
 30
0.0
 11
-181.7859497070313
 21
76.60513305664062
 31
0.0
  0
LINE
  5
AC
330
22
100
AcDbEntity
  8
0
  6
Continuous
 62
     7
100
AcDbLine
 10
-200.2859497070313
 20
95.10513305664064
 30
0.0
 11
-199.3167114257813
 21
94.13588714599608
 31
0.0
  0
LINE
  5
AD
330
22
100
AcDbEntity
  8
0
  6
Continuous
 62
     7
100
AcDbLine
 10
-192.5331420898438
 20
86.6452178955078
 30
0.0
 11
-181.7859497070313
 21
75.89802551269531
 31
0.0
  0
LINE
  5
AE
330
22
100
AcDbEntity
  8
0
  6
Continuous
 62
     7
100
AcDbLine
 10
-200.2859497070313
 20
94.39802551269531
 30
0.0
 11
-200.0238189697266
 21
94.13588714599608
 31
0.0
  0
LINE
  5
AF
330
22
100
AcDbEntity
  8
0
  6
Continuous
 62
     7
100
AcDbLine
 10
-192.4647216796875
 20
84.45546722412109
 30
0.0
 11
-181.7859497070313
 21
73.77670288085937
 31
0.0
  0
LINE
  5
B0
330
22
100
AcDbEntity
  8
0
  6
Continuous
 62
     7
100
AcDbLine
 10
-192.4419097900391
 20
83.72554779052734
 30
0.0
 11
-181.7859497070313
 21
73.06959533691406
 31
0.0
  0
LINE
  5
B1
330
22
100
AcDbEntity
  8
0
  6
Continuous
 62
     7
100
AcDbLine
 10
-192.3734741210938
 20
81.53579711914062
 30
0.0
 11
-181.7859497070313
 21
70.94828033447265
 31
0.0
  0
LINE
  5
B2
330
22
100
AcDbEntity
  8
0
  6
Continuous
 62
     7
100
AcDbLine
 10
-192.3506622314453
 20
80.80587768554687
 30
0.0
 11
-181.7859497070313
 21
70.24117279052735
 31
0.0
  0
LINE
  5
B3
330
22
100
AcDbEntity
  8
0
  6
Continuous
 62
     7
100
AcDbLine
 10
-192.2822265625
 20
78.61611938476563
 30
0.0
 11
-182.8019866943359
 21
69.13588714599609
 31
0.0
  0
LINE
  5
B4
330
22
100
AcDbEntity
  8
0
  6
Continuous
 62
     7
100
AcDbLine
 10
-192.2594146728516
 20
77.88620758056641
 30
0.0
 11
-183.5090942382813
 21
69.13588714599609
 31
0.0
  0
LINE
  5
B5
330
22
100
AcDbEntity
  8
0
  6
Continuous
 62
     7
100
AcDbLine
 10
-192.1909790039063
 20
75.69644927978515
 30
0.0
 11
-185.6304168701172
 21
69.13588714599609
 31
0.0
  0
LINE
  5
B6
330
22
100
AcDbEntity
  8
0
  6
Continuous
 62
     7
100
AcDbLine
 10
-192.1681671142578
 20
74.96653747558593
 30
0.0
 11
-186.3375244140625
 21
69.13588714599609
 31
0.0
  0
LINE
  5
B7
330
22
100
AcDbEntity
  8
0
  6
Continuous
 62
     7
100
AcDbLine
 10
-192.0997314453125
 20
72.77677917480469
 30
0.0
 11
-188.4588470458984
 21
69.13588714599609
 31
0.0
  0
LINE
  5
B8
330
22
100
AcDbEntity
  8
0
  6
Continuous
 62
     7
100
AcDbLine
 10
-192.0769348144531
 20
72.04685974121094
 30
0.0
 11
-189.1659545898438
 21
69.13588714599609
 31
0.0
  0
LINE
  5
B9
330
22
100
AcDbEntity
  8
0
  6
Continuous
 62
     7
100
AcDbLine
 10
-192.0084991455078
 20
69.85710906982422
 30
0.0
 11
-191.2872772216797
 21
69.13588714599609
 31
0.0
  0
LINE
  5
BA
330
22
100
AcDbEntity
  8
0
  6
Continuous
 62
     7
100
AcDbLine
 10
-212.3859558105469
 20
117.6308441162109
 30
0.0
 11
-210.8809204101564
 21
119.1358871459961
 31
0.0
  0
LINE
  5
BB
330
22
100
AcDbEntity
  8
0
  6
Continuous
 62
     7
100
AcDbLine
 10
-212.052490234375
 20
115.1358871459961
 30
0.0
 11
-208.052490234375
 21
119.1358871459961
 31
0.0
  0
LINE
  5
BC
330
22
100
AcDbEntity
  8
0
  6
Continuous
 62
     7
100
AcDbLine
 10
-221.7859497070314
 20
105.4024200439453
 30
0.0
 11
-220.052490234375
 21
107.1358871459961
 31
0.0
  0
LINE
  5
BD
330
22
100
AcDbEntity
  8
0
  6
Continuous
 62
     7
100
AcDbLine
 10
-210.6996612548828
 20
113.660285949707
 30
0.0
 11
-205.2240600585939
 21
119.1358871459961
 31
0.0
  0
LINE
  5
BE
330
22
100
AcDbEntity
  8
0
  6
Continuous
 62
     7
100
AcDbLine
 10
-221.7859497070314
 20
102.5739898681641
 30
0.0
 11
-217.2240600585938
 21
107.1358871459961
 31
0.0
  0
LINE
  5
BF
330
22
100
AcDbEntity
  8
0
  6
Continuous
 62
     7
100
AcDbLine
 10
-210.6996612548828
 20
110.8318557739258
 30
0.0
 11
-202.3956298828125
 21
119.1358871459961
 31
0.0
  0
LINE
  5
C0
330
22
100
AcDbEntity
  8
0
  6
Continuous
 62
     7
100
AcDbLine
 10
-221.7859497070314
 20
99.74556732177735
 30
0.0
 11
-214.3956298828125
 21
107.1358871459961
 31
0.0
  0
LINE
  5
C1
330
22
100
AcDbEntity
  8
0
  6
Continuous
 62
     7
100
AcDbLine
 10
-210.6996612548828
 20
108.0034332275391
 30
0.0
 11
-199.5671997070313
 21
119.1358871459961
 31
0.0
  0
LINE
  5
C2
330
22
100
AcDbEntity
  8
0
  6
Continuous
 62
     7
100
AcDbLine
 10
-221.7859497070314
 20
96.91713714599607
 30
0.0
 11
-211.5671997070313
 21
107.1358871459961
 31
0.0
  0
LINE
  5
C3
330
22
100
AcDbEntity
  8
0
  6
Continuous
 62
     7
100
AcDbLine
 10
-221.7859497070314
 20
94.08870697021484
 30
0.0
 11
-196.7387847900391
 21
119.1358871459961
 31
0.0
  0
LINE
  5
C4
330
22
100
AcDbEntity
  8
0
  6
Continuous
 62
     7
100
AcDbLine
 10
-196.9103546142578
 20
116.1358871459961
 30
0.0
 11
-195.4726409912109
 21
117.573600769043
 31
0.0
  0
LINE
  5
C5
330
22
100
AcDbEntity
  8
0
  6
Continuous
 62
     7
100
AcDbLine
 10
-205.9103546142578
 20
107.1358871459961
 30
0.0
 11
-198.2859497070313
 21
114.7602844238281
 31
0.0
  0
LINE
  5
C6
330
22
100
AcDbEntity
  8
0
  6
Continuous
 62
     7
100
AcDbLine
 10
-221.7859497070314
 20
91.26028442382812
 30
0.0
 11
-206.2859497070313
 21
106.7602844238281
 31
0.0
  0
LINE
  5
C7
330
22
100
AcDbEntity
  8
0
  6
Continuous
 62
     7
100
AcDbLine
 10
-203.0819244384766
 20
107.1358871459961
 30
0.0
 11
-197.2819213867188
 21
112.9358901977539
 31
0.0
  0
LINE
  5
C8
330
22
100
AcDbEntity
  8
0
  6
Continuous
 62
     7
100
AcDbLine
 10
-219.5819244384766
 20
90.63588714599609
 30
0.0
 11
-206.2859497070313
 21
103.9318542480469
 31
0.0
  0
LINE
  5
C9
330
22
100
AcDbEntity
  8
0
  6
Continuous
 62
     7
100
AcDbLine
 10
-200.2534942626953
 20
107.1358871459961
 30
0.0
 11
-196.0149993896484
 21
111.374382019043
 31
0.0
  0
LINE
  5
CA
330
22
100
AcDbEntity
  8
0
  6
Continuous
 62
     7
100
AcDbLine
 10
-216.7534942626953
 20
90.63588714599609
 30
0.0
 11
-206.2859497070313
 21
101.1034317016602
 31
0.0
  0
LINE
  5
CB
330
22
100
AcDbEntity
  8
0
  6
Continuous
 62
     7
100
AcDbLine
 10
-197.4250640869141
 20
107.1358871459961
 30
0.0
 11
-196.2861785888672
 21
108.2747802734375
 31
0.0
  0
LINE
  5
CC
330
22
100
AcDbEntity
  8
0
  6
Continuous
 62
     7
100
AcDbLine
 10
-213.9250640869141
 20
90.63588714599609
 30
0.0
 11
-206.2859497070313
 21
98.27500152587893
 31
0.0
  0
LINE
  5
CD
330
22
100
AcDbEntity
  8
0
  6
Continuous
 62
     7
100
AcDbLine
 10
-211.0966491699219
 20
90.63588714599609
 30
0.0
 11
-206.2859497070313
 21
95.44657135009765
 31
0.0
  0
LINE
  5
CE
330
22
100
AcDbEntity
  8
0
  6
Continuous
 62
     7
100
AcDbLine
 10
-208.2682189941406
 20
90.63588714599609
 30
0.0
 11
-206.2859497070313
 21
92.61814880371094
 31
0.0
  0
LINE
  5
CF
330
22
100
AcDbEntity
  8
0
  6
Continuous
 62
     7
100
AcDbLine
 10
-220.3788909912109
 20
90.63588714599609
 30
0.0
 11
-221.7859497070314
 21
92.0429458618164
 31
0.0
  0
LINE
  5
D0
330
22
100
AcDbEntity
  8
0
  6
Continuous
 62
     7
100
AcDbLine
 10
-217.5504608154297
 20
90.63588714599609
 30
0.0
 11
-221.7859497070314
 21
94.87137603759766
 31
0.0
  0
LINE
  5
D1
330
22
100
AcDbEntity
  8
0
  6
Continuous
 62
     7
100
AcDbLine
 10
-214.7220458984375
 20
90.63588714599609
 30
0.0
 11
-221.7859497070314
 21
97.69980621337893
 31
0.0
  0
LINE
  5
D2
330
22
100
AcDbEntity
  8
0
  6
Continuous
 62
     7
100
AcDbLine
 10
-211.8936157226563
 20
90.63588714599609
 30
0.0
 11
-221.7859497070314
 21
100.5282287597656
 31
0.0
  0
LINE
  5
D3
330
22
100
AcDbEntity
  8
0
  6
Continuous
 62
     7
100
AcDbLine
 10
-209.065185546875
 20
90.63588714599609
 30
0.0
 11
-221.7859497070314
 21
103.3566589355469
 31
0.0
  0
LINE
  5
D4
330
22
100
AcDbEntity
  8
0
  6
Continuous
 62
     7
100
AcDbLine
 10
-206.2859497070313
 20
90.68508148193359
 30
0.0
 11
-221.7859497070314
 21
106.1850814819336
 31
0.0
  0
LINE
  5
D5
330
22
100
AcDbEntity
  8
0
  6
Continuous
 62
     7
100
AcDbLine
 10
-206.2859497070313
 20
93.51351165771484
 30
0.0
 11
-219.9083251953125
 21
107.1358871459961
 31
0.0
  0
LINE
  5
D6
330
22
100
AcDbEntity
  8
0
  6
Continuous
 62
     7
100
AcDbLine
 10
-206.2859497070313
 20
96.34194183349608
 30
0.0
 11
-217.0799102783203
 21
107.1358871459961
 31
0.0
  0
LINE
  5
D7
330
22
100
AcDbEntity
  8
0
  6
Continuous
 62
     7
100
AcDbLine
 10
-206.2859497070313
 20
99.17036437988279
 30
0.0
 11
-214.2514801025391
 21
107.1358871459961
 31
0.0
  0
LINE
  5
D8
330
22
100
AcDbEntity
  8
0
  6
Continuous
 62
     7
100
AcDbLine
 10
-206.2859497070313
 20
101.9987945556641
 30
0.0
 11
-211.4230499267578
 21
107.1358871459961
 31
0.0
  0
LINE
  5
D9
330
22
100
AcDbEntity
  8
0
  6
Continuous
 62
     7
100
AcDbLine
 10
-206.2859497070313
 20
104.8272171020508
 30
0.0
 11
-210.6996612548828
 21
109.2409286499023
 31
0.0
  0
LINE
  5
DA
330
22
100
AcDbEntity
  8
0
  6
Continuous
 62
     7
100
AcDbLine
 10
-205.7661895751953
 20
107.1358871459961
 30
0.0
 11
-210.6996612548828
 21
112.0693588256836
 31
0.0
  0
LINE
  5
DB
330
22
100
AcDbEntity
  8
0
  6
Continuous
 62
     7
100
AcDbLine
 10
-210.9377746582031
 20
115.1358871459961
 30
0.0
 11
-212.3859558105469
 21
116.5840759277344
 31
0.0
  0
LINE
  5
DC
330
22
100
AcDbEntity
  8
0
  6
Continuous
 62
     7
100
AcDbLine
 10
-202.9377746582031
 20
107.1358871459961
 30
0.0
 11
-210.6996612548828
 21
114.8977813720703
 31
0.0
  0
LINE
  5
DD
330
22
100
AcDbEntity
  8
0
  6
Continuous
 62
     7
100
AcDbLine
 10
-200.1093444824219
 20
107.1358871459961
 30
0.0
 11
-212.1093444824219
 21
119.1358871459961
 31
0.0
  0
LINE
  5
DE
330
22
100
AcDbEntity
  8
0
  6
Continuous
 62
     7
100
AcDbLine
 10
-197.2809143066406
 20
107.1358871459961
 30
0.0
 11
-209.2809143066406
 21
119.1358871459961
 31
0.0
  0
LINE
  5
DF
330
22
100
AcDbEntity
  8
0
  6
Continuous
 62
     7
100
AcDbLine
 10
-196.2302856445313
 20
108.9136810302734
 30
0.0
 11
-206.4524841308594
 21
119.1358871459961
 31
0.0
  0
LINE
  5
E0
330
22
100
AcDbEntity
  8
0
  6
Continuous
 62
     7
100
AcDbLine
 10
-198.2859497070313
 20
113.7977828979492
 30
0.0
 11
-203.6240539550781
 21
119.1358871459961
 31
0.0
  0
LINE
  5
E1
330
22
100
AcDbEntity
  8
0
  6
Continuous
 62
     7
100
AcDbLine
 10
-196.0027313232422
 20
111.5145645141602
 30
0.0
 11
-197.4240570068359
 21
112.9358901977539
 31
0.0
  0
LINE
  5
E2
330
22
100
AcDbEntity
  8
0
  6
Continuous
 62
     7
100
AcDbLine
 10
-197.7956390380859
 20
116.1358871459961
 30
0.0
 11
-200.7956390380859
 21
119.1358871459961
 31
0.0
  0
LINE
  5
E3
330
22
100
AcDbEntity
  8
0
  6
Continuous
 62
     7
100
AcDbLine
 10
-195.5476379394531
 20
116.7163238525391
 30
0.0
 11
-197.9672088623047
 21
119.1358871459961
 31
0.0
  0
LINE
  5
E4
330
22
100
AcDbEntity
  8
0
  6
Continuous
 62
     7
100
AcDbLine
 10
-216.8859558105469
 20
119.1358871459961
 30
0.0
 11
-216.8859558105469
 21
115.1358871459961
 31
0.0
  0
LINE
  5
E5
330
22
100
AcDbEntity
  8
0
  6
Continuous
 62
     7
100
AcDbLine
 10
-212.3859558105469
 20
119.1358871459961
 30
0.0
 11
-212.3859558105469
 21
115.1358871459961
 31
0.0
  0
ARC
  5
E6
330
22
100
AcDbEntity
  8
0
  6
Continuous
 62
     7
100
AcDbCircle
 10
-221.7859497070314
 20
219.1358947753906
 30
0.0
 40
5.0
100
AcDbArc
 50
90.00000000000019
 51
134.4420048944078
  0
ARC
  5
E7
330
22
100
AcDbEntity
  8
0
  6
Continuous
 62
     7
100
AcDbCircle
 10
-215.4806213378906
 20
219.3305511474609
 30
0.0
 40
3.200591087341308
100
AcDbArc
 50
273.4871004687429
 51
70.12727944665609
  0
ARC
  5
E8
330
22
100
AcDbEntity
  8
0
  6
Continuous
 62
     7
100
AcDbCircle
 10
-228.0912933349609
 20
219.3305511474609
 30
0.0
 40
3.200591087341308
100
AcDbArc
 50
111.911277688175
 51
251.6142877009493
  0
ARC
  5
E9
330
22
100
AcDbEntity
  8
0
  6
Continuous
 62
     7
100
AcDbCircle
 10
-221.7859497070314
 20
219.1358947753906
 30
0.0
 40
5.0
100
AcDbArc
 50
216.8698976458447
 51
323.1301023541567
  0
ARC
  5
EA
330
22
100
AcDbEntity
  8
0
  6
Continuous
 62
     7
100
AcDbCircle
 10
-221.7859497070314
 20
219.1358947753906
 30
0.0
 40
5.0
100
AcDbArc
 50
41.4928617905997
 51
90.00000000000019
  0
CIRCLE
  5
EB
330
22
100
AcDbEntity
  8
0
  6
Continuous
 62
     7
100
AcDbCircle
 10
-221.7859497070314
 20
219.1358947753906
 30
0.0
 40
26.5
  0
CIRCLE
  5
EC
330
22
100
AcDbEntity
  8
0
  6
Continuous
 62
     7
100
AcDbCircle
 10
-221.7859497070314
 20
219.1358947753906
 30
0.0
 40
26.75
  0
CIRCLE
  5
ED
330
22
100
AcDbEntity
  8
0
  6
Continuous
 62
     7
100
AcDbCircle
 10
-221.7859497070314
 20
219.1358947753906
 30
0.0
 40
43.5
  0
ARC
  5
EE
330
22
100
AcDbEntity
  8
0
  6
Continuous
 62
     7
100
AcDbCircle
 10
-179.7859497070313
 20
107.1358871459961
 30
0.0
 40
2.0
100
AcDbArc
 50
90.00000000000019
 51
180.0000000000004
  0
ARC
  5
EF
330
22
100
AcDbEntity
  8
0
  6
Continuous
 62
     7
100
AcDbCircle
 10
-263.7859497070313
 20
107.1358871459961
 30
0.0
 40
2.0
100
AcDbArc
 50
0.0
 51
90.00000000000019
  0
LWPOLYLINE
  5
F0
330
22
100
AcDbEntity
  8
0
  6
Continuous
 62
     7
100
AcDbPolyline
 90
       17
 70
     0
 43
0.0
 10
-195.435777881897
 20
115.1367672737598
 42
0.0833862120990776
 10
-195.6924603914156
 20
115.5882120707815
 42
0.0833862120990776
 10
-196.0714019417089
 20
115.9241948674949
 42
0.0833862120990776
 10
-196.5310246780587
 20
116.1078512875896
 42
0.0833862120990776
 10
-197.0208983234404
 20
116.1190303606932
 42
0.0833862120990776
 10
-197.4872734401309
 20
115.9565055074636
 42
0.0833862120990776
 10
-197.8789788730245
 20
115.6381091211303
 42
0.0833862120990776
 10
-198.1530363011405
 20
115.1987759790584
 42
0.0833862120990776
 10
-198.2793758629874
 20
114.686710163223
 42
0.0833862120990776
 10
-198.2441354525393
 20
114.1580960590015
 42
0.0833862120990776
 10
-198.0511816836969
 20
113.6709337469091
 42
0.0833862120990776
 10
-197.7216856414524
 20
113.2786751744055
 42
0.0833862120990776
 10
-197.2917999687772
 20
113.0243593535153
 42
0.0833862120990776
 10
-196.8086921616354
 20
112.9358900763811
 42
0.0833862120990776
 10
-196.3253693030541
 20
113.0229742826323
 42
0.0833862120990776
 10
-195.8948620717243
 20
113.2760570040344
 42
0.0833862120990776
 10
-195.5644061616619
 20
113.6673697453825
 42
-1.0
  0
TEXT
  5
103
330
22
100
AcDbEntity
  8
0
  6
Continuous
 62
     7
100
AcDbText
 10
-342.4145441055298
 20
142.8418884277344
 30
0.0
 40
7.0
  1
ＤＬ－ＨＳＰ－５０Ｇ
 41
0.8443929888818491
100
AcDbText
  0
SOLID
  5
104
330
22
100
AcDbEntity
  8
0
  6
Continuous
 62
     7
100
AcDbTrace
 10
-196.5403289794922
 20
116.1097259521484
 30
0.0
 11
-197.0400848388672
 21
116.1097259521484
 31
0.0
 12
-196.8292999267578
 22
116.1357040405273
 32
0.0
 13
-196.8292999267578
 23
116.1357040405273
 33
0.0
  0
SOLID
  5
105
330
22
100
AcDbEntity
  8
0
  6
Continuous
 62
     7
100
AcDbTrace
 10
-196.7841491699219
 20
112.9360733032227
 30
0.0
 11
-197.0731201171875
 21
112.9620513916016
 31
0.0
 12
-196.5733642578125
 22
112.9620513916016
 32
0.0
 13
-196.5733642578125
 23
112.9620513916016
 33
0.0
  0
SOLID
  5
106
330
22
100
AcDbEntity
  8
0
  6
Continuous
 62
     7
100
AcDbTrace
 10
-196.5095977783203
 20
116.1001968383789
 30
0.0
 11
-197.1174163818359
 21
116.1001968383789
 31
0.0
 12
-196.5403289794922
 22
116.1097259521484
 32
0.0
 13
-197.0400848388672
 23
116.1097259521484
 33
0.0
  0
SOLID
  5
107
330
22
100
AcDbEntity
  8
0
  6
Continuous
 62
     7
100
AcDbTrace
 10
-196.2615814208984
 20
116.0232696533203
 30
0.0
 11
-197.339599609375
 21
116.0232696533203
 31
0.0
 12
-196.5095977783203
 22
116.1001968383789
 32
0.0
 13
-197.1174163818359
 23
116.1001968383789
 33
0.0
  0
SOLID
  5
108
330
22
100
AcDbEntity
  8
0
  6
Continuous
 62
     7
100
AcDbTrace
 10
-196.2280120849609
 20
116.0045776367188
 30
0.0
 11
-197.3936004638672
 21
116.0045776367188
 31
0.0
 12
-196.2615814208984
 22
116.0232696533203
 32
0.0
 13
-197.339599609375
 23
116.0232696533203
 33
0.0
  0
SOLID
  5
109
330
22
100
AcDbEntity
  8
0
  6
Continuous
 62
     7
100
AcDbTrace
 10
-196.0037841796875
 20
115.8796539306641
 30
0.0
 11
-197.6019592285156
 21
115.8796539306641
 31
0.0
 12
-196.2280120849609
 22
116.0045776367188
 32
0.0
 13
-197.3936004638672
 23
116.0045776367188
 33
0.0
  0
SOLID
  5
10A
330
22
100
AcDbEntity
  8
0
  6
Continuous
 62
     7
100
AcDbTrace
 10
-195.9722290039063
 20
115.8525161743164
 30
0.0
 11
-197.647216796875
 21
115.8525161743164
 31
0.0
 12
-196.0037841796875
 22
115.8796539306641
 32
0.0
 13
-197.6019592285156
 23
115.8796539306641
 33
0.0
  0
SOLID
  5
10B
330
22
100
AcDbEntity
  8
0
  6
Continuous
 62
     7
100
AcDbTrace
 10
-195.7768402099609
 20
115.6844024658203
 30
0.0
 11
-197.8308258056641
 21
115.6844024658203
 31
0.0
 12
-195.9722290039063
 22
115.8525161743164
 32
0.0
 13
-197.647216796875
 23
115.8525161743164
 33
0.0
  0
SOLID
  5
10C
330
22
100
AcDbEntity
  8
0
  6
Continuous
 62
     7
100
AcDbTrace
 10
-195.7498016357422
 20
115.6498565673828
 30
0.0
 11
-197.8685455322266
 21
115.6498565673828
 31
0.0
 12
-195.7768402099609
 22
115.6844024658203
 32
0.0
 13
-197.8308258056641
 23
115.6844024658203
 33
0.0
  0
SOLID
  5
10D
330
22
100
AcDbEntity
  8
0
  6
Continuous
 62
     7
100
AcDbTrace
 10
-195.5894775390625
 20
115.4450073242188
 30
0.0
 11
-198.0191955566406
 21
115.4450073242188
 31
0.0
 12
-195.7498016357422
 22
115.6498565673828
 32
0.0
 13
-197.8685455322266
 23
115.6498565673828
 33
0.0
  0
SOLID
  5
10E
330
22
100
AcDbEntity
  8
0
  6
Continuous
 62
     7
100
AcDbTrace
 10
-195.5686645507813
 20
115.4043884277344
 30
0.0
 11
-198.0490570068359
 21
115.4043884277344
 31
0.0
 12
-195.5894775390625
 22
115.4450073242188
 32
0.0
 13
-198.0191955566406
 23
115.4450073242188
 33
0.0
  0
SOLID
  5
10F
330
22
100
AcDbEntity
  8
0
  6
Continuous
 62
     7
100
AcDbTrace
 10
-195.4488983154297
 20
115.1706771850586
 30
0.0
 11
-198.1603393554688
 21
115.1706771850586
 31
0.0
 12
-195.5686645507813
 22
115.4043884277344
 32
0.0
 13
-198.0490570068359
 23
115.4043884277344
 33
0.0
  0
SOLID
  5
110
330
22
100
AcDbEntity
  8
0
  6
Continuous
 62
     7
100
AcDbTrace
 10
-195.4358215332031
 20
115.1369018554688
 30
0.0
 11
-198.1764221191406
 21
115.1369018554688
 31
0.0
 12
-195.4488983154297
 22
115.1706771850586
 32
0.0
 13
-198.1603393554688
 23
115.1706771850586
 33
0.0
  0
SOLID
  5
111
330
22
100
AcDbEntity
  8
0
  6
Continuous
 62
     7
100
AcDbTrace
 10
-195.4368133544922
 20
115.1255416870117
 30
0.0
 11
-198.1818389892578
 21
115.1255416870117
 31
0.0
 12
-195.4358215332031
 22
115.1369018554688
 32
0.0
 13
-198.1764221191406
 23
115.1369018554688
 33
0.0
  0
SOLID
  5
112
330
22
100
AcDbEntity
  8
0
  6
Continuous
 62
     7
100
AcDbTrace
 10
-195.4631958007813
 20
114.8240356445313
 30
0.0
 11
-198.2617645263672
 21
114.8240356445313
 31
0.0
 12
-195.4368133544922
 22
115.1255416870117
 32
0.0
 13
-198.1818389892578
 23
115.1255416870117
 33
0.0
  0
SOLID
  5
113
330
22
100
AcDbEntity
  8
0
  6
Continuous
 62
     7
100
AcDbTrace
 10
-195.4905395507813
 20
114.5114593505859
 30
0.0
 11
-198.2857818603516
 21
114.5114593505859
 31
0.0
 12
-195.4631958007813
 22
114.8240356445313
 32
0.0
 13
-198.2617645263672
 23
114.8240356445313
 33
0.0
  0
SOLID
  5
114
330
22
100
AcDbEntity
  8
0
  6
Continuous
 62
     7
100
AcDbTrace
 10
-195.5178070068359
 20
114.199821472168
 30
0.0
 11
-198.2529602050781
 21
114.199821472168
 31
0.0
 12
-195.4905395507813
 22
114.5114593505859
 32
0.0
 13
-198.2857818603516
 23
114.5114593505859
 33
0.0
  0
SOLID
  5
115
330
22
100
AcDbEntity
  8
0
  6
Continuous
 62
     7
100
AcDbTrace
 10
-195.5439453125
 20
113.9011001586914
 30
0.0
 11
-198.16455078125
 21
113.9011001586914
 31
0.0
 12
-195.5178070068359
 22
114.199821472168
 32
0.0
 13
-198.2529602050781
 23
114.199821472168
 33
0.0
  0
SOLID
  5
116
330
22
100
AcDbEntity
  8
0
  6
Continuous
 62
     7
100
AcDbTrace
 10
-195.5643920898438
 20
113.6673889160155
 30
0.0
 11
-198.0447845458984
 21
113.6673889160155
 31
0.0
 12
-195.5439453125
 22
113.9011001586914
 32
0.0
 13
-198.16455078125
 23
113.9011001586914
 33
0.0
  0
SOLID
  5
117
330
22
100
AcDbEntity
  8
0
  6
Continuous
 62
     7
100
AcDbTrace
 10
-195.5942535400391
 20
113.6267700195313
 30
0.0
 11
-198.0239715576172
 21
113.6267700195313
 31
0.0
 12
-195.5643920898438
 22
113.6673889160155
 32
0.0
 13
-198.0447845458984
 23
113.6673889160155
 33
0.0
  0
SOLID
  5
118
330
22
100
AcDbEntity
  8
0
  6
Continuous
 62
     7
100
AcDbTrace
 10
-195.7449035644531
 20
113.4219207763672
 30
0.0
 11
-197.8636474609375
 21
113.4219207763672
 31
0.0
 12
-195.5942535400391
 22
113.6267700195313
 32
0.0
 13
-198.0239715576172
 23
113.6267700195313
 33
0.0
  0
SOLID
  5
119
330
22
100
AcDbEntity
  8
0
  6
Continuous
 62
     7
100
AcDbTrace
 10
-195.7826232910156
 20
113.3873748779297
 30
0.0
 11
-197.8366088867188
 21
113.3873748779297
 31
0.0
 12
-195.7449035644531
 22
113.4219207763672
 32
0.0
 13
-197.8636474609375
 23
113.4219207763672
 33
0.0
  0
SOLID
  5
11A
330
22
100
AcDbEntity
  8
0
  6
Continuous
 62
     7
100
AcDbTrace
 10
-195.9662322998047
 20
113.2192611694336
 30
0.0
 11
-197.6412200927734
 21
113.2192611694336
 31
0.0
 12
-195.7826232910156
 22
113.3873748779297
 32
0.0
 13
-197.8366088867188
 23
113.3873748779297
 33
0.0
  0
SOLID
  5
11B
330
22
100
AcDbEntity
  8
0
  6
Continuous
 62
     7
100
AcDbTrace
 10
-196.0114898681641
 20
113.1921234130859
 30
0.0
 11
-197.6096649169922
 21
113.1921234130859
 31
0.0
 12
-195.9662322998047
 22
113.2192611694336
 32
0.0
 13
-197.6412200927734
 23
113.2192611694336
 33
0.0
  0
SOLID
  5
11C
330
22
100
AcDbEntity
  8
0
  6
Continuous
 62
     7
100
AcDbTrace
 10
-196.2198486328125
 20
113.0671997070313
 30
0.0
 11
-197.3854370117188
 21
113.0671997070313
 31
0.0
 12
-196.0114898681641
 22
113.1921234130859
 32
0.0
 13
-197.6096649169922
 23
113.1921234130859
 33
0.0
  0
SOLID
  5
11D
330
22
100
AcDbEntity
  8
0
  6
Continuous
 62
     7
100
AcDbTrace
 10
-196.2738494873047
 20
113.0485076904297
 30
0.0
 11
-197.3518676757813
 21
113.0485076904297
 31
0.0
 12
-196.2198486328125
 22
113.0671997070313
 32
0.0
 13
-197.3854370117188
 23
113.0671997070313
 33
0.0
  0
SOLID
  5
11E
330
22
100
AcDbEntity
  8
0
  6
Continuous
 62
     7
100
AcDbTrace
 10
-196.4960327148438
 20
112.9715805053711
 30
0.0
 11
-197.1038513183594
 21
112.9715805053711
 31
0.0
 12
-196.2738494873047
 22
113.0485076904297
 32
0.0
 13
-197.3518676757813
 23
113.0485076904297
 33
0.0
  0
SOLID
  5
11F
330
22
100
AcDbEntity
  8
0
  6
Continuous
 62
     7
100
AcDbTrace
 10
-196.5733642578125
 20
112.9620513916016
 30
0.0
 11
-197.0731201171875
 21
112.9620513916016
 31
0.0
 12
-196.4960327148438
 22
112.9715805053711
 32
0.0
 13
-197.1038513183594
 23
112.9715805053711
 33
0.0
  0
DIMENSION
  5
120
330
22
100
AcDbEntity
  8
0
  6
Continuous
 62
     7
100
AcDbDimension
  2
*D1
 10
-262.0219111774143
 20
202.6035808250131
 30
0.0
 11
-168.7471466064453
 21
240.9286804199219
 31
0.0
 70
     3
 71
     5
 42
-1.0
  3
DIMSTYLE1
100
AcDbDiametricDimension
 15
-181.5499882366482
 25
235.6682087257682
 35
0.0
 40
0.0
  0
DIMENSION
  5
121
330
22
100
AcDbEntity
  8
0
  6
Continuous
 62
     7
100
AcDbDimension
  2
*D2
 10
-246.4669353274374
 20
228.7846744290725
 30
0.0
 11
-170.2816162109375
 21
199.0007934570313
 31
0.0
 70
     3
 71
     5
 42
-1.0
  3
DIMSTYLE2
100
AcDbDiametricDimension
 15
-197.1049640866251
 25
209.4871151217088
 35
0.0
 40
0.0
  0
DIMENSION
  5
122
330
22
100
AcDbEntity
  8
0
  6
Continuous
 62
     7
100
AcDbDimension
  2
*D3
 10
-287.0766296386719
 20
119.1358871459961
 30
0.0
 11
-287.0766296386719
 21
94.13588714599608
 31
0.0
 71
     5
 42
-1.0
  3
DIMSTYLE3
100
AcDbAlignedDimension
 13
-261.7859497070313
 23
69.13588714599609
 33
0.0
 14
-265.2859497070313
 24
119.1358871459961
 34
0.0
 50
90.0
100
AcDbRotatedDimension
  0
INSERT
  5
123
330
22
100
AcDbEntity
  8
0
  6
Continuous
 62
     7
100
AcDbBlockReference
  2
KOZU0001
 10
-193.7687377929688
 20
79.47377777099609
 30
0.0
  0
ENDSEC
  0
SECTION
  2
OBJECTS
  0
DICTIONARY
  5
C
330
0
100
AcDbDictionary
281
     1
  3
ACAD_COLOR
350
1B
  3
ACAD_GROUP
350
D
  3
ACAD_LAYOUT
350
19
  3
ACAD_MATERIAL
350
1A
  3
ACAD_MLINESTYLE
350
16
  3
ACAD_PLOTSETTINGS
350
18
  3
ACAD_PLOTSTYLENAME
350
E
  3
ACAD_TABLESTYLE
350
1C
  3
AcDbVariableDictionary
350
12F
  0
DICTIONARY
  5
1B
102
{ACAD_REACTORS
330
C
102
}
330
C
100
AcDbDictionary
281
     1
  0
DICTIONARY
  5
D
102
{ACAD_REACTORS
330
C
102
}
330
C
100
AcDbDictionary
281
     1
  0
DICTIONARY
  5
19
102
{ACAD_REACTORS
330
C
102
}
330
C
100
AcDbDictionary
281
     1
  3
Model
350
25
  3
レイアウト1
350
21
  0
DICTIONARY
  5
1A
102
{ACAD_REACTORS
330
C
102
}
330
C
100
AcDbDictionary
281
     1
  0
DICTIONARY
  5
16
102
{ACAD_REACTORS
330
C
102
}
330
C
100
AcDbDictionary
281
     1
  3
Standard
350
17
  0
DICTIONARY
  5
18
102
{ACAD_REACTORS
330
C
102
}
330
C
100
AcDbDictionary
281
     1
  0
ACDBDICTIONARYWDFLT
  5
E
102
{ACAD_REACTORS
330
C
102
}
330
C
100
AcDbDictionary
281
     1
  3
Normal
350
F
100
AcDbDictionaryWithDefault
340
F
  0
DICTIONARY
  5
1C
102
{ACAD_REACTORS
330
C
102
}
330
C
100
AcDbDictionary
281
     1
  3
Standard
350
1D
  0
DICTIONARY
  5
12F
102
{ACAD_REACTORS
330
C
102
}
330
C
100
AcDbDictionary
281
     1
  3
CTABLESTYLE
350
130
  0
LAYOUT
  5
25
102
{ACAD_REACTORS
330
19
102
}
330
19
100
AcDbPlotSettings
  1

  2
PDF reDirect v2
  4
A3
  6

 40
3.174999952316284
 41
3.174999952316284
 42
3.17498779296875
 43
3.17498779296875
 44
297.0530090332031
 45
420.1583251953125
 46
0.0
 47
0.0
 48
0.0
 49
0.0
140
0.0
141
0.0
142
1.0
143
1.0
 70
 11952
 72
     1
 73
     1
 74
     2
  7
C:\Users\ck\AppData\Roaming\Autodesk\AutoCAD 2005\R16.1\jpn\Plot Styles\black.ctb
 75
    16
147
1.0
 76
     0
 77
     2
 78
   300
148
423.0
149
2.0
100
AcDbLayout
  1
Model
 70
     1
 71
     0
 10
0.0
 20
0.0
 11
12.0
 21
9.0
 12
0.0
 22
0.0
 32
0.0
 14
0.0
 24
0.0
 34
0.0
 15
0.0
 25
0.0
 35
0.0
146
0.0
 13
0.0
 23
0.0
 33
0.0
 16
1.0
 26
0.0
 36
0.0
 17
0.0
 27
1.0
 37
0.0
 76
     0
330
22
1001
ACAD_PSEXT
1000
PDF reDirect v2
1000
PDF reDirect Pro
1000
PDF_REDIRECT_PORT:
1000
PDF reDirect provided by EXP Systems
1070
     0
  0
LAYOUT
  5
21
102
{ACAD_REACTORS
330
19
102
}
330
19
100
AcDbPlotSettings
  1

  2
PDF reDirect v2
  4

  6

 40
0.0
 41
0.0
 42
0.0
 43
0.0
 44
0.0
 45
0.0
 46
0.0
 47
0.0
 48
0.0
 49
0.0
140
0.0
141
0.0
142
1.0
143
1.0
 70
   688
 72
     0
 73
     0
 74
     5
  7
C:\Users\ck\AppData\Roaming\Autodesk\AutoCAD 2005\R16.1\jpn\Plot Styles\black.ctb
 75
    16
147
1.0
 76
     0
 77
     2
 78
   300
148
0.0
149
0.0
100
AcDbLayout
  1
レイアウト1
 70
     1
 71
     1
 10
-423.0
 20
-2.0
 11
-5.0
 21
293.0
 12
0.0
 22
0.0
 32
0.0
 14
1.000000000000000E+20
 24
1.000000000000000E+20
 34
1.000000000000000E+20
 15
-1.000000000000000E+20
 25
-1.000000000000000E+20
 35
-1.000000000000000E+20
146
0.0
 13
0.0
 23
0.0
 33
0.0
 16
1.0
 26
0.0
 36
0.0
 17
0.0
 27
1.0
 37
0.0
 76
     0
330
1E
  0
MLINESTYLE
  5
17
102
{ACAD_REACTORS
330
16
102
}
330
16
100
AcDbMlineStyle
  2
STANDARD
 70
     0
  3

 62
   256
 51
90.0
 52
90.0
 71
     2
 49
0.5
 62
   256
  6
BYLAYER
 49
-0.5
 62
   256
  6
BYLAYER
  0
ACDBPLACEHOLDER
  5
F
102
{ACAD_REACTORS
330
E
102
}
330
E
  0
TABLESTYLE
  5
1D
102
{ACAD_REACTORS
330
1C
102
}
330
1C
100
AcDbTableStyle
  3
Standard
 70
     0
 71
     0
 40
0.06
 41
0.06
280
     0
281
     0
  7
STANDARD
140
0.18
170
     2
 62
     0
 63
     7
283
     0
274
    -2
284
     1
 64
     0
275
    -2
285
     1
 65
     0
276
    -2
286
     1
 66
     0
277
    -2
287
     1
 67
     0
278
    -2
288
     1
 68
     0
279
    -2
289
     1
 69
     0
  7
STANDARD
140
0.25
170
     5
 62
     0
 63
     7
283
     0
274
    -2
284
     1
 64
     0
275
    -2
285
     1
 65
     0
276
    -2
286
     1
 66
     0
277
    -2
287
     1
 67
     0
278
    -2
288
     1
 68
     0
279
    -2
289
     1
 69
     0
  7
STANDARD
140
0.18
170
     5
 62
     0
 63
     7
283
     0
274
    -2
284
     1
 64
     0
275
    -2
285
     1
 65
     0
276
    -2
286
     1
 66
     0
277
    -2
287
     1
 67
     0
278
    -2
288
     1
 68
     0
279
    -2
289
     1
 69
     0
  0
DICTIONARYVAR
  5
130
102
{ACAD_REACTORS
330
12F
102
}
330
12F
100
DictionaryVariables
280
     0
  1
STANDARD
  0
ENDSEC
  0
EOF
