  0
SECTION
  2
HEADER
  9
$ACADVER
  1
AC1018
  9
$ACADMAINTVER
 70
    39
  9
$DWGCODEPAGE
  3
ANSI_932
  9
$INSBASE
 10
0.0
 20
0.0
 30
0.0
  9
$EXTMIN
 10
-489.9880356122598
 20
69.41366682552462
 30
-0.0015258207003583
  9
$EXTMAX
 10
-57.79443228267405
 20
333.3743905231524
 30
0.0000000349246037
  9
$LIMMIN
 10
-592.0
 20
0.0
  9
$LIMMAX
 10
0.0
 20
418.0
  9
$ORTHOMODE
 70
     0
  9
$REGENMODE
 70
     1
  9
$FILLMODE
 70
     1
  9
$QTEXTMODE
 70
     0
  9
$MIRRTEXT
 70
     0
  9
$LTSCALE
 40
1.0
  9
$ATTMODE
 70
     1
  9
$TEXTSIZE
 40
0.2
  9
$TRACEWID
 40
0.05
  9
$TEXTSTYLE
  7
STANDARD
  9
$CLAYER
  8
0
  9
$CELTYPE
  6
CONTINUOUS
  9
$CECOLOR
 62
   256
  9
$CELTSCALE
 40
1.0
  9
$DISPSILH
 70
     0
  9
$DIMSCALE
 40
1.0
  9
$DIMASZ
 40
1.0
  9
$DIMEXO
 40
2.54
  9
$DIMDLI
 40
0.38
  9
$DIMRND
 40
0.0
  9
$DIMDLE
 40
0.0
  9
$DIMEXE
 40
2.54
  9
$DIMTP
 40
0.0
  9
$DIMTM
 40
0.0
  9
$DIMTXT
 40
3.0
  9
$DIMCEN
 40
0.09
  9
$DIMTSZ
 40
0.0
  9
$DIMTOL
 70
     0
  9
$DIMLIM
 70
     0
  9
$DIMTIH
 70
     0
  9
$DIMTOH
 70
     0
  9
$DIMSE1
 70
     0
  9
$DIMSE2
 70
     0
  9
$DIMTAD
 70
     1
  9
$DIMZIN
 70
     0
  9
$DIMBLK
  1

  9
$DIMASO
 70
     1
  9
$DIMSHO
 70
     0
  9
$DIMPOST
  1

  9
$DIMAPOST
  1

  9
$DIMALT
 70
     0
  9
$DIMALTD
 70
     2
  9
$DIMALTF
 40
25.4
  9
$DIMLFAC
 40
1.0
  9
$DIMTOFL
 70
     0
  9
$DIMTVP
 40
1.0
  9
$DIMTIX
 70
     0
  9
$DIMSOXD
 70
     0
  9
$DIMSAH
 70
     1
  9
$DIMBLK1
  1

  9
$DIMBLK2
  1

  9
$DIMSTYLE
  2
DIMSTYLE1
  9
$DIMCLRD
 70
     0
  9
$DIMCLRE
 70
     0
  9
$DIMCLRT
 70
     0
  9
$DIMTFAC
 40
1.0
  9
$DIMGAP
 40
1.5
  9
$DIMJUST
 70
     0
  9
$DIMSD1
 70
     0
  9
$DIMSD2
 70
     0
  9
$DIMTOLJ
 70
     1
  9
$DIMTZIN
 70
     0
  9
$DIMALTZ
 70
     0
  9
$DIMALTTZ
 70
     0
  9
$DIMUPT
 70
     0
  9
$DIMDEC
 70
     4
  9
$DIMTDEC
 70
     4
  9
$DIMALTU
 70
     2
  9
$DIMALTTD
 70
     2
  9
$DIMTXSTY
  7
STANDARD
  9
$DIMAUNIT
 70
     0
  9
$DIMADEC
 70
     0
  9
$DIMALTRND
 40
0.0
  9
$DIMAZIN
 70
     0
  9
$DIMDSEP
 70
    46
  9
$DIMATFIT
 70
     3
  9
$DIMFRAC
 70
     0
  9
$DIMLDRBLK
  1

  9
$DIMLUNIT
 70
     2
  9
$DIMLWD
 70
    -2
  9
$DIMLWE
 70
    -2
  9
$DIMTMOVE
 70
     0
  9
$LUNITS
 70
     2
  9
$LUPREC
 70
     4
  9
$SKETCHINC
 40
0.1
  9
$FILLETRAD
 40
0.0
  9
$AUNITS
 70
     0
  9
$AUPREC
 70
     0
  9
$MENU
  1
.
  9
$ELEVATION
 40
0.0
  9
$PELEVATION
 40
0.0
  9
$THICKNESS
 40
0.0
  9
$LIMCHECK
 70
     0
  9
$CHAMFERA
 40
0.0
  9
$CHAMFERB
 40
0.0
  9
$CHAMFERC
 40
0.0
  9
$CHAMFERD
 40
0.0
  9
$SKPOLY
 70
     0
  9
$TDCREATE
 40
2457701.450475394
  9
$TDUCREATE
 40
2457701.075475394
  9
$TDUPDATE
 40
2457701.451057708
  9
$TDUUPDATE
 40
2457701.076057709
  9
$TDINDWG
 40
0.0005836574
  9
$TDUSRTIMER
 40
0.0005836574
  9
$USRTIMER
 70
     1
  9
$ANGBASE
 50
0.0
  9
$ANGDIR
 70
     0
  9
$PDMODE
 70
     0
  9
$PDSIZE
 40
0.0
  9
$PLINEWID
 40
0.0
  9
$SPLFRAME
 70
     0
  9
$SPLINETYPE
 70
     6
  9
$SPLINESEGS
 70
     8
  9
$HANDSEED
  5
307
  9
$SURFTAB1
 70
     6
  9
$SURFTAB2
 70
     6
  9
$SURFTYPE
 70
     6
  9
$SURFU
 70
     6
  9
$SURFV
 70
     6
  9
$UCSBASE
  2

  9
$UCSNAME
  2

  9
$UCSORG
 10
0.0
 20
0.0
 30
0.0
  9
$UCSXDIR
 10
1.0
 20
0.0
 30
0.0
  9
$UCSYDIR
 10
0.0
 20
1.0
 30
0.0
  9
$UCSORTHOREF
  2

  9
$UCSORTHOVIEW
 70
     0
  9
$UCSORGTOP
 10
0.0
 20
0.0
 30
0.0
  9
$UCSORGBOTTOM
 10
0.0
 20
0.0
 30
0.0
  9
$UCSORGLEFT
 10
0.0
 20
0.0
 30
0.0
  9
$UCSORGRIGHT
 10
0.0
 20
0.0
 30
0.0
  9
$UCSORGFRONT
 10
0.0
 20
0.0
 30
0.0
  9
$UCSORGBACK
 10
0.0
 20
0.0
 30
0.0
  9
$PUCSBASE
  2

  9
$PUCSNAME
  2

  9
$PUCSORG
 10
0.0
 20
0.0
 30
0.0
  9
$PUCSXDIR
 10
1.0
 20
0.0
 30
0.0
  9
$PUCSYDIR
 10
0.0
 20
1.0
 30
0.0
  9
$PUCSORTHOREF
  2

  9
$PUCSORTHOVIEW
 70
     0
  9
$PUCSORGTOP
 10
0.0
 20
0.0
 30
0.0
  9
$PUCSORGBOTTOM
 10
0.0
 20
0.0
 30
0.0
  9
$PUCSORGLEFT
 10
0.0
 20
0.0
 30
0.0
  9
$PUCSORGRIGHT
 10
0.0
 20
0.0
 30
0.0
  9
$PUCSORGFRONT
 10
0.0
 20
0.0
 30
0.0
  9
$PUCSORGBACK
 10
0.0
 20
0.0
 30
0.0
  9
$USERI1
 70
     0
  9
$USERI2
 70
     0
  9
$USERI3
 70
     0
  9
$USERI4
 70
     0
  9
$USERI5
 70
     0
  9
$USERR1
 40
0.0
  9
$USERR2
 40
0.0
  9
$USERR3
 40
0.0
  9
$USERR4
 40
0.0
  9
$USERR5
 40
0.0
  9
$WORLDVIEW
 70
     1
  9
$SHADEDGE
 70
     3
  9
$SHADEDIF
 70
    70
  9
$TILEMODE
 70
     1
  9
$MAXACTVP
 70
    64
  9
$PINSBASE
 10
0.0
 20
0.0
 30
0.0
  9
$PLIMCHECK
 70
     0
  9
$PEXTMIN
 10
1.000000000000000E+20
 20
1.000000000000000E+20
 30
1.000000000000000E+20
  9
$PEXTMAX
 10
-1.000000000000000E+20
 20
-1.000000000000000E+20
 30
-1.000000000000000E+20
  9
$PLIMMIN
 10
-592.0
 20
0.0
  9
$PLIMMAX
 10
0.0
 20
418.0
  9
$UNITMODE
 70
     0
  9
$VISRETAIN
 70
     1
  9
$PLINEGEN
 70
     0
  9
$PSLTSCALE
 70
     1
  9
$TREEDEPTH
 70
  3020
  9
$CMLSTYLE
  2
Standard
  9
$CMLJUST
 70
     0
  9
$CMLSCALE
 40
1.0
  9
$PROXYGRAPHICS
 70
     1
  9
$MEASUREMENT
 70
     0
  9
$CELWEIGHT
370
    -1
  9
$ENDCAPS
280
     0
  9
$JOINSTYLE
280
     0
  9
$LWDISPLAY
290
     0
  9
$INSUNITS
 70
     0
  9
$HYPERLINKBASE
  1

  9
$STYLESHEET
  1

  9
$XEDIT
290
     1
  9
$CEPSNTYPE
380
     0
  9
$PSTYLEMODE
290
     1
  9
$FINGERPRINTGUID
  2
{F4BFDEAA-3131-4D30-B110-38CF42ACCC2E}
  9
$VERSIONGUID
  2
{AD84CECD-F00C-4DF0-82DE-6B999F59F317}
  9
$EXTNAMES
290
     1
  9
$PSVPSCALE
 40
0.0
  9
$OLESTARTUP
290
     0
  9
$SORTENTS
280
   127
  9
$INDEXCTL
280
     0
  9
$HIDETEXT
280
     0
  9
$XCLIPFRAME
290
     0
  9
$HALOGAP
280
     0
  9
$OBSCOLOR
 70
   257
  9
$OBSLTYPE
280
     0
  9
$INTERSECTIONDISPLAY
280
     0
  9
$INTERSECTIONCOLOR
 70
   257
  9
$DIMASSOC
280
     1
  9
$PROJECTNAME
  1

  0
ENDSEC
  0
SECTION
  2
CLASSES
  0
CLASS
  1
ACDBDICTIONARYWDFLT
  2
AcDbDictionaryWithDefault
  3
ObjectDBX Classes
 90
        0
 91
        1
280
     0
281
     0
  0
CLASS
  1
TABLESTYLE
  2
AcDbTableStyle
  3
ObjectDBX Classes
 90
     2047
 91
        1
280
     0
281
     0
  0
CLASS
  1
DICTIONARYVAR
  2
AcDbDictionaryVar
  3
ObjectDBX Classes
 90
        0
 91
        1
280
     0
281
     0
  0
ENDSEC
  0
SECTION
  2
TABLES
  0
TABLE
  2
VPORT
  5
8
330
0
100
AcDbSymbolTable
 70
     2
  0
VPORT
  5
306
330
8
100
AcDbSymbolTableRecord
100
AcDbViewportTableRecord
  2
*Active
 70
     0
 10
0.0
 20
0.0
 11
1.0
 21
1.0
 12
-296.0
 22
209.0
 13
0.0
 23
0.0
 14
1.0
 24
1.0
 15
0.0
 25
0.0
 16
0.0
 26
0.0
 36
1.0
 17
0.0
 27
0.0
 37
0.0
 40
421.2999999999999
 41
1.56258234519104
 42
50.0
 43
0.0
 44
0.0
 50
0.0
 51
0.0
 71
     0
 72
   100
 73
     1
 74
     1
 75
     0
 76
     0
 77
     0
 78
     0
281
     0
 65
     1
110
0.0
120
0.0
130
0.0
111
1.0
121
0.0
131
0.0
112
0.0
122
1.0
132
0.0
 79
     0
146
0.0
  0
ENDTAB
  0
TABLE
  2
LTYPE
  5
5
330
0
100
AcDbSymbolTable
 70
     6
  0
LTYPE
  5
13
330
5
100
AcDbSymbolTableRecord
100
AcDbLinetypeTableRecord
  2
ByBlock
 70
     0
  3

 72
    65
 73
     0
 40
0.0
  0
LTYPE
  5
14
330
5
100
AcDbSymbolTableRecord
100
AcDbLinetypeTableRecord
  2
ByLayer
 70
     0
  3

 72
    65
 73
     0
 40
0.0
  0
LTYPE
  5
15
330
5
100
AcDbSymbolTableRecord
100
AcDbLinetypeTableRecord
  2
CONTINUOUS
 70
     0
  3
Solid line
 72
    65
 73
     0
 40
0.0
  0
LTYPE
  5
26
330
5
100
AcDbSymbolTableRecord
100
AcDbLinetypeTableRecord
  2
DASHED
 70
     0
  3
__ __ __ __ __ __ __ __ __ __ __ __ __ __ __
 72
    65
 73
     2
 40
3.5
 49
2.0
 74
     0
 49
-1.5
 74
     0
  0
LTYPE
  5
27
330
5
100
AcDbSymbolTableRecord
100
AcDbLinetypeTableRecord
  2
CENTER
 70
     0
  3
____ _ ____ _ ____ _ ____ _ ____ _ ____ _ ____
 72
    65
 73
     4
 40
17.5
 49
13.0
 74
     0
 49
-1.5
 74
     0
 49
1.5
 74
     0
 49
-1.5
 74
     0
  0
LTYPE
  5
28
330
5
100
AcDbSymbolTableRecord
100
AcDbLinetypeTableRecord
  2
PHANTOM
 70
     0
  3
_____ _ _ _____ _ _ _____ _ _ _____ _ _ ____  
 72
    65
 73
     6
 40
15.5
 49
8.0
 74
     0
 49
-1.5
 74
     0
 49
1.5
 74
     0
 49
-1.5
 74
     0
 49
1.5
 74
     0
 49
-1.5
 74
     0
  0
LTYPE
  5
29
330
5
100
AcDbSymbolTableRecord
100
AcDbLinetypeTableRecord
  2
DOT
 70
     0
  3
. . . . . . . . . . . . . . . . . . . . . . . .
 72
    65
 73
     2
 40
0.25
 49
0.0
 74
     0
 49
-0.25
 74
     0
  0
LTYPE
  5
2A
330
5
100
AcDbSymbolTableRecord
100
AcDbLinetypeTableRecord
  2
HIDDEN
 70
     0
  3
__ __ __ __ __ __ __ __ __ __ __ __ __ __ __
 72
    65
 73
     2
 40
3.5
 49
2.0
 74
     0
 49
-1.5
 74
     0
  0
ENDTAB
  0
TABLE
  2
LAYER
  5
2
330
0
100
AcDbSymbolTable
 70
     2
  0
LAYER
  5
10
330
2
100
AcDbSymbolTableRecord
100
AcDbLayerTableRecord
  2
0
 70
     0
 62
     7
  6
CONTINUOUS
370
    -3
390
F
  0
LAYER
  5
2B
330
2
100
AcDbSymbolTableRecord
100
AcDbLayerTableRecord
  2
DEFPOINTS
 70
     0
 62
     7
  6
CONTINUOUS
290
     0
370
    -3
390
F
  0
ENDTAB
  0
TABLE
  2
STYLE
  5
3
330
0
100
AcDbSymbolTable
 70
     2
  0
STYLE
  5
11
330
3
100
AcDbSymbolTableRecord
100
AcDbTextStyleTableRecord
  2
STANDARD
 70
     0
 40
0.0
 41
1.0
 50
0.0
 71
     0
 42
0.2
  3

  4

1001
ACAD
1000
MS Gothic
1071
    32817
  0
ENDTAB
  0
TABLE
  2
VIEW
  5
6
330
0
100
AcDbSymbolTable
 70
     0
  0
ENDTAB
  0
TABLE
  2
UCS
  5
7
330
0
100
AcDbSymbolTable
 70
     0
  0
ENDTAB
  0
TABLE
  2
APPID
  5
9
330
0
100
AcDbSymbolTable
 70
     2
  0
APPID
  5
12
330
9
100
AcDbSymbolTableRecord
100
AcDbRegAppTableRecord
  2
ACAD
 70
     0
  0
APPID
  5
2FB
330
9
100
AcDbSymbolTableRecord
100
AcDbRegAppTableRecord
  2
ACAD_PSEXT
 70
     0
  0
ENDTAB
  0
TABLE
  2
DIMSTYLE
  5
A
330
0
100
AcDbSymbolTable
 70
    12
100
AcDbDimStyleTable
 71
     1
340
2C
  0
DIMSTYLE
105
2C
102
{ACAD_REACTORS
330
2EC
102
}
330
A
100
AcDbSymbolTableRecord
100
AcDbDimStyleTableRecord
  2
DIMSTYLE1
 70
     0
 41
1.0
 42
2.54
 44
2.54
 73
     0
 74
     0
 77
     1
140
3.0
145
1.0
147
1.5
172
     1
173
     1
279
     2
340
11
  0
DIMSTYLE
105
2D
102
{ACAD_REACTORS
330
2ED
102
}
330
A
100
AcDbSymbolTableRecord
100
AcDbDimStyleTableRecord
  2
DIMSTYLE2
 70
     0
 41
1.0
 42
2.54
 44
2.54
 73
     0
 74
     0
 77
     1
140
3.0
145
1.0
147
1.5
172
     1
173
     1
279
     2
340
11
  0
DIMSTYLE
105
2E
102
{ACAD_REACTORS
330
2EE
102
}
330
A
100
AcDbSymbolTableRecord
100
AcDbDimStyleTableRecord
  2
DIMSTYLE3
 70
     0
 41
1.0
 42
2.54
 44
2.54
 73
     0
 74
     0
 77
     1
140
3.0
145
1.0
147
1.5
172
     1
173
     1
279
     2
340
11
  0
DIMSTYLE
105
2F
102
{ACAD_REACTORS
330
2EF
102
}
330
A
100
AcDbSymbolTableRecord
100
AcDbDimStyleTableRecord
  2
DIMSTYLE4
 70
     0
 41
1.0
 42
2.54
 44
2.54
 73
     0
 74
     0
 77
     1
140
3.0
145
1.0
147
1.5
172
     1
173
     1
279
     2
340
11
  0
DIMSTYLE
105
30
102
{ACAD_REACTORS
330
2F0
102
}
330
A
100
AcDbSymbolTableRecord
100
AcDbDimStyleTableRecord
  2
DIMSTYLE5
 70
     0
 41
1.0
 42
2.54
 44
2.54
 73
     0
 74
     0
 77
     1
140
3.0
145
1.0
147
1.5
172
     1
173
     1
279
     2
340
11
  0
DIMSTYLE
105
31
102
{ACAD_REACTORS
330
2F2
102
}
330
A
100
AcDbSymbolTableRecord
100
AcDbDimStyleTableRecord
  2
DIMSTYLE6
 70
     0
 41
1.0
 42
2.54
 44
2.54
 73
     0
 74
     0
 77
     1
140
3.0
145
1.0
147
1.5
172
     1
173
     1
279
     2
340
11
  0
DIMSTYLE
105
32
102
{ACAD_REACTORS
330
2F3
102
}
330
A
100
AcDbSymbolTableRecord
100
AcDbDimStyleTableRecord
  2
DIMSTYLE7
 70
     0
 41
1.0
 42
2.54
 44
2.54
 73
     0
 74
     0
 77
     1
140
3.0
145
1.0
147
1.5
172
     1
173
     1
279
     2
340
11
  0
DIMSTYLE
105
33
102
{ACAD_REACTORS
330
2F5
102
}
330
A
100
AcDbSymbolTableRecord
100
AcDbDimStyleTableRecord
  2
DIMSTYLE8
 70
     0
 41
1.0
 42
2.54
 44
2.54
 73
     0
 74
     0
 77
     1
140
3.0
145
1.0
147
1.5
172
     1
173
     1
279
     2
340
11
  0
DIMSTYLE
105
34
102
{ACAD_REACTORS
330
2F6
102
}
330
A
100
AcDbSymbolTableRecord
100
AcDbDimStyleTableRecord
  2
DIMSTYLE9
 70
     0
 41
1.0
 42
2.54
 44
2.54
 73
     0
 74
     0
 75
     1
 76
     1
 77
     1
140
3.0
145
1.0
147
1.5
172
     1
173
     1
279
     2
340
11
  0
DIMSTYLE
105
35
102
{ACAD_REACTORS
330
2F7
102
}
330
A
100
AcDbSymbolTableRecord
100
AcDbDimStyleTableRecord
  2
DIMSTYLE10
 70
     0
 41
1.0
 42
2.54
 44
2.54
 73
     0
 74
     0
 75
     1
 76
     1
 77
     1
140
3.0
145
1.0
147
1.5
172
     1
173
     1
279
     2
340
11
  0
DIMSTYLE
105
36
102
{ACAD_REACTORS
330
2F8
102
}
330
A
100
AcDbSymbolTableRecord
100
AcDbDimStyleTableRecord
  2
DIMSTYLE11
 70
     0
 41
1.0
 42
2.54
 44
2.54
 73
     0
 74
     0
 75
     1
 76
     1
 77
     1
140
3.0
145
1.0
147
1.5
172
     1
173
     1
279
     2
340
11
  0
ENDTAB
  0
TABLE
  2
BLOCK_RECORD
  5
1
330
0
100
AcDbSymbolTable
 70
    15
  0
BLOCK_RECORD
  5
22
330
1
100
AcDbSymbolTableRecord
100
AcDbBlockTableRecord
  2
*Model_Space
340
25
  0
BLOCK_RECORD
  5
1E
330
1
100
AcDbSymbolTableRecord
100
AcDbBlockTableRecord
  2
*Paper_Space
340
21
  0
BLOCK_RECORD
  5
3A
330
1
100
AcDbSymbolTableRecord
100
AcDbBlockTableRecord
  2
_OPEN30
340
0
102
{BLKREFS
331
44
331
46
331
51
331
52
331
5D
331
5E
331
69
331
6A
331
74
331
75
331
7F
331
80
331
8B
331
8C
331
96
331
97
331
A1
331
A2
331
AB
331
AC
331
B5
331
B6
102
}
  0
BLOCK_RECORD
  5
40
330
1
100
AcDbSymbolTableRecord
100
AcDbBlockTableRecord
  2
*D1
340
0
  0
BLOCK_RECORD
  5
4E
330
1
100
AcDbSymbolTableRecord
100
AcDbBlockTableRecord
  2
*D2
340
0
  0
BLOCK_RECORD
  5
5A
330
1
100
AcDbSymbolTableRecord
100
AcDbBlockTableRecord
  2
*D3
340
0
  0
BLOCK_RECORD
  5
66
330
1
100
AcDbSymbolTableRecord
100
AcDbBlockTableRecord
  2
*D4
340
0
  0
BLOCK_RECORD
  5
71
330
1
100
AcDbSymbolTableRecord
100
AcDbBlockTableRecord
  2
*D5
340
0
  0
BLOCK_RECORD
  5
7C
330
1
100
AcDbSymbolTableRecord
100
AcDbBlockTableRecord
  2
*D6
340
0
  0
BLOCK_RECORD
  5
88
330
1
100
AcDbSymbolTableRecord
100
AcDbBlockTableRecord
  2
*D7
340
0
  0
BLOCK_RECORD
  5
93
330
1
100
AcDbSymbolTableRecord
100
AcDbBlockTableRecord
  2
*D8
340
0
  0
BLOCK_RECORD
  5
9D
330
1
100
AcDbSymbolTableRecord
100
AcDbBlockTableRecord
  2
*D9
340
0
  0
BLOCK_RECORD
  5
A7
330
1
100
AcDbSymbolTableRecord
100
AcDbBlockTableRecord
  2
*D10
340
0
  0
BLOCK_RECORD
  5
B1
330
1
100
AcDbSymbolTableRecord
100
AcDbBlockTableRecord
  2
*D11
340
0
  0
BLOCK_RECORD
  5
BB
330
1
100
AcDbSymbolTableRecord
100
AcDbBlockTableRecord
  2
KOZU0001
340
0
102
{BLKREFS
331
2F1
102
}
  0
BLOCK_RECORD
  5
C4
330
1
100
AcDbSymbolTableRecord
100
AcDbBlockTableRecord
  2
KOZU0002
340
0
102
{BLKREFS
331
2F4
102
}
  0
ENDTAB
  0
ENDSEC
  0
SECTION
  2
BLOCKS
  0
BLOCK
  5
23
330
22
100
AcDbEntity
  8
0
100
AcDbBlockBegin
  2
*Model_Space
 70
     0
 10
0.0
 20
0.0
 30
0.0
  3
*Model_Space
  1

  0
ENDBLK
  5
24
330
22
100
AcDbEntity
  8
0
100
AcDbBlockEnd
  0
BLOCK
  5
1F
330
1E
100
AcDbEntity
 67
     1
  8
0
100
AcDbBlockBegin
  2
*Paper_Space
 70
     0
 10
0.0
 20
0.0
 30
0.0
  3
*Paper_Space
  1

  0
ENDBLK
  5
20
330
1E
100
AcDbEntity
 67
     1
  8
0
100
AcDbBlockEnd
  0
BLOCK
  5
3B
330
3A
100
AcDbEntity
  8
0
100
AcDbBlockBegin
  2
_OPEN30
 70
     0
 10
0.0
 20
0.0
 30
0.0
  3
_OPEN30
  1

  0
LINE
  5
3C
330
3A
100
AcDbEntity
  8
0
  6
ByBlock
 62
     0
100
AcDbLine
 10
0.0
 20
0.0
 30
0.0
 11
-2.999999999999993
 21
-1.000000000000017
 31
0.0
  0
LINE
  5
3D
330
3A
100
AcDbEntity
  8
0
  6
ByBlock
 62
     0
100
AcDbLine
 10
0.0
 20
0.0
 30
0.0
 11
-3.000000000000006
 21
0.9999999999999815
 31
0.0
  0
LINE
  5
3E
330
3A
100
AcDbEntity
  8
0
  6
ByBlock
 62
     0
100
AcDbLine
 10
0.0
 20
0.0
 30
0.0
 11
-3.0
 21
0.0
 31
0.0
  0
ENDBLK
  5
3F
330
3A
100
AcDbEntity
  8
0
100
AcDbBlockEnd
  0
BLOCK
  5
41
330
40
100
AcDbEntity
  8
0
100
AcDbBlockBegin
  2
*D1
 70
     1
 10
0.0
 20
0.0
 30
0.0
  3
*D1
  1

  0
LINE
  5
42
330
40
100
AcDbEntity
  8
0
  6
Continuous
 62
     7
100
AcDbLine
 10
-155.4337768554688
 20
326.4947814941406
 30
0.0
 11
-142.2024230957031
 21
326.4947814941406
 31
0.0
  0
LINE
  5
43
330
40
100
AcDbEntity
  8
0
  6
Continuous
 62
     7
100
AcDbLine
 10
-158.9337768554688
 20
326.4947814941406
 30
0.0
 11
-155.4337768554688
 21
326.4947814941406
 31
0.0
  0
INSERT
  5
44
330
40
100
AcDbEntity
  8
0
  6
Continuous
 62
     7
100
AcDbBlockReference
  2
_OPEN30
 10
-158.9337768554688
 20
326.4947814941406
 30
0.0
 50
0.0000000000003562
  0
LINE
  5
45
330
40
100
AcDbEntity
  8
0
  6
Continuous
 62
     7
100
AcDbLine
 10
-161.9337768554688
 20
326.4947814941406
 30
0.0
 11
-165.2837768554687
 21
326.4947814941406
 31
0.0
  0
INSERT
  5
46
330
40
100
AcDbEntity
  8
0
  6
Continuous
 62
     7
100
AcDbBlockReference
  2
_OPEN30
 10
-155.4337768554688
 20
326.4947814941406
 30
0.0
 50
180.0
  0
LINE
  5
47
330
40
100
AcDbEntity
  8
0
  6
Continuous
 62
     7
100
AcDbLine
 10
-152.4337768554688
 20
326.4947814941406
 30
0.0
 11
-149.0837768554688
 21
326.4947814941406
 31
0.0
  0
LINE
  5
48
330
40
100
AcDbEntity
  8
0
  6
Continuous
 62
     7
100
AcDbLine
 10
-155.4337768554688
 20
298.4079504394532
 30
0.0
 11
-155.4337768554688
 21
328.7807922363281
 31
0.0
  0
TEXT
  5
49
330
40
100
AcDbEntity
  8
0
  6
Continuous
 62
     7
100
AcDbText
 10
-150.3424153327942
 20
327.2447814941406
 30
0.0
 40
3.0
  1
3.5
 41
1.356666684150696
100
AcDbText
  0
POINT
  5
4A
330
40
100
AcDbEntity
  8
DEFPOINTS
  6
Continuous
 62
     7
100
AcDbPoint
 10
-158.9337768554688
 20
321.1948547363281
 30
0.0
  0
POINT
  5
4B
330
40
100
AcDbEntity
  8
DEFPOINTS
  6
Continuous
 62
     7
100
AcDbPoint
 10
-155.4337768554688
 20
295.8679504394531
 30
0.0
  0
POINT
  5
4C
330
40
100
AcDbEntity
  8
DEFPOINTS
  6
Continuous
 62
     7
100
AcDbPoint
 10
-155.4337768554688
 20
326.4947814941406
 30
0.0
  0
ENDBLK
  5
4D
330
40
100
AcDbEntity
  8
0
100
AcDbBlockEnd
  0
BLOCK
  5
4F
330
4E
100
AcDbEntity
  8
0
100
AcDbBlockBegin
  2
*D2
 70
     1
 10
0.0
 20
0.0
 30
0.0
  3
*D2
  1

  0
LINE
  5
50
330
4E
100
AcDbEntity
  8
0
  6
Continuous
 62
     7
100
AcDbLine
 10
-100.0477828979492
 20
174.8679351806641
 30
0.0
 11
-100.0477828979492
 21
251.8679351806641
 31
0.0
  0
INSERT
  5
51
330
4E
100
AcDbEntity
  8
0
  6
Continuous
 62
     7
100
AcDbBlockReference
  2
_OPEN30
 10
-100.0477828979492
 20
171.8679351806641
 30
0.0
 50
270.0000000000005
  0
INSERT
  5
52
330
4E
100
AcDbEntity
  8
0
  6
Continuous
 62
     7
100
AcDbBlockReference
  2
_OPEN30
 10
-100.0477828979492
 20
254.8679351806641
 30
0.0
 50
90.00000000000019
  0
LINE
  5
53
330
4E
100
AcDbEntity
  8
0
  6
Continuous
 62
     7
100
AcDbLine
 10
-121.3937692260742
 20
171.8679351806641
 30
0.0
 11
-97.76177978515624
 21
171.8679351806641
 31
0.0
  0
LINE
  5
54
330
4E
100
AcDbEntity
  8
0
  6
Continuous
 62
     7
100
AcDbLine
 10
-121.3937692260742
 20
254.8679351806641
 30
0.0
 11
-97.76177978515624
 21
254.8679351806641
 31
0.0
  0
TEXT
  5
55
330
4E
100
AcDbEntity
  8
0
  6
Continuous
 62
     7
100
AcDbText
 10
-100.7977827200439
 20
209.2979349762192
 30
0.0
 40
3.0
  1
%%C83
 50
90.00000250447815
 41
0.9498249830693319
100
AcDbText
  0
POINT
  5
56
330
4E
100
AcDbEntity
  8
DEFPOINTS
  6
Continuous
 62
     7
100
AcDbPoint
 10
-123.9337692260742
 20
171.8679351806641
 30
0.0
  0
POINT
  5
57
330
4E
100
AcDbEntity
  8
DEFPOINTS
  6
Continuous
 62
     7
100
AcDbPoint
 10
-123.9337692260742
 20
254.8679351806641
 30
0.0
  0
POINT
  5
58
330
4E
100
AcDbEntity
  8
DEFPOINTS
  6
Continuous
 62
     7
100
AcDbPoint
 10
-100.0477828979492
 20
254.8679351806641
 30
0.0
  0
ENDBLK
  5
59
330
4E
100
AcDbEntity
  8
0
100
AcDbBlockEnd
  0
BLOCK
  5
5B
330
5A
100
AcDbEntity
  8
0
100
AcDbBlockBegin
  2
*D3
 70
     1
 10
0.0
 20
0.0
 30
0.0
  3
*D3
  1

  0
LINE
  5
5C
330
5A
100
AcDbEntity
  8
0
  6
Continuous
 62
     7
100
AcDbLine
 10
-187.9337768554688
 20
103.1627349853516
 30
0.0
 11
-125.9337692260742
 21
103.1627349853516
 31
0.0
  0
INSERT
  5
5D
330
5A
100
AcDbEntity
  8
0
  6
Continuous
 62
     7
100
AcDbBlockReference
  2
_OPEN30
 10
-190.9337768554688
 20
103.1627349853516
 30
0.0
 50
180.0000000000004
  0
INSERT
  5
5E
330
5A
100
AcDbEntity
  8
0
  6
Continuous
 62
     7
100
AcDbBlockReference
  2
_OPEN30
 10
-122.9337692260742
 20
103.1627349853516
 30
0.0
  0
LINE
  5
5F
330
5A
100
AcDbEntity
  8
0
  6
Continuous
 62
     7
100
AcDbLine
 10
-190.9337768554686
 20
170.8279351806641
 30
0.0
 11
-190.9337768554688
 21
100.8767318725586
 31
0.0
  0
LINE
  5
60
330
5A
100
AcDbEntity
  8
0
  6
Continuous
 62
     7
100
AcDbLine
 10
-122.9337692260742
 20
170.3279351806641
 30
0.0
 11
-122.9337692260742
 21
100.8767318725586
 31
0.0
  0
TEXT
  5
61
330
5A
100
AcDbEntity
  8
0
  6
Continuous
 62
     7
100
AcDbText
 10
-159.5037769675255
 20
103.9127349853516
 30
0.0
 40
3.0
  1
68
 41
1.028000020980834
100
AcDbText
  0
POINT
  5
62
330
5A
100
AcDbEntity
  8
DEFPOINTS
  6
Continuous
 62
     7
100
AcDbPoint
 10
-190.9337768554688
 20
173.3679351806641
 30
0.0
  0
POINT
  5
63
330
5A
100
AcDbEntity
  8
DEFPOINTS
  6
Continuous
 62
     7
100
AcDbPoint
 10
-122.9337692260742
 20
172.8679351806641
 30
0.0
  0
POINT
  5
64
330
5A
100
AcDbEntity
  8
DEFPOINTS
  6
Continuous
 62
     7
100
AcDbPoint
 10
-122.9337692260742
 20
103.1627349853516
 30
0.0
  0
ENDBLK
  5
65
330
5A
100
AcDbEntity
  8
0
100
AcDbBlockEnd
  0
BLOCK
  5
67
330
66
100
AcDbEntity
  8
0
100
AcDbBlockBegin
  2
*D4
 70
     1
 10
0.0
 20
0.0
 30
0.0
  3
*D4
  1

  0
LINE
  5
68
330
66
100
AcDbEntity
  8
0
  6
Continuous
 62
     7
100
AcDbLine
 10
-129.4708404541015
 20
168.8679351806641
 30
0.0
 11
-129.4708404541016
 21
158.8679351806641
 31
0.0
  0
INSERT
  5
69
330
66
100
AcDbEntity
  8
0
  6
Continuous
 62
     7
100
AcDbBlockReference
  2
_OPEN30
 10
-129.4708404541016
 20
171.8679351806641
 30
0.0
 50
90.00000000000019
  0
INSERT
  5
6A
330
66
100
AcDbEntity
  8
0
  6
Continuous
 62
     7
100
AcDbBlockReference
  2
_OPEN30
 10
-129.4708404541016
 20
155.8679351806641
 30
0.0
 50
270.0000000000005
  0
LINE
  5
6B
330
66
100
AcDbEntity
  8
0
  6
Continuous
 62
     7
100
AcDbLine
 10
-151.3928002929688
 20
155.8679351806641
 30
0.0
 11
-127.1848373413086
 21
155.8679351806641
 31
0.0
  0
TEXT
  5
6C
330
66
100
AcDbEntity
  8
0
  6
Continuous
 62
     7
100
AcDbText
 10
-130.2208403417633
 20
161.2979350358238
 30
0.0
 40
3.0
  1
16
 50
90.00000250447815
 41
1.285000026226043
100
AcDbText
  0
POINT
  5
6D
330
66
100
AcDbEntity
  8
DEFPOINTS
  6
Continuous
 62
     7
100
AcDbPoint
 10
-123.9337692260742
 20
171.8679351806641
 30
0.0
  0
POINT
  5
6E
330
66
100
AcDbEntity
  8
DEFPOINTS
  6
Continuous
 62
     7
100
AcDbPoint
 10
-153.9328002929688
 20
155.8679351806641
 30
0.0
  0
POINT
  5
6F
330
66
100
AcDbEntity
  8
DEFPOINTS
  6
Continuous
 62
     7
100
AcDbPoint
 10
-129.4708404541016
 20
155.8679351806641
 30
0.0
  0
ENDBLK
  5
70
330
66
100
AcDbEntity
  8
0
100
AcDbBlockEnd
  0
BLOCK
  5
72
330
71
100
AcDbEntity
  8
0
100
AcDbBlockBegin
  2
*D5
 70
     1
 10
0.0
 20
0.0
 30
0.0
  3
*D5
  1

  0
LINE
  5
73
330
71
100
AcDbEntity
  8
0
  6
Continuous
 62
     7
100
AcDbLine
 10
-152.4337768554688
 20
142.9378051757813
 30
0.0
 11
-140.4337768554688
 21
142.9378051757812
 31
0.0
  0
INSERT
  5
74
330
71
100
AcDbEntity
  8
0
  6
Continuous
 62
     7
100
AcDbBlockReference
  2
_OPEN30
 10
-155.4337768554688
 20
142.9378051757813
 30
0.0
 50
180.0000000000004
  0
INSERT
  5
75
330
71
100
AcDbEntity
  8
0
  6
Continuous
 62
     7
100
AcDbBlockReference
  2
_OPEN30
 10
-137.4337768554688
 20
142.9378051757813
 30
0.0
  0
LINE
  5
76
330
71
100
AcDbEntity
  8
0
  6
Continuous
 62
     7
100
AcDbLine
 10
-137.4337768554687
 20
167.3279351806641
 30
0.0
 11
-137.4337768554688
 21
140.6518096923828
 31
0.0
  0
TEXT
  5
77
330
71
100
AcDbEntity
  8
0
  6
Continuous
 62
     7
100
AcDbText
 10
-149.0037769675255
 20
143.6878051757813
 30
0.0
 40
3.0
  1
18
 41
1.285000026226043
100
AcDbText
  0
POINT
  5
78
330
71
100
AcDbEntity
  8
DEFPOINTS
  6
Continuous
 62
     7
100
AcDbPoint
 10
-155.4337768554688
 20
122.8679351806641
 30
0.0
  0
POINT
  5
79
330
71
100
AcDbEntity
  8
DEFPOINTS
  6
Continuous
 62
     7
100
AcDbPoint
 10
-137.4337768554688
 20
169.8679351806641
 30
0.0
  0
POINT
  5
7A
330
71
100
AcDbEntity
  8
DEFPOINTS
  6
Continuous
 62
     7
100
AcDbPoint
 10
-137.4337768554688
 20
142.9378051757813
 30
0.0
  0
ENDBLK
  5
7B
330
71
100
AcDbEntity
  8
0
100
AcDbBlockEnd
  0
BLOCK
  5
7D
330
7C
100
AcDbEntity
  8
0
100
AcDbBlockBegin
  2
*D6
 70
     1
 10
0.0
 20
0.0
 30
0.0
  3
*D6
  1

  0
LINE
  5
7E
330
7C
100
AcDbEntity
  8
0
  6
Continuous
 62
     7
100
AcDbLine
 10
-234.9337768554689
 20
326.4947814941406
 30
0.0
 11
-161.9337768554688
 21
326.4947814941406
 31
0.0
  0
INSERT
  5
7F
330
7C
100
AcDbEntity
  8
0
  6
Continuous
 62
     7
100
AcDbBlockReference
  2
_OPEN30
 10
-237.9337768554688
 20
326.4947814941406
 30
0.0
 50
180.0000000000004
  0
INSERT
  5
80
330
7C
100
AcDbEntity
  8
0
  6
Continuous
 62
     7
100
AcDbBlockReference
  2
_OPEN30
 10
-158.9337768554688
 20
326.4947814941406
 30
0.0
  0
LINE
  5
81
330
7C
100
AcDbEntity
  8
0
  6
Continuous
 62
     7
100
AcDbLine
 10
-237.9337768554688
 20
292.4079504394532
 30
0.0
 11
-237.9337768554688
 21
328.7807922363281
 31
0.0
  0
LINE
  5
82
330
7C
100
AcDbEntity
  8
0
  6
Continuous
 62
     7
100
AcDbLine
 10
-158.9337768554688
 20
303.4661169433594
 30
0.0
 11
-158.9337768554688
 21
328.7807922363281
 31
0.0
  0
TEXT
  5
83
330
7C
100
AcDbEntity
  8
0
  6
Continuous
 62
     7
100
AcDbText
 10
-213.0037774443626
 20
327.2447814941406
 30
0.0
 40
3.0
  1
７９　（７１～８７）
 41
0.8443929326254473
100
AcDbText
  0
POINT
  5
84
330
7C
100
AcDbEntity
  8
DEFPOINTS
  6
Continuous
 62
     7
100
AcDbPoint
 10
-237.9337768554688
 20
289.8679504394531
 30
0.0
  0
POINT
  5
85
330
7C
100
AcDbEntity
  8
DEFPOINTS
  6
Continuous
 62
     7
100
AcDbPoint
 10
-158.9337768554688
 20
300.9261169433594
 30
0.0
  0
POINT
  5
86
330
7C
100
AcDbEntity
  8
DEFPOINTS
  6
Continuous
 62
     7
100
AcDbPoint
 10
-158.9337768554688
 20
326.4947814941406
 30
0.0
  0
ENDBLK
  5
87
330
7C
100
AcDbEntity
  8
0
100
AcDbBlockEnd
  0
BLOCK
  5
89
330
88
100
AcDbEntity
  8
0
100
AcDbBlockBegin
  2
*D7
 70
     1
 10
0.0
 20
0.0
 30
0.0
  3
*D7
  1

  0
LINE
  5
8A
330
88
100
AcDbEntity
  8
0
  6
Continuous
 62
     7
100
AcDbLine
 10
-161.9337768554688
 20
316.0976867675781
 30
0.0
 11
-187.9337768554688
 21
316.0976867675781
 31
0.0
  0
INSERT
  5
8B
330
88
100
AcDbEntity
  8
0
  6
Continuous
 62
     7
100
AcDbBlockReference
  2
_OPEN30
 10
-158.9337768554688
 20
316.0976867675781
 30
0.0
  0
INSERT
  5
8C
330
88
100
AcDbEntity
  8
0
  6
Continuous
 62
     7
100
AcDbBlockReference
  2
_OPEN30
 10
-190.9337768554688
 20
316.0976867675781
 30
0.0
 50
180.0000000000004
  0
LINE
  5
8D
330
88
100
AcDbEntity
  8
0
  6
Continuous
 62
     7
100
AcDbLine
 10
-190.9337768554688
 20
255.9079351806641
 30
0.0
 11
-190.9337768554688
 21
318.3836975097656
 31
0.0
  0
TEXT
  5
8E
330
88
100
AcDbEntity
  8
0
  6
Continuous
 62
     7
100
AcDbText
 10
-177.5037769675255
 20
316.8476867675781
 30
0.0
 40
3.0
  1
32
 41
1.028000020980834
100
AcDbText
  0
POINT
  5
8F
330
88
100
AcDbEntity
  8
DEFPOINTS
  6
Continuous
 62
     7
100
AcDbPoint
 10
-158.9337768554688
 20
328.7807922363281
 30
0.0
  0
POINT
  5
90
330
88
100
AcDbEntity
  8
DEFPOINTS
  6
Continuous
 62
     7
100
AcDbPoint
 10
-190.9337768554688
 20
253.3679351806641
 30
0.0
  0
POINT
  5
91
330
88
100
AcDbEntity
  8
DEFPOINTS
  6
Continuous
 62
     7
100
AcDbPoint
 10
-190.9337768554688
 20
316.0976867675781
 30
0.0
  0
ENDBLK
  5
92
330
88
100
AcDbEntity
  8
0
100
AcDbBlockEnd
  0
BLOCK
  5
94
330
93
100
AcDbEntity
  8
0
100
AcDbBlockBegin
  2
*D8
 70
     1
 10
0.0
 20
0.0
 30
0.0
  3
*D8
  1

  0
LINE
  5
95
330
93
100
AcDbEntity
  8
0
  6
Continuous
 62
     7
100
AcDbLine
 10
-234.9337768554689
 20
224.3941040039064
 30
0.0
 11
-173.9337768554688
 21
224.3941040039062
 31
0.0
  0
INSERT
  5
96
330
93
100
AcDbEntity
  8
0
  6
Continuous
 62
     7
100
AcDbBlockReference
  2
_OPEN30
 10
-237.9337768554688
 20
224.3941040039064
 30
0.0
 50
180.0000000000004
  0
INSERT
  5
97
330
93
100
AcDbEntity
  8
0
  6
Continuous
 62
     7
100
AcDbBlockReference
  2
_OPEN30
 10
-170.9337768554688
 20
224.3941040039064
 30
0.0
  0
TEXT
  5
98
330
93
100
AcDbEntity
  8
0
  6
Continuous
 62
     7
100
AcDbText
 10
-202.6736072897911
 20
225.1441040039063
 30
0.0
 40
3.0
  1
67
 41
1.028000020980834
100
AcDbText
  0
POINT
  5
99
330
93
100
AcDbEntity
  8
DEFPOINTS
  6
Continuous
 62
     7
100
AcDbPoint
 10
-237.9337768554688
 20
289.8679504394531
 30
0.0
  0
POINT
  5
9A
330
93
100
AcDbEntity
  8
DEFPOINTS
  6
Continuous
 62
     7
100
AcDbPoint
 10
-170.9337768554688
 20
228.1120758056641
 30
0.0
  0
POINT
  5
9B
330
93
100
AcDbEntity
  8
DEFPOINTS
  6
Continuous
 62
     7
100
AcDbPoint
 10
-170.9337768554688
 20
224.3941040039064
 30
0.0
  0
ENDBLK
  5
9C
330
93
100
AcDbEntity
  8
0
100
AcDbBlockEnd
  0
BLOCK
  5
9E
330
9D
100
AcDbEntity
  8
0
100
AcDbBlockBegin
  2
*D9
 70
     1
 10
0.0
 20
0.0
 30
0.0
  3
*D9
  1

  0
LINE
  5
9F
330
9D
100
AcDbEntity
  8
0
  6
Continuous
 62
     7
100
AcDbLine
 10
-355.3922119140625
 20
296.3850708007813
 30
0.0
 11
-340.5332336425781
 21
329.4815368652344
 31
0.0
  0
LINE
  5
A0
330
9D
100
AcDbEntity
  8
0
  6
Continuous
 62
     7
100
AcDbLine
 10
-428.7062703421873
 20
133.0876431712174
 30
0.0
 11
-356.6209391304688
 21
293.6482424488997
 31
0.0
  0
INSERT
  5
A1
330
9D
100
AcDbEntity
  8
0
  6
Continuous
 62
     7
100
AcDbBlockReference
  2
_OPEN30
 10
-429.9349975585938
 20
130.3508148193359
 30
0.0
 50
245.8218138356156
  0
INSERT
  5
A2
330
9D
100
AcDbEntity
  8
0
  6
Continuous
 62
     7
100
AcDbBlockReference
  2
_OPEN30
 10
-355.3922119140625
 20
296.3850708007813
 30
0.0
 50
65.82181383561493
  0
TEXT
  5
A3
330
9D
100
AcDbEntity
  8
0
  6
Continuous
 62
     7
100
AcDbText
 10
-354.3866657520407
 20
300.4709299317845
 30
0.0
 40
3.0
  1
%%C１８２（防水皿外径）
 50
65.800000237341
 41
0.8440126077968535
100
AcDbText
  0
POINT
  5
A4
330
9D
100
AcDbEntity
  8
DEFPOINTS
  6
Continuous
 62
     7
100
AcDbPoint
 10
-429.9349975585938
 20
130.3508148193359
 30
0.0
  0
POINT
  5
A5
330
9D
100
AcDbEntity
  8
DEFPOINTS
  6
Continuous
 62
     7
100
AcDbPoint
 10
-355.3922119140625
 20
296.3850708007813
 30
0.0
  0
ENDBLK
  5
A6
330
9D
100
AcDbEntity
  8
0
100
AcDbBlockEnd
  0
BLOCK
  5
A8
330
A7
100
AcDbEntity
  8
0
100
AcDbBlockBegin
  2
*D10
 70
     1
 10
0.0
 20
0.0
 30
0.0
  3
*D10
  1

  0
LINE
  5
A9
330
A7
100
AcDbEntity
  8
0
  6
Continuous
 62
     7
100
AcDbLine
 10
-344.5586853027344
 20
274.1311340332031
 30
0.0
 11
-313.393798828125
 21
313.4966735839844
 31
0.0
  0
LINE
  5
AA
330
A7
100
AcDbEntity
  8
0
  6
Continuous
 62
     7
100
AcDbLine
 10
-438.9064282064348
 20
154.9568750888832
 30
0.0
 11
-346.4208117837995
 21
271.779010531234
 31
0.0
  0
INSERT
  5
AB
330
A7
100
AcDbEntity
  8
0
  6
Continuous
 62
     7
100
AcDbBlockReference
  2
_OPEN30
 10
-440.7685546875
 20
152.6047515869141
 30
0.0
 50
231.6320847265262
  0
INSERT
  5
AC
330
A7
100
AcDbEntity
  8
0
  6
Continuous
 62
     7
100
AcDbBlockReference
  2
_OPEN30
 10
-344.5586853027344
 20
274.1311340332031
 30
0.0
 50
51.63208472652546
  0
TEXT
  5
AD
330
A7
100
AcDbEntity
  8
0
  6
Continuous
 62
     7
100
AcDbText
 10
-333.9382067632639
 20
288.7690318250108
 30
0.0
 40
3.0
  1
%%C１５５（目皿受外径）
 50
51.59999938684407
 41
0.8440126077968535
100
AcDbText
  0
POINT
  5
AE
330
A7
100
AcDbEntity
  8
DEFPOINTS
  6
Continuous
 62
     7
100
AcDbPoint
 10
-440.7685546875
 20
152.6047515869141
 30
0.0
  0
POINT
  5
AF
330
A7
100
AcDbEntity
  8
DEFPOINTS
  6
Continuous
 62
     7
100
AcDbPoint
 10
-344.5586853027344
 20
274.1311340332031
 30
0.0
  0
ENDBLK
  5
B0
330
A7
100
AcDbEntity
  8
0
100
AcDbBlockEnd
  0
BLOCK
  5
B2
330
B1
100
AcDbEntity
  8
0
100
AcDbBlockBegin
  2
*D11
 70
     1
 10
0.0
 20
0.0
 30
0.0
  3
*D11
  1

  0
LINE
  5
B3
330
B1
100
AcDbEntity
  8
0
  6
Continuous
 62
     7
100
AcDbLine
 10
-341.380615234375
 20
256.425994873047
 30
0.0
 11
-296.9755859375
 21
293.6734313964844
 31
0.0
  0
LINE
  5
B4
330
B1
100
AcDbEntity
  8
0
  6
Continuous
 62
     7
100
AcDbLine
 10
-441.7467056678177
 20
172.2378485248036
 30
0.0
 11
-343.6790755821824
 21
254.4980218365245
 31
0.0
  0
INSERT
  5
B5
330
B1
100
AcDbEntity
  8
0
  6
Continuous
 62
     7
100
AcDbBlockReference
  2
_OPEN30
 10
-444.045166015625
 20
170.3098754882813
 30
0.0
 50
219.9902826010805
  0
INSERT
  5
B6
330
B1
100
AcDbEntity
  8
0
  6
Continuous
 62
     7
100
AcDbBlockReference
  2
_OPEN30
 10
-341.380615234375
 20
256.425994873047
 30
0.0
 50
39.99028260107979
  0
TEXT
  5
B7
330
B1
100
AcDbEntity
  8
0
  6
Continuous
 62
     7
100
AcDbText
 10
-319.7817866075376
 20
275.5190237229987
 30
0.0
 40
3.0
  1
%%C１３４（目皿外径）
 50
39.99999883637168
 41
0.8443929326254473
100
AcDbText
  0
POINT
  5
B8
330
B1
100
AcDbEntity
  8
DEFPOINTS
  6
Continuous
 62
     7
100
AcDbPoint
 10
-444.045166015625
 20
170.3098754882813
 30
0.0
  0
POINT
  5
B9
330
B1
100
AcDbEntity
  8
DEFPOINTS
  6
Continuous
 62
     7
100
AcDbPoint
 10
-341.380615234375
 20
256.425994873047
 30
0.0
  0
ENDBLK
  5
BA
330
B1
100
AcDbEntity
  8
0
100
AcDbBlockEnd
  0
BLOCK
  5
BC
330
BB
100
AcDbEntity
  8
0
100
AcDbBlockBegin
  2
KOZU0001
 70
     0
 10
0.0
 20
0.0
 30
0.0
  3
KOZU0001
  1

  0
LINE
  5
BD
330
BB
100
AcDbEntity
  8
0
  6
Continuous
 62
     7
100
AcDbLine
 10
0.0
 20
0.0
 30
0.0
 11
35.70999145507813
 21
-41.68720245361328
 31
0.0
  0
LINE
  5
BE
330
BB
100
AcDbEntity
  8
0
  6
Continuous
 62
     7
100
AcDbLine
 10
35.70999145507813
 20
-41.68720245361328
 30
0.0
 11
62.34956359863281
 21
-41.68720245361328
 31
0.0
  0
LINE
  5
BF
330
BB
100
AcDbEntity
  8
0
  6
Continuous
 62
     7
100
AcDbLine
 10
0.0
 20
0.0
 30
0.0
 11
2.711137832197634
 21
-1.627799635958525
 31
0.0
  0
LINE
  5
C0
330
BB
100
AcDbEntity
  8
0
  6
Continuous
 62
     7
100
AcDbLine
 10
0.0
 20
0.0
 30
0.0
 11
1.192230484182992
 21
-2.928922408085401
 31
0.0
  0
TEXT
  5
C1
330
BB
100
AcDbEntity
  8
0
  6
Continuous
 62
     7
100
AcDbText
 10
37.48956227302551
 20
-40.93720245361327
 30
0.0
 40
3.0
  1
共廻り防止用羽根
 41
0.8454512278006642
100
AcDbText
  0
TEXT
  5
C2
330
BB
100
AcDbEntity
  8
0
  6
Continuous
 62
     7
100
AcDbText
 10
37.48956227302551
 20
-46.20220245361328
 30
0.0
 40
3.0
  1
３ヶ所
 41
0.8550420278260688
100
AcDbText
  0
ENDBLK
  5
C3
330
BB
100
AcDbEntity
  8
0
100
AcDbBlockEnd
  0
BLOCK
  5
C5
330
C4
100
AcDbEntity
  8
0
100
AcDbBlockBegin
  2
KOZU0002
 70
     0
 10
0.0
 20
0.0
 30
0.0
  3
KOZU0002
  1

  0
LINE
  5
C6
330
C4
100
AcDbEntity
  8
0
  6
Continuous
 62
     7
100
AcDbLine
 10
0.0
 20
0.0
 30
0.0
 11
37.85706329345703
 21
33.5892333984375
 31
0.0
  0
LINE
  5
C7
330
C4
100
AcDbEntity
  8
0
  6
Continuous
 62
     7
100
AcDbLine
 10
37.85706329345703
 20
33.5892333984375
 30
0.0
 11
78.22145843505859
 21
33.5892333984375
 31
0.0
  0
LINE
  5
C8
330
C4
100
AcDbEntity
  8
0
  6
Continuous
 62
     7
100
AcDbLine
 10
0.0
 20
0.0
 30
0.0
 11
1.580352045677195
 21
2.739066887048197
 31
0.0
  0
LINE
  5
C9
330
C4
100
AcDbEntity
  8
0
  6
Continuous
 62
     7
100
AcDbLine
 10
0.0
 20
0.0
 30
0.0
 11
2.907721768770675
 21
1.243042282232241
 31
0.0
  0
TEXT
  5
CA
330
C4
100
AcDbEntity
  8
0
  6
Continuous
 62
     7
100
AcDbText
 10
41.36145710945128
 20
34.3392333984375
 30
0.0
 40
3.0
  1
配管接続口
 41
0.8487395020950888
100
AcDbText
  0
TEXT
  5
CB
330
C4
100
AcDbEntity
  8
0
  6
Continuous
 62
     7
100
AcDbText
 10
41.36145710945128
 20
29.0742333984375
 30
0.0
 40
3.0
  1
Ｒｃ２　１／２（６５Ａ）
 41
0.8436974815103043
100
AcDbText
  0
ENDBLK
  5
CC
330
C4
100
AcDbEntity
  8
0
100
AcDbBlockEnd
  0
ENDSEC
  0
SECTION
  2
ENTITIES
  0
POINT
  5
CD
330
22
100
AcDbEntity
  8
0
  6
Continuous
 62
     7
100
AcDbPoint
 10
-155.4337768554688
 20
213.3679351806641
 30
0.0
  0
POINT
  5
CE
330
22
100
AcDbEntity
  8
0
  6
Continuous
 62
     7
100
AcDbPoint
 10
-392.6636047363281
 20
213.3679351806641
 30
0.0
  0
POINT
  5
CF
330
22
100
AcDbEntity
  8
0
  6
Continuous
 62
     7
100
AcDbPoint
 10
-122.9337692260742
 20
250.9579315185547
 30
0.0
  0
POINT
  5
D0
330
22
100
AcDbEntity
  8
0
  6
Continuous
 62
     7
100
AcDbPoint
 10
-154.3647766113281
 20
249.9756622314453
 30
0.0
  0
POINT
  5
D1
330
22
100
AcDbEntity
  8
0
  6
Continuous
 62
     7
100
AcDbPoint
 10
-122.9337692260742
 20
249.9756622314453
 30
0.0
  0
POINT
  5
D2
330
22
100
AcDbEntity
  8
0
  6
Continuous
 62
     7
100
AcDbPoint
 10
-138.6492767333984
 20
250.466796875
 30
0.0
  0
LINE
  5
D3
330
22
100
AcDbEntity
  8
0
  6
Continuous
 62
     7
100
AcDbLine
 10
-155.4337768554688
 20
255.8679351806641
 30
0.0
 11
-155.4337768554688
 21
303.8679504394531
 31
0.0
  0
LINE
  5
D4
330
22
100
AcDbEntity
  8
0
  6
Continuous
 62
     7
100
AcDbLine
 10
-155.9337768554688
 20
304.3679504394531
 30
0.0
 11
-156.9337768554688
 21
304.3679504394531
 31
0.0
  0
LINE
  5
D5
330
22
100
AcDbEntity
  8
0
  6
Continuous
 62
     7
100
AcDbLine
 10
-160.4087677001953
 20
249.4829406738281
 30
0.0
 11
-158.9337768554688
 21
250.9579315185547
 31
0.0
  0
LINE
  5
D6
330
22
100
AcDbEntity
  8
0
  6
Continuous
 62
     7
100
AcDbLine
 10
-158.9337768554688
 20
259.3679504394531
 30
0.0
 11
-158.9337768554688
 21
302.3679504394531
 31
0.0
  0
LINE
  5
D7
330
22
100
AcDbEntity
  8
0
  6
Continuous
 62
     7
100
AcDbLine
 10
-158.8673858642578
 20
302.7016906738281
 30
0.0
 11
-157.2675323486328
 21
304.3015441894531
 31
0.0
  0
LINE
  5
D8
330
22
100
AcDbEntity
  8
0
  6
Continuous
 62
     7
100
AcDbLine
 10
-158.9337768554688
 20
299.806884765625
 30
0.0
 11
-155.4337768554688
 21
303.306884765625
 31
0.0
  0
LINE
  5
D9
330
22
100
AcDbEntity
  8
0
  6
Continuous
 62
     7
100
AcDbLine
 10
-158.9337768554688
 20
296.9784545898438
 30
0.0
 11
-155.4337768554688
 21
300.4784545898438
 31
0.0
  0
LINE
  5
DA
330
22
100
AcDbEntity
  8
0
  6
Continuous
 62
     7
100
AcDbLine
 10
-158.9337768554688
 20
294.1500244140625
 30
0.0
 11
-155.4337768554688
 21
297.6500244140625
 31
0.0
  0
LINE
  5
DB
330
22
100
AcDbEntity
  8
0
  6
Continuous
 62
     7
100
AcDbLine
 10
-158.9337768554688
 20
291.3215942382813
 30
0.0
 11
-155.4337768554688
 21
294.8215942382813
 31
0.0
  0
LINE
  5
DC
330
22
100
AcDbEntity
  8
0
  6
Continuous
 62
     7
100
AcDbLine
 10
-158.8701934814453
 20
288.5567626953125
 30
0.0
 11
-155.4337768554688
 21
291.9931640625
 31
0.0
  0
LINE
  5
DD
330
22
100
AcDbEntity
  8
0
  6
Continuous
 62
     7
100
AcDbLine
 10
-158.9337768554688
 20
285.6647338867188
 30
0.0
 11
-155.4337768554688
 21
289.1647338867188
 31
0.0
  0
LINE
  5
DE
330
22
100
AcDbEntity
  8
0
  6
Continuous
 62
     7
100
AcDbLine
 10
-190.8600769042969
 20
253.7384490966797
 30
0.0
 11
-190.3042755126953
 21
254.2942352294922
 31
0.0
  0
LINE
  5
DF
330
22
100
AcDbEntity
  8
0
  6
Continuous
 62
     7
100
AcDbLine
 10
-158.9337768554688
 20
282.8363342285156
 30
0.0
 11
-155.4337768554688
 21
286.3363342285156
 31
0.0
  0
LINE
  5
E0
330
22
100
AcDbEntity
  8
0
  6
Continuous
 62
     7
100
AcDbLine
 10
-190.8121490478516
 20
250.9579315185547
 30
0.0
 11
-187.4021606445313
 21
254.3679351806641
 31
0.0
  0
LINE
  5
E1
330
22
100
AcDbEntity
  8
0
  6
Continuous
 62
     7
100
AcDbLine
 10
-158.9337768554688
 20
280.0079040527344
 30
0.0
 11
-155.4337768554688
 21
283.5079040527343
 31
0.0
  0
LINE
  5
E2
330
22
100
AcDbEntity
  8
0
  6
Continuous
 62
     7
100
AcDbLine
 10
-187.9837341308594
 20
250.9579315185547
 30
0.0
 11
-184.57373046875
 21
254.3679351806641
 31
0.0
  0
LINE
  5
E3
330
22
100
AcDbEntity
  8
0
  6
Continuous
 62
     7
100
AcDbLine
 10
-158.9337768554688
 20
277.1794738769531
 30
0.0
 11
-155.4337768554688
 21
280.6794738769531
 31
0.0
  0
LINE
  5
E4
330
22
100
AcDbEntity
  8
0
  6
Continuous
 62
     7
100
AcDbLine
 10
-185.1553039550781
 20
250.9579315185547
 30
0.0
 11
-181.7453002929688
 21
254.3679351806641
 31
0.0
  0
LINE
  5
E5
330
22
100
AcDbEntity
  8
0
  6
Continuous
 62
     7
100
AcDbLine
 10
-158.9337768554688
 20
274.3510437011719
 30
0.0
 11
-155.4337768554688
 21
277.8510437011719
 31
0.0
  0
LINE
  5
E6
330
22
100
AcDbEntity
  8
0
  6
Continuous
 62
     7
100
AcDbLine
 10
-182.3268737792969
 20
250.9579315185547
 30
0.0
 11
-178.9168701171875
 21
254.3679351806641
 31
0.0
  0
LINE
  5
E7
330
22
100
AcDbEntity
  8
0
  6
Continuous
 62
     7
100
AcDbLine
 10
-158.3861083984375
 20
272.0702819824219
 30
0.0
 11
-155.4337768554688
 21
275.0226135253906
 31
0.0
  0
LINE
  5
E8
330
22
100
AcDbEntity
  8
0
  6
Continuous
 62
     7
100
AcDbLine
 10
-179.4984436035156
 20
250.9579315185547
 30
0.0
 11
-176.0884399414063
 21
254.3679351806641
 31
0.0
  0
LINE
  5
E9
330
22
100
AcDbEntity
  8
0
  6
Continuous
 62
     7
100
AcDbLine
 10
-158.9337768554688
 20
268.6941833496094
 30
0.0
 11
-155.4337768554688
 21
272.1941833496094
 31
0.0
  0
LINE
  5
EA
330
22
100
AcDbEntity
  8
0
  6
Continuous
 62
     7
100
AcDbLine
 10
-176.6700134277344
 20
250.9579315185547
 30
0.0
 11
-173.2600250244141
 21
254.3679351806641
 31
0.0
  0
LINE
  5
EB
330
22
100
AcDbEntity
  8
0
  6
Continuous
 62
     7
100
AcDbLine
 10
-158.9337768554688
 20
265.8657531738281
 30
0.0
 11
-155.4337768554688
 21
269.3657531738281
 31
0.0
  0
LINE
  5
EC
330
22
100
AcDbEntity
  8
0
  6
Continuous
 62
     7
100
AcDbLine
 10
-173.8415985107422
 20
250.9579315185547
 30
0.0
 11
-170.4315948486328
 21
254.3679351806641
 31
0.0
  0
LINE
  5
ED
330
22
100
AcDbEntity
  8
0
  6
Continuous
 62
     7
100
AcDbLine
 10
-158.9337768554688
 20
263.0373229980469
 30
0.0
 11
-155.4337768554688
 21
266.5373229980469
 31
0.0
  0
LINE
  5
EE
330
22
100
AcDbEntity
  8
0
  6
Continuous
 62
     7
100
AcDbLine
 10
-171.0131683349609
 20
250.9579315185547
 30
0.0
 11
-167.6031646728516
 21
254.3679351806641
 31
0.0
  0
LINE
  5
EF
330
22
100
AcDbEntity
  8
0
  6
Continuous
 62
     7
100
AcDbLine
 10
-158.9337768554688
 20
260.2088928222656
 30
0.0
 11
-155.4337768554688
 21
263.7088928222656
 31
0.0
  0
LINE
  5
F0
330
22
100
AcDbEntity
  8
0
  6
Continuous
 62
     7
100
AcDbLine
 10
-168.1847381591797
 20
250.9579315185547
 30
0.0
 11
-164.7747344970703
 21
254.3679351806641
 31
0.0
  0
LINE
  5
F1
330
22
100
AcDbEntity
  8
0
  6
Continuous
 62
     7
100
AcDbLine
 10
-160.0155944824219
 20
256.2986450195313
 30
0.0
 11
-155.4337768554688
 21
260.8804626464845
 31
0.0
  0
LINE
  5
F2
330
22
100
AcDbEntity
  8
0
  6
Continuous
 62
     7
100
AcDbLine
 10
-165.3563079833984
 20
250.9579315185547
 30
0.0
 11
-160.8644866943359
 21
255.4497680664063
 31
0.0
  0
LINE
  5
F3
330
22
100
AcDbEntity
  8
0
  6
Continuous
 62
     7
100
AcDbLine
 10
-162.5278778076172
 20
250.9579315185547
 30
0.0
 11
-155.4337768554688
 21
258.0520629882813
 31
0.0
  0
LINE
  5
F4
330
22
100
AcDbEntity
  8
0
  6
Continuous
 62
     7
100
AcDbLine
 10
-159.699462890625
 20
250.9579315185547
 30
0.0
 11
-155.2833404541016
 21
255.3740539550781
 31
0.0
  0
LINE
  5
F5
330
22
100
AcDbEntity
  8
0
  6
Continuous
 62
     7
100
AcDbLine
 10
-157.8533020019531
 20
249.9756622314453
 30
0.0
 11
-152.9610290527344
 21
254.8679351806641
 31
0.0
  0
LINE
  5
F6
330
22
100
AcDbEntity
  8
0
  6
Continuous
 62
     7
100
AcDbLine
 10
-152.1264953613281
 20
250.0456237792969
 30
0.0
 11
-147.3041687011719
 21
254.8679351806641
 31
0.0
  0
LINE
  5
F7
330
22
100
AcDbEntity
  8
0
  6
Continuous
 62
     7
100
AcDbLine
 10
-149.2068176269531
 20
250.1368560791016
 30
0.0
 11
-144.4757537841797
 21
254.8679351806641
 31
0.0
  0
LINE
  5
F8
330
22
100
AcDbEntity
  8
0
  6
Continuous
 62
     7
100
AcDbLine
 10
-146.2871551513672
 20
250.2281036376953
 30
0.0
 11
-141.6473236083984
 21
254.8679351806641
 31
0.0
  0
LINE
  5
F9
330
22
100
AcDbEntity
  8
0
  6
Continuous
 62
     7
100
AcDbLine
 10
-143.3674774169922
 20
250.3193511962891
 30
0.0
 11
-138.8188934326172
 21
254.8679351806641
 31
0.0
  0
LINE
  5
FA
330
22
100
AcDbEntity
  8
0
  6
Continuous
 62
     7
100
AcDbLine
 10
-140.4478149414063
 20
250.4105987548828
 30
0.0
 11
-135.9904632568359
 21
254.8679351806641
 31
0.0
  0
LINE
  5
FB
330
22
100
AcDbEntity
  8
0
  6
Continuous
 62
     7
100
AcDbLine
 10
-137.5281372070312
 20
250.5018463134766
 30
0.0
 11
-133.1620330810547
 21
254.8679351806641
 31
0.0
  0
LINE
  5
FC
330
22
100
AcDbEntity
  8
0
  6
Continuous
 62
     7
100
AcDbLine
 10
-134.6084594726562
 20
250.5930786132813
 30
0.0
 11
-130.3336181640625
 21
254.8679351806641
 31
0.0
  0
LINE
  5
FD
330
22
100
AcDbEntity
  8
0
  6
Continuous
 62
     7
100
AcDbLine
 10
-131.6887969970703
 20
250.684326171875
 30
0.0
 11
-127.5051879882813
 21
254.8679351806641
 31
0.0
  0
LINE
  5
FE
330
22
100
AcDbEntity
  8
0
  6
Continuous
 62
     7
100
AcDbLine
 10
-128.7691192626953
 20
250.7755737304688
 30
0.0
 11
-124.6767578125
 21
254.8679351806641
 31
0.0
  0
LINE
  5
FF
330
22
100
AcDbEntity
  8
0
  6
Continuous
 62
     7
100
AcDbLine
 10
-125.8494491577148
 20
250.8668212890625
 30
0.0
 11
-122.9337692260742
 21
253.7825012207031
 31
0.0
  0
LINE
  5
100
330
22
100
AcDbEntity
  8
0
  6
Continuous
 62
     7
100
AcDbLine
 10
-152.9337768554688
 20
248.5446624755859
 30
0.0
 11
-154.3647766113281
 21
249.9756622314453
 31
0.0
  0
LINE
  5
101
330
22
100
AcDbEntity
  8
0
  6
Continuous
 62
     7
100
AcDbLine
 10
-154.4337768554688
 20
254.8679351806641
 30
0.0
 11
-123.9337692260742
 21
254.8679351806641
 31
0.0
  0
LINE
  5
102
330
22
100
AcDbEntity
  8
0
  6
Continuous
 62
     7
100
AcDbLine
 10
-152.9337768554688
 20
248.5446624755859
 30
0.0
 11
-124.4570999145508
 21
249.4346160888672
 31
0.0
  0
LINE
  5
103
330
22
100
AcDbEntity
  8
0
  6
Continuous
 62
     7
100
AcDbLine
 10
-122.9337692260742
 20
250.9579315185547
 30
0.0
 11
-154.3647766113281
 21
249.9756622314453
 31
0.0
  0
LINE
  5
104
330
22
100
AcDbEntity
  8
0
  6
Continuous
 62
     7
100
AcDbLine
 10
-163.9337768554688
 20
254.3679351806641
 30
0.0
 11
-189.9337768554688
 21
254.3679351806641
 31
0.0
  0
LINE
  5
105
330
22
100
AcDbEntity
  8
0
  6
Continuous
 62
     7
100
AcDbLine
 10
-190.9337768554688
 20
250.9579315185547
 30
0.0
 11
-158.9337768554688
 21
250.9579315185547
 31
0.0
  0
LINE
  5
106
330
22
100
AcDbEntity
  8
0
  6
Continuous
 62
     7
100
AcDbLine
 10
-189.4587707519531
 20
249.4829406738281
 30
0.0
 11
-160.4087677001953
 21
249.4829406738281
 31
0.0
  0
LINE
  5
107
330
22
100
AcDbEntity
  8
0
  6
Continuous
 62
     7
100
AcDbLine
 10
-171.9337768554688
 20
246.3679351806641
 30
0.0
 11
-204.8604888916016
 21
246.3679351806641
 31
0.0
  0
LINE
  5
108
330
22
100
AcDbEntity
  8
0
  6
Continuous
 62
     7
100
AcDbLine
 10
-171.8837738037109
 20
250.4179382324219
 30
0.0
 11
-200.9337768554688
 21
250.4179382324219
 31
0.0
  0
LINE
  5
109
330
22
100
AcDbEntity
  8
0
  6
Continuous
 62
     7
100
AcDbLine
 10
-170.9337768554688
 20
249.4679412841797
 30
0.0
 11
-200.9337768554688
 21
249.4679412841797
 31
0.0
  0
LINE
  5
10A
330
22
100
AcDbEntity
  8
0
  6
Continuous
 62
     7
100
AcDbLine
 10
-190.9337768554688
 20
251.1679382324219
 30
0.0
 11
-190.9337768554688
 21
253.3679351806641
 31
0.0
  0
LINE
  5
10B
330
22
100
AcDbEntity
  8
0
  6
Continuous
 62
     7
100
AcDbLine
 10
-171.9337768554688
 20
246.3679351806641
 30
0.0
 11
-170.9337768554688
 21
247.3679351806641
 31
0.0
  0
LINE
  5
10C
330
22
100
AcDbEntity
  8
0
  6
Continuous
 62
     7
100
AcDbLine
 10
-200.9337768554688
 20
249.4679412841797
 30
0.0
 11
-201.8837738037109
 21
250.4179382324219
 31
0.0
  0
LINE
  5
10D
330
22
100
AcDbEntity
  8
0
  6
Continuous
 62
     7
100
AcDbLine
 10
-200.9337768554688
 20
250.4179382324219
 30
0.0
 11
-204.8893585205078
 21
250.4179382324219
 31
0.0
  0
LINE
  5
10E
330
22
100
AcDbEntity
  8
0
  6
Continuous
 62
     7
100
AcDbLine
 10
-190.9337768554688
 20
250.9579315185547
 30
0.0
 11
-189.4587707519531
 21
249.4829406738281
 31
0.0
  0
LINE
  5
10F
330
22
100
AcDbEntity
  8
0
  6
Continuous
 62
     7
100
AcDbLine
 10
-157.9337768554688
 20
271.6179504394531
 30
0.0
 11
-158.9337768554688
 21
272.6179504394531
 31
0.0
  0
LINE
  5
110
330
22
100
AcDbEntity
  8
0
  6
Continuous
 62
     7
100
AcDbLine
 10
-157.9337768554688
 20
271.6179504394531
 30
0.0
 11
-158.9337768554688
 21
270.6179504394531
 31
0.0
  0
LINE
  5
111
330
22
100
AcDbEntity
  8
0
  6
Continuous
 62
     7
100
AcDbLine
 10
-157.9337768554688
 20
287.6203308105469
 30
0.0
 11
-158.9337768554688
 21
286.6203308105469
 31
0.0
  0
LINE
  5
112
330
22
100
AcDbEntity
  8
0
  6
Continuous
 62
     7
100
AcDbLine
 10
-157.9337768554688
 20
287.6203308105469
 30
0.0
 11
-158.9337768554688
 21
288.6203308105469
 31
0.0
  0
LINE
  5
113
330
22
100
AcDbEntity
  8
0
  6
Continuous
 62
     7
100
AcDbLine
 10
-154.3647766113281
 20
249.9756622314453
 30
0.0
 11
-158.9337768554688
 21
249.9756622314453
 31
0.0
  0
LINE
  5
114
330
22
100
AcDbEntity
  8
0
  6
Continuous
 62
     7
100
AcDbLine
 10
-158.9337768554688
 20
124.3679351806641
 30
0.0
 11
-158.9337768554688
 21
167.3679351806641
 31
0.0
  0
LINE
  5
115
330
22
100
AcDbEntity
  8
0
  6
Continuous
 62
     7
100
AcDbLine
 10
-155.9337768554688
 20
122.3679351806641
 30
0.0
 11
-156.9337768554688
 21
122.3679351806641
 31
0.0
  0
LINE
  5
116
330
22
100
AcDbEntity
  8
0
  6
Continuous
 62
     7
100
AcDbLine
 10
-155.4337768554688
 20
155.8679351806641
 30
0.0
 11
-153.9328002929688
 21
155.8679351806641
 31
0.0
  0
LINE
  5
117
330
22
100
AcDbEntity
  8
0
  6
Continuous
 62
     7
100
AcDbLine
 10
-154.4337768554688
 20
171.8679351806641
 30
0.0
 11
-123.9337692260742
 21
171.8679351806641
 31
0.0
  0
LINE
  5
118
330
22
100
AcDbEntity
  8
0
  6
Continuous
 62
     7
100
AcDbLine
 10
-224.4904022216797
 20
281.3679504394531
 30
0.0
 11
-207.4874267578125
 21
251.9179382324219
 31
0.0
  0
LINE
  5
119
330
22
100
AcDbEntity
  8
0
  6
Continuous
 62
     7
100
AcDbLine
 10
-224.2017211914063
 20
274.8679504394531
 30
0.0
 11
-209.1906127929688
 21
248.8679351806641
 31
0.0
  0
LINE
  5
11A
330
22
100
AcDbEntity
  8
0
  6
Continuous
 62
     7
100
AcDbLine
 10
-158.9337768554688
 20
300.9261169433594
 30
0.0
 11
-158.9337768554688
 21
276.9276428222656
 31
0.0
  0
LINE
  5
11B
330
22
100
AcDbEntity
  8
0
  6
Continuous
 62
     7
100
AcDbLine
 10
-170.9337768554688
 20
249.4679412841797
 30
0.0
 11
-171.8837738037109
 21
250.4179382324219
 31
0.0
  0
LINE
  5
11C
330
22
100
AcDbEntity
  8
0
  6
Continuous
 62
     7
100
AcDbLine
 10
-170.9337768554688
 20
247.3679351806641
 30
0.0
 11
-170.9337768554688
 21
249.4679412841797
 31
0.0
  0
LINE
  5
11D
330
22
100
AcDbEntity
  8
0
  6
Continuous
 62
     7
100
AcDbLine
 10
-122.9337692260742
 20
250.9579315185547
 30
0.0
 11
-124.4570999145508
 21
249.4346160888672
 31
0.0
  0
LINE
  5
11E
330
22
100
AcDbEntity
  8
0
  6
Continuous
 62
     7
100
AcDbLine
 10
-237.9337768554688
 20
235.1301879882814
 30
0.0
 11
-234.9337768554689
 21
235.1301879882814
 31
0.0
  0
LINE
  5
11F
330
22
100
AcDbEntity
  8
0
  6
Continuous
 62
     7
100
AcDbLine
 10
-232.9337768554688
 20
247.2009582519531
 30
0.0
 11
-234.9337768554689
 21
247.2009582519531
 31
0.0
  0
LINE
  5
120
330
22
100
AcDbEntity
  8
0
  6
Continuous
 62
     7
100
AcDbLine
 10
-237.9337768554688
 20
275.099151611328
 30
0.0
 11
-234.9337768554689
 21
275.099151611328
 31
0.0
  0
LINE
  5
121
330
22
100
AcDbEntity
  8
0
  6
Continuous
 62
     7
100
AcDbLine
 10
-234.9337768554689
 20
277.367919921875
 30
0.0
 11
-232.9337768554688
 21
277.367919921875
 31
0.0
  0
LINE
  5
122
330
22
100
AcDbEntity
  8
0
  6
Continuous
 62
     7
100
AcDbLine
 10
-237.9337768554688
 20
280.367919921875
 30
0.0
 11
-232.9337768554688
 21
280.367919921875
 31
0.0
  0
LINE
  5
123
330
22
100
AcDbEntity
  8
0
  6
Continuous
 62
     7
100
AcDbLine
 10
-237.9337768554688
 20
280.8679504394531
 30
0.0
 11
-232.9337768554688
 21
280.8679504394531
 31
0.0
  0
LINE
  5
124
330
22
100
AcDbEntity
  8
0
  6
Continuous
 62
     7
100
AcDbLine
 10
-232.9337768554688
 20
280.8679504394531
 30
0.0
 11
-232.9337768554688
 21
277.3679504394531
 31
0.0
  0
LINE
  5
125
330
22
100
AcDbEntity
  8
0
  6
Continuous
 62
     7
100
AcDbLine
 10
-236.9337768554689
 20
290.8679504394531
 30
0.0
 11
-234.9337768554689
 21
290.8679504394531
 31
0.0
  0
LINE
  5
126
330
22
100
AcDbEntity
  8
0
  6
Continuous
 62
     7
100
AcDbLine
 10
-233.9337768554688
 20
289.8679504394531
 30
0.0
 11
-233.9337768554688
 21
284.8679504394531
 31
0.0
  0
LINE
  5
127
330
22
100
AcDbEntity
  8
0
  6
Continuous
 62
     7
100
AcDbLine
 10
-224.4904022216797
 20
145.3679351806641
 30
0.0
 11
-207.4874267578125
 21
174.8179321289063
 31
0.0
  0
LINE
  5
128
330
22
100
AcDbEntity
  8
0
  6
Continuous
 62
     7
100
AcDbLine
 10
-137.4337768554688
 20
171.8679351806641
 30
0.0
 11
-137.4337768554688
 21
169.8679351806641
 31
0.0
  0
LINE
  5
129
330
22
100
AcDbEntity
  8
0
  6
Continuous
 62
     7
100
AcDbLine
 10
-163.9337768554688
 20
172.3679351806641
 30
0.0
 11
-189.9337768554688
 21
172.3679351806641
 31
0.0
  0
LINE
  5
12A
330
22
100
AcDbEntity
  8
0
  6
Continuous
 62
     7
100
AcDbLine
 10
-200.9337768554688
 20
177.2679443359375
 30
0.0
 11
-201.8837738037109
 21
176.3179321289063
 31
0.0
  0
LINE
  5
12B
330
22
100
AcDbEntity
  8
0
  6
Continuous
 62
     7
100
AcDbLine
 10
-200.9337768554688
 20
176.3179321289063
 30
0.0
 11
-204.8893585205078
 21
176.3179321289063
 31
0.0
  0
LINE
  5
12C
330
22
100
AcDbEntity
  8
0
  6
Continuous
 62
     7
100
AcDbLine
 10
-190.9337768554688
 20
177.2679443359375
 30
0.0
 11
-200.9337768554688
 21
177.2679443359375
 31
0.0
  0
LINE
  5
12D
330
22
100
AcDbEntity
  8
0
  6
Continuous
 62
     7
100
AcDbLine
 10
-190.9337768554688
 20
176.3179321289063
 30
0.0
 11
-200.9337768554688
 21
176.3179321289063
 31
0.0
  0
LINE
  5
12E
330
22
100
AcDbEntity
  8
0
  6
Continuous
 62
     7
100
AcDbLine
 10
-237.9337768554688
 20
240.1301879882813
 30
0.0
 11
-234.9337768554689
 21
240.1301879882813
 31
0.0
  0
LINE
  5
12F
330
22
100
AcDbEntity
  8
0
  6
Continuous
 62
     7
100
AcDbLine
 10
-232.9337768554688
 20
237.2009582519531
 30
0.0
 11
-234.9337768554689
 21
237.2009582519531
 31
0.0
  0
LINE
  5
130
330
22
100
AcDbEntity
  8
0
  6
Continuous
 62
     7
100
AcDbLine
 10
-236.9337768554689
 20
135.8679351806641
 30
0.0
 11
-234.9337768554689
 21
135.8679351806641
 31
0.0
  0
LINE
  5
131
330
22
100
AcDbEntity
  8
0
  6
Continuous
 62
     7
100
AcDbLine
 10
-232.9337768554688
 20
277.3679504394531
 30
0.0
 11
-232.9337768554688
 21
213.3679351806641
 31
0.0
  0
LINE
  5
132
330
22
100
AcDbEntity
  8
0
  6
Continuous
 62
     7
100
AcDbLine
 10
-237.9337768554688
 20
215.9664154052734
 30
0.0
 11
-234.9337768554689
 21
215.9664154052734
 31
0.0
  0
LINE
  5
133
330
22
100
AcDbEntity
  8
0
  6
Continuous
 62
     7
100
AcDbLine
 10
-237.9337768554688
 20
136.8679351806641
 30
0.0
 11
-237.9337768554688
 21
289.8679504394531
 31
0.0
  0
LINE
  5
134
330
22
100
AcDbEntity
  8
0
  6
Continuous
 62
     7
100
AcDbLine
 10
-226.3205261230469
 20
146.4127044677734
 30
0.0
 11
-226.3205261230469
 21
213.3679351806641
 31
0.0
  0
LINE
  5
135
330
22
100
AcDbEntity
  8
0
  6
Continuous
 62
     7
100
AcDbLine
 10
-170.9337768554688
 20
213.3679351806641
 30
0.0
 11
-170.9337768554688
 21
247.3679351806641
 31
0.0
  0
LINE
  5
136
330
22
100
AcDbEntity
  8
0
  6
Continuous
 62
     7
100
AcDbLine
 10
-206.1500854492188
 20
178.0023345947266
 30
0.0
 11
-206.1500854492188
 21
213.3679351806641
 31
0.0
  0
LINE
  5
137
330
22
100
AcDbEntity
  8
0
  6
Continuous
 62
     7
100
AcDbLine
 10
-124.4570999145508
 20
249.4346160888672
 30
0.0
 11
-124.4570999145508
 21
213.3679351806641
 31
0.0
  0
LINE
  5
138
330
22
100
AcDbEntity
  8
0
  6
Continuous
 62
     7
100
AcDbLine
 10
-122.9337692260742
 20
172.8679351806641
 30
0.0
 11
-122.9337692260742
 21
253.8679351806641
 31
0.0
  0
LINE
  5
139
330
22
100
AcDbEntity
  8
0
  6
Continuous
 62
     7
100
AcDbLine
 10
-155.4337768554688
 20
122.8679351806641
 30
0.0
 11
-155.4337768554688
 21
213.3679351806641
 31
0.0
  0
LINE
  5
13A
330
22
100
AcDbEntity
  8
0
  6
Continuous
 62
     7
100
AcDbLine
 10
-158.9337768554688
 20
167.3679351806641
 30
0.0
 11
-158.9337768554688
 21
213.3679351806641
 31
0.0
  0
LINE
  5
13B
330
22
100
AcDbEntity
  8
0
  6
Continuous
 62
     7
100
AcDbLine
 10
-158.9337768554688
 20
250.9579315185547
 30
0.0
 11
-158.9337768554688
 21
213.3679351806641
 31
0.0
  0
LINE
  5
13C
330
22
100
AcDbEntity
  8
0
  6
Continuous
 62
     7
100
AcDbLine
 10
-160.4087677001953
 20
213.3679351806641
 30
0.0
 11
-160.4087677001953
 21
249.4829406738281
 31
0.0
  0
LINE
  5
13D
330
22
100
AcDbEntity
  8
0
  6
Continuous
 62
     7
100
AcDbLine
 10
-200.9337768554688
 20
177.2679443359375
 30
0.0
 11
-200.9337768554688
 21
213.3679351806641
 31
0.0
  0
LINE
  5
13E
330
22
100
AcDbEntity
  8
0
  6
Continuous
 62
     7
100
AcDbLine
 10
-190.9337768554688
 20
173.3679351806641
 30
0.0
 11
-190.9337768554688
 21
213.3679351806641
 31
0.0
  0
LINE
  5
13F
330
22
100
AcDbEntity
  8
0
  6
Continuous
 62
     7
100
AcDbLine
 10
-209.1906127929688
 20
247.0378112792969
 30
0.0
 11
-209.1906127929688
 21
213.3679351806641
 31
0.0
  0
LINE
  5
140
330
22
100
AcDbEntity
  8
0
  6
Continuous
 62
     7
100
AcDbLine
 10
-205.9301300048828
 20
245.0659027099609
 30
0.0
 11
-205.9301300048828
 21
213.3679351806641
 31
0.0
  0
LINE
  5
141
330
22
100
AcDbEntity
  8
0
  6
Continuous
 62
     7
100
AcDbLine
 10
-154.3647766113281
 20
249.9756622314453
 30
0.0
 11
-154.3647766113281
 21
213.3679351806641
 31
0.0
  0
LINE
  5
142
330
22
100
AcDbEntity
  8
0
  6
Continuous
 62
     7
100
AcDbLine
 10
-152.9337768554688
 20
248.5446624755859
 30
0.0
 11
-152.9337768554688
 21
213.3679351806641
 31
0.0
  0
LINE
  5
143
330
22
100
AcDbEntity
  8
0
  6
Continuous
 62
     7
100
AcDbLine
 10
-233.9337768554688
 20
213.3679351806641
 30
0.0
 11
-233.9337768554688
 21
136.8679351806641
 31
0.0
  0
LINE
  5
144
330
22
100
AcDbEntity
  8
0
  6
Continuous
 62
     7
100
AcDbLine
 10
-233.5186767578125
 20
280.367919921875
 30
0.0
 11
-232.9337768554688
 21
279.7830200195313
 31
0.0
  0
LINE
  5
145
330
22
100
AcDbEntity
  8
0
  6
Continuous
 62
     7
100
AcDbLine
 10
-234.2257843017578
 20
280.367919921875
 30
0.0
 11
-232.9337768554688
 21
279.0758972167969
 31
0.0
  0
LINE
  5
146
330
22
100
AcDbEntity
  8
0
  6
Continuous
 62
     7
100
AcDbLine
 10
-236.3470916748047
 20
280.367919921875
 30
0.0
 11
-233.3470916748047
 21
277.367919921875
 31
0.0
  0
LINE
  5
147
330
22
100
AcDbEntity
  8
0
  6
Continuous
 62
     7
100
AcDbLine
 10
-237.05419921875
 20
280.367919921875
 30
0.0
 11
-234.05419921875
 21
277.367919921875
 31
0.0
  0
LINE
  5
148
330
22
100
AcDbEntity
  8
0
  6
Continuous
 62
     7
100
AcDbLine
 10
-237.9337768554688
 20
279.1261596679688
 30
0.0
 11
-234.9337768554689
 21
276.1261596679688
 31
0.0
  0
LINE
  5
149
330
22
100
AcDbEntity
  8
0
  6
Continuous
 62
     7
100
AcDbLine
 10
-237.9337768554688
 20
278.4190673828125
 30
0.0
 11
-234.9337768554689
 21
275.4190673828125
 31
0.0
  0
LINE
  5
14A
330
22
100
AcDbEntity
  8
0
  6
Continuous
 62
     7
100
AcDbLine
 10
-237.9337768554688
 20
276.2977294921875
 30
0.0
 11
-236.7351837158203
 21
275.099151611328
 31
0.0
  0
LINE
  5
14B
330
22
100
AcDbEntity
  8
0
  6
Continuous
 62
     7
100
AcDbLine
 10
-237.9337768554688
 20
275.5906372070313
 30
0.0
 11
-237.4422760009766
 21
275.099151611328
 31
0.0
  0
LINE
  5
14C
330
22
100
AcDbEntity
  8
0
  6
Continuous
 62
     7
100
AcDbLine
 10
-235.7073364257813
 20
240.1301879882813
 30
0.0
 11
-234.9337768554689
 21
239.3566131591797
 31
0.0
  0
LINE
  5
14D
330
22
100
AcDbEntity
  8
0
  6
Continuous
 62
     7
100
AcDbLine
 10
-236.4144439697266
 20
240.1301879882813
 30
0.0
 11
-234.9337768554689
 21
238.6495056152344
 31
0.0
  0
LINE
  5
14E
330
22
100
AcDbEntity
  8
0
  6
Continuous
 62
     7
100
AcDbLine
 10
-237.9337768554688
 20
239.5281829833984
 30
0.0
 11
-234.9337768554689
 21
236.5281829833984
 31
0.0
  0
LINE
  5
14F
330
22
100
AcDbEntity
  8
0
  6
Continuous
 62
     7
100
AcDbLine
 10
-237.9337768554688
 20
238.8210754394531
 30
0.0
 11
-234.9337768554689
 21
235.8210754394531
 31
0.0
  0
LINE
  5
150
330
22
100
AcDbEntity
  8
0
  6
Continuous
 62
     7
100
AcDbLine
 10
-237.9337768554688
 20
236.6997528076172
 30
0.0
 11
-236.3641967773439
 21
235.1301879882814
 31
0.0
  0
LINE
  5
151
330
22
100
AcDbEntity
  8
0
  6
Continuous
 62
     7
100
AcDbLine
 10
-237.9337768554688
 20
235.9926452636719
 30
0.0
 11
-237.0713043212891
 21
235.1301879882814
 31
0.0
  0
LINE
  5
152
330
22
100
AcDbEntity
  8
0
  6
Continuous
 62
     7
100
AcDbLine
 10
-236.9994201660156
 20
215.9664154052734
 30
0.0
 11
-234.9337768554689
 21
213.9007720947266
 31
0.0
  0
LINE
  5
153
330
22
100
AcDbEntity
  8
0
  6
Continuous
 62
     7
100
AcDbLine
 10
-237.7065277099609
 20
215.9664154052734
 30
0.0
 11
-235.1080474853516
 21
213.3679351806641
 31
0.0
  0
LINE
  5
154
330
22
100
AcDbEntity
  8
0
  6
Continuous
 62
     7
100
AcDbLine
 10
-237.9337768554688
 20
214.0723419189453
 30
0.0
 11
-237.2293701171875
 21
213.3679351806641
 31
0.0
  0
LINE
  5
155
330
22
100
AcDbEntity
  8
0
  6
Continuous
 62
     7
100
AcDbLine
 10
-234.9337768554689
 20
213.3679351806641
 30
0.0
 11
-234.9337768554689
 21
277.367919921875
 31
0.0
  0
LINE
  5
156
330
22
100
AcDbEntity
  8
0
  6
Continuous
 62
     7
100
AcDbLine
 10
-170.9337768554688
 20
220.3913726806641
 30
0.0
 11
-170.9337768554688
 21
228.1120758056641
 31
0.0
  0
LINE
  5
157
330
22
100
AcDbEntity
  8
0
  6
Continuous
 62
     7
100
AcDbLine
 10
-237.9337768554688
 20
287.8479919433594
 30
0.0
 11
-234.9171447753906
 21
290.8646240234375
 31
0.0
  0
LINE
  5
158
330
22
100
AcDbEntity
  8
0
  6
Continuous
 62
     7
100
AcDbLine
 10
-237.9337768554688
 20
285.0195617675781
 30
0.0
 11
-233.9337768554688
 21
289.0195617675781
 31
0.0
  0
LINE
  5
159
330
22
100
AcDbEntity
  8
0
  6
Continuous
 62
     7
100
AcDbLine
 10
-237.9337768554688
 20
282.1911315917969
 30
0.0
 11
-233.9337768554688
 21
286.1911315917969
 31
0.0
  0
LINE
  5
15A
330
22
100
AcDbEntity
  8
0
  6
Continuous
 62
     7
100
AcDbLine
 10
-236.4285430908203
 20
280.8679504394531
 30
0.0
 11
-233.3380126953125
 21
283.9584655761719
 31
0.0
  0
LINE
  5
15B
330
22
100
AcDbEntity
  8
0
  6
Continuous
 62
     7
100
AcDbLine
 10
-233.6001281738281
 20
280.8679504394531
 30
0.0
 11
-230.6001281738281
 21
283.8679504394531
 31
0.0
  0
LINE
  5
15C
330
22
100
AcDbEntity
  8
0
  6
Continuous
 62
     7
100
AcDbLine
 10
-232.9337768554688
 20
278.7058715820313
 30
0.0
 11
-227.8804016113281
 21
283.7592468261719
 31
0.0
  0
LINE
  5
15D
330
22
100
AcDbEntity
  8
0
  6
Continuous
 62
     7
100
AcDbLine
 10
-231.4432678222656
 20
277.3679504394531
 30
0.0
 11
-225.8947448730469
 21
282.9164733886719
 31
0.0
  0
LINE
  5
15E
330
22
100
AcDbEntity
  8
0
  6
Continuous
 62
     7
100
AcDbLine
 10
-228.6148376464844
 20
277.3679504394531
 30
0.0
 11
-224.5365753173828
 21
281.4461975097655
 31
0.0
  0
LINE
  5
15F
330
22
100
AcDbEntity
  8
0
  6
Continuous
 62
     7
100
AcDbLine
 10
-226.3218383789063
 20
276.83251953125
 30
0.0
 11
-223.5006713867188
 21
279.6536865234375
 31
0.0
  0
LINE
  5
160
330
22
100
AcDbEntity
  8
0
  6
Continuous
 62
     7
100
AcDbLine
 10
-224.7361755371094
 20
275.5897521972656
 30
0.0
 11
-222.4653930664064
 21
277.8605346679688
 31
0.0
  0
LINE
  5
161
330
22
100
AcDbEntity
  8
0
  6
Continuous
 62
     7
100
AcDbLine
 10
-223.6262664794922
 20
273.8712158203125
 30
0.0
 11
-221.4301147460938
 21
276.0673828125
 31
0.0
  0
LINE
  5
162
330
22
100
AcDbEntity
  8
0
  6
Continuous
 62
     7
100
AcDbLine
 10
-222.5909881591797
 20
272.0780639648438
 30
0.0
 11
-220.3948364257813
 21
274.2742309570313
 31
0.0
  0
LINE
  5
163
330
22
100
AcDbEntity
  8
0
  6
Continuous
 62
     7
100
AcDbLine
 10
-221.5557098388672
 20
270.284912109375
 30
0.0
 11
-219.3595581054688
 21
272.4810791015625
 31
0.0
  0
LINE
  5
164
330
22
100
AcDbEntity
  8
0
  6
Continuous
 62
     7
100
AcDbLine
 10
-220.5204467773438
 20
268.4917602539063
 30
0.0
 11
-218.3242950439453
 21
270.6879272460938
 31
0.0
  0
LINE
  5
165
330
22
100
AcDbEntity
  8
0
  6
Continuous
 62
     7
100
AcDbLine
 10
-219.4851684570313
 20
266.6986083984375
 30
0.0
 11
-217.2890167236328
 21
268.894775390625
 31
0.0
  0
LINE
  5
166
330
22
100
AcDbEntity
  8
0
  6
Continuous
 62
     7
100
AcDbLine
 10
-218.4498901367188
 20
264.9054870605469
 30
0.0
 11
-216.2537384033203
 21
267.1016235351563
 31
0.0
  0
LINE
  5
167
330
22
100
AcDbEntity
  8
0
  6
Continuous
 62
     7
100
AcDbLine
 10
-217.4146118164063
 20
263.1123352050781
 30
0.0
 11
-215.2184600830078
 21
265.3084716796875
 31
0.0
  0
LINE
  5
168
330
22
100
AcDbEntity
  8
0
  6
Continuous
 62
     7
100
AcDbLine
 10
-216.3793334960939
 20
261.3191833496094
 30
0.0
 11
-214.1831817626953
 21
263.5153198242188
 31
0.0
  0
LINE
  5
169
330
22
100
AcDbEntity
  8
0
  6
Continuous
 62
     7
100
AcDbLine
 10
-215.3440551757813
 20
259.5260314941405
 30
0.0
 11
-213.1479034423828
 21
261.72216796875
 31
0.0
  0
LINE
  5
16A
330
22
100
AcDbEntity
  8
0
  6
Continuous
 62
     7
100
AcDbLine
 10
-214.3087768554688
 20
257.7328796386719
 30
0.0
 11
-212.1126251220703
 21
259.9290161132813
 31
0.0
  0
LINE
  5
16B
330
22
100
AcDbEntity
  8
0
  6
Continuous
 62
     7
100
AcDbLine
 10
-213.2735137939453
 20
255.9397125244141
 30
0.0
 11
-211.0773620605469
 21
258.1358642578125
 31
0.0
  0
LINE
  5
16C
330
22
100
AcDbEntity
  8
0
  6
Continuous
 62
     7
100
AcDbLine
 10
-212.2382354736328
 20
254.1465606689453
 30
0.0
 11
-210.0420837402344
 21
256.3427124023438
 31
0.0
  0
LINE
  5
16D
330
22
100
AcDbEntity
  8
0
  6
Continuous
 62
     7
100
AcDbLine
 10
-211.2029571533203
 20
252.3534088134766
 30
0.0
 11
-209.0068054199219
 21
254.549560546875
 31
0.0
  0
LINE
  5
16E
330
22
100
AcDbEntity
  8
0
  6
Continuous
 62
     7
100
AcDbLine
 10
-210.1676788330078
 20
250.5602569580078
 30
0.0
 11
-207.9715270996094
 21
252.7564239501953
 31
0.0
  0
LINE
  5
16F
330
22
100
AcDbEntity
  8
0
  6
Continuous
 62
     7
100
AcDbLine
 10
-209.129638671875
 20
248.7698822021484
 30
0.0
 11
-206.7876586914063
 21
251.1118469238281
 31
0.0
  0
LINE
  5
170
330
22
100
AcDbEntity
  8
0
  6
Continuous
 62
     7
100
AcDbLine
 10
-207.7603607177734
 20
247.3107299804688
 30
0.0
 11
-204.6531524658203
 21
250.4179382324219
 31
0.0
  0
LINE
  5
171
330
22
100
AcDbEntity
  8
0
  6
Continuous
 62
     7
100
AcDbLine
 10
-205.7837829589844
 20
246.4588775634766
 30
0.0
 11
-201.854248046875
 21
250.3884124755859
 31
0.0
  0
LINE
  5
172
330
22
100
AcDbEntity
  8
0
  6
Continuous
 62
     7
100
AcDbLine
 10
-203.0462951660156
 20
246.3679351806641
 30
0.0
 11
-199.9463043212891
 21
249.4679412841797
 31
0.0
  0
LINE
  5
173
330
22
100
AcDbEntity
  8
0
  6
Continuous
 62
     7
100
AcDbLine
 10
-200.2178649902344
 20
246.3679351806641
 30
0.0
 11
-197.1178741455078
 21
249.4679412841797
 31
0.0
  0
LINE
  5
174
330
22
100
AcDbEntity
  8
0
  6
Continuous
 62
     7
100
AcDbLine
 10
-197.3894500732422
 20
246.3679351806641
 30
0.0
 11
-194.2894439697266
 21
249.4679412841797
 31
0.0
  0
LINE
  5
175
330
22
100
AcDbEntity
  8
0
  6
Continuous
 62
     7
100
AcDbLine
 10
-194.5610198974609
 20
246.3679351806641
 30
0.0
 11
-191.4610137939453
 21
249.4679412841797
 31
0.0
  0
LINE
  5
176
330
22
100
AcDbEntity
  8
0
  6
Continuous
 62
     7
100
AcDbLine
 10
-191.7325897216796
 20
246.3679351806641
 30
0.0
 11
-188.632583618164
 21
249.4679412841797
 31
0.0
  0
LINE
  5
177
330
22
100
AcDbEntity
  8
0
  6
Continuous
 62
     7
100
AcDbLine
 10
-188.9041595458984
 20
246.3679351806641
 30
0.0
 11
-185.8041687011719
 21
249.4679412841797
 31
0.0
  0
LINE
  5
178
330
22
100
AcDbEntity
  8
0
  6
Continuous
 62
     7
100
AcDbLine
 10
-186.0757293701172
 20
246.3679351806641
 30
0.0
 11
-182.9757385253906
 21
249.4679412841797
 31
0.0
  0
LINE
  5
179
330
22
100
AcDbEntity
  8
0
  6
Continuous
 62
     7
100
AcDbLine
 10
-183.247314453125
 20
246.3679351806641
 30
0.0
 11
-180.1473083496094
 21
249.4679412841797
 31
0.0
  0
LINE
  5
17A
330
22
100
AcDbEntity
  8
0
  6
Continuous
 62
     7
100
AcDbLine
 10
-180.4188842773438
 20
246.3679351806641
 30
0.0
 11
-177.3188781738281
 21
249.4679412841797
 31
0.0
  0
LINE
  5
17B
330
22
100
AcDbEntity
  8
0
  6
Continuous
 62
     7
100
AcDbLine
 10
-177.5904541015625
 20
246.3679351806641
 30
0.0
 11
-174.4904479980469
 21
249.4679412841797
 31
0.0
  0
LINE
  5
17C
330
22
100
AcDbEntity
  8
0
  6
Continuous
 62
     7
100
AcDbLine
 10
-174.7620239257813
 20
246.3679351806641
 30
0.0
 11
-171.6620330810547
 21
249.4679412841797
 31
0.0
  0
LINE
  5
17D
330
22
100
AcDbEntity
  8
0
  6
Continuous
 62
     7
100
AcDbLine
 10
-232.9337768554688
 20
283.8679504394531
 30
0.0
 11
-228.8205261230469
 21
283.8679504394531
 31
0.0
  0
LINE
  5
17E
330
22
100
AcDbEntity
  8
0
  6
Continuous
 62
     7
100
AcDbLine
 10
-232.9337768554688
 20
277.3679504394531
 30
0.0
 11
-228.5318450927734
 21
277.3679504394531
 31
0.0
  0
LINE
  5
17F
330
22
100
AcDbEntity
  8
0
  6
Continuous
 62
     7
100
AcDbLine
 10
-232.9337768554688
 20
247.2009582519531
 30
0.0
 11
-224.5054168701172
 21
247.2009582519531
 31
0.0
  0
LINE
  5
180
330
22
100
AcDbEntity
  8
0
  6
Continuous
 62
     7
100
AcDbLine
 10
-232.9337768554688
 20
237.2009582519531
 30
0.0
 11
-222.9200744628906
 21
237.2009582519531
 31
0.0
  0
LINE
  5
181
330
22
100
AcDbEntity
  8
0
  6
Continuous
 62
     7
100
AcDbLine
 10
-233.9337768554688
 20
142.8679351806641
 30
0.0
 11
-228.8205261230469
 21
142.8679351806641
 31
0.0
  0
LINE
  5
182
330
22
100
AcDbEntity
  8
0
  6
CENTER
 62
     7
100
AcDbLine
 10
-116.2890472412109
 20
213.3679351806641
 30
0.0
 11
-249.2467651367189
 21
213.3679351806641
 31
0.0
  0
LINE
  5
183
330
22
100
AcDbEntity
  8
0
  6
Continuous
 62
     7
100
AcDbLine
 10
-441.5628051757813
 20
244.9934692382814
 30
0.0
 11
-444.3233337402343
 21
244.6474304199219
 31
0.0
  0
LINE
  5
184
330
22
100
AcDbEntity
  8
0
  6
Continuous
 62
     7
100
AcDbLine
 10
-446.1520996093749
 20
247.0323333740234
 30
0.0
 11
-445.8003540039062
 21
244.2516632080078
 31
0.0
  0
LINE
  5
185
330
22
100
AcDbEntity
  8
0
  6
Continuous
 62
     7
100
AcDbLine
 10
-448.3640747070313
 20
243.1710662841797
 30
0.0
 11
-448.2646179199218
 21
242.7998352050781
 31
0.0
  0
LINE
  5
186
330
22
100
AcDbEntity
  8
0
  6
Continuous
 62
     7
100
AcDbLine
 10
-443.9473571777344
 20
240.2902069091797
 30
0.0
 11
-444.3188781738281
 21
240.1906585693359
 31
0.0
  0
LINE
  5
187
330
22
100
AcDbEntity
  8
0
  6
Continuous
 62
     7
100
AcDbLine
 10
-435.1636047363281
 20
236.9742584228516
 30
0.0
 11
-435.1636047363281
 21
258.1654052734375
 31
0.0
  0
LINE
  5
188
330
22
100
AcDbEntity
  8
0
  6
Continuous
 62
     7
100
AcDbLine
 10
-443.9473571777344
 20
240.2902069091797
 30
0.0
 11
-443.5758361816406
 21
240.3897399902344
 31
0.0
  0
LINE
  5
189
330
22
100
AcDbEntity
  8
0
  6
Continuous
 62
     7
100
AcDbLine
 10
-439.1636047363281
 20
253.9981231689453
 30
0.0
 11
-439.1636047363281
 21
236.9742584228516
 31
0.0
  0
LINE
  5
18A
330
22
100
AcDbEntity
  8
0
  6
Continuous
 62
     7
100
AcDbLine
 10
-448.1651306152343
 20
242.4286041259766
 30
0.0
 11
-448.2646179199218
 21
242.7998352050781
 31
0.0
  0
LINE
  5
18B
330
22
100
AcDbEntity
  8
0
  6
Continuous
 62
     7
100
AcDbLine
 10
-441.3638610839844
 20
244.2510070800781
 30
0.0
 11
-443.9275817871093
 21
243.17041015625
 31
0.0
  0
LINE
  5
18C
330
22
100
AcDbEntity
  8
0
  6
Continuous
 62
     7
100
AcDbLine
 10
-448.3640747070313
 20
243.1710662841797
 30
0.0
 11
-445.8003540039062
 21
244.2516632080078
 31
0.0
  0
LINE
  5
18D
330
22
100
AcDbEntity
  8
0
  6
Continuous
 62
     7
100
AcDbLine
 10
-429.9635925292968
 20
219.06640625
 30
0.0
 11
-429.9635925292968
 21
237.5943450927734
 31
0.0
  0
LINE
  5
18E
330
22
100
AcDbEntity
  8
0
  6
Continuous
 62
     7
100
AcDbLine
 10
-423.7636108398437
 20
219.06640625
 30
0.0
 11
-423.7636108398437
 21
237.5943450927734
 31
0.0
  0
LINE
  5
18F
330
22
100
AcDbEntity
  8
0
  6
Continuous
 62
     7
100
AcDbLine
 10
-423.7636108398437
 20
248.7943420410156
 30
0.0
 11
-423.7636108398437
 21
266.7144775390625
 31
0.0
  0
LINE
  5
190
330
22
100
AcDbEntity
  8
0
  6
Continuous
 62
     7
100
AcDbLine
 10
-429.9635925292968
 20
248.7943420410156
 30
0.0
 11
-429.9635925292968
 21
262.5794372558594
 31
0.0
  0
LINE
  5
191
330
22
100
AcDbEntity
  8
0
  6
Continuous
 62
     7
100
AcDbLine
 10
-418.5635986328125
 20
229.9094696044922
 30
0.0
 11
-418.5635986328125
 21
224.1352386474609
 31
0.0
  0
LINE
  5
192
330
22
100
AcDbEntity
  8
0
  6
Continuous
 62
     7
100
AcDbLine
 10
-418.5635986328125
 20
241.1094818115234
 30
0.0
 11
-418.5635986328125
 21
269.4237365722656
 31
0.0
  0
LINE
  5
193
330
22
100
AcDbEntity
  8
0
  6
Continuous
 62
     7
100
AcDbLine
 10
-395.7636108398438
 20
243.2301788330078
 30
0.0
 11
-395.7636108398438
 21
275.0400695800781
 31
0.0
  0
LINE
  5
194
330
22
100
AcDbEntity
  8
0
  6
Continuous
 62
     7
100
AcDbLine
 10
-441.3636169433593
 20
219.06640625
 30
0.0
 11
-441.3636169433593
 21
224.1352386474609
 31
0.0
  0
LINE
  5
195
330
22
100
AcDbEntity
  8
0
  6
Continuous
 62
     7
100
AcDbLine
 10
-435.1636047363281
 20
219.06640625
 30
0.0
 11
-435.1636047363281
 21
224.1352386474609
 31
0.0
  0
LINE
  5
196
330
22
100
AcDbEntity
  8
0
  6
Continuous
 62
     7
100
AcDbLine
 10
-452.8636169433593
 20
217.9664154052734
 30
0.0
 11
-452.8636169433593
 21
227.1160583496094
 31
0.0
  0
LINE
  5
197
330
22
100
AcDbEntity
  8
0
  6
Continuous
 62
     7
100
AcDbLine
 10
-446.5635986328124
 20
217.9664154052734
 30
0.0
 11
-446.5635986328124
 21
237.0495758056641
 31
0.0
  0
LINE
  5
198
330
22
100
AcDbEntity
  8
0
  6
Continuous
 62
     7
100
AcDbLine
 10
-441.3638610839844
 20
244.2510070800781
 30
0.0
 11
-441.4633483886718
 21
244.6222381591797
 31
0.0
  0
LINE
  5
199
330
22
100
AcDbEntity
  8
0
  6
Continuous
 62
     7
100
AcDbLine
 10
-435.1636047363281
 20
226.874267578125
 30
0.0
 11
-435.1636047363281
 21
224.1352386474609
 31
0.0
  0
LINE
  5
19A
330
22
100
AcDbEntity
  8
0
  6
Continuous
 62
     7
100
AcDbLine
 10
-443.5758361816406
 20
240.3897399902344
 30
0.0
 11
-443.9275817871093
 21
243.17041015625
 31
0.0
  0
LINE
  5
19B
330
22
100
AcDbEntity
  8
0
  6
Continuous
 62
     7
100
AcDbLine
 10
-441.3636169433593
 20
226.874267578125
 30
0.0
 11
-441.3636169433593
 21
224.1352386474609
 31
0.0
  0
LINE
  5
19C
330
22
100
AcDbEntity
  8
0
  6
Continuous
 62
     7
100
AcDbLine
 10
-445.7805786132813
 20
247.1318664550781
 30
0.0
 11
-446.1520996093749
 21
247.0323333740234
 31
0.0
  0
LINE
  5
19D
330
22
100
AcDbEntity
  8
0
  6
Continuous
 62
     7
100
AcDbLine
 10
-445.7805786132813
 20
247.1318664550781
 30
0.0
 11
-445.4090576171875
 21
247.2314147949219
 31
0.0
  0
LINE
  5
19E
330
22
100
AcDbEntity
  8
0
  6
Continuous
 62
     7
100
AcDbLine
 10
-444.3188781738281
 20
240.1906585693359
 30
0.0
 11
-445.4046020507813
 21
242.7746429443359
 31
0.0
  0
LINE
  5
19F
330
22
100
AcDbEntity
  8
0
  6
Continuous
 62
     7
100
AcDbLine
 10
-445.4090576171875
 20
247.2314147949219
 30
0.0
 11
-444.3233337402343
 21
244.6474304199219
 31
0.0
  0
LINE
  5
1A0
330
22
100
AcDbEntity
  8
0
  6
Continuous
 62
     7
100
AcDbLine
 10
-441.5628051757813
 20
244.9934692382814
 30
0.0
 11
-441.4633483886718
 21
244.6222381591797
 31
0.0
  0
LINE
  5
1A1
330
22
100
AcDbEntity
  8
0
  6
Continuous
 62
     7
100
AcDbLine
 10
-448.1651306152343
 20
242.4286041259766
 30
0.0
 11
-445.4046020507813
 21
242.7746429443359
 31
0.0
  0
LINE
  5
1A2
330
22
100
AcDbEntity
  8
0
  6
Continuous
 62
     7
100
AcDbLine
 10
-378.1636047363281
 20
273.391357421875
 30
0.0
 11
-378.1636047363281
 21
251.5756378173828
 31
0.0
  0
LINE
  5
1A3
330
22
100
AcDbEntity
  8
0
  6
Continuous
 62
     7
100
AcDbLine
 10
-407.1636047363281
 20
273.391357421875
 30
0.0
 11
-407.1636047363281
 21
251.5756378173828
 31
0.0
  0
LINE
  5
1A4
330
22
100
AcDbEntity
  8
0
  6
Continuous
 62
     7
100
AcDbLine
 10
-389.5635986328125
 20
232.0301818847656
 30
0.0
 11
-389.5635986328125
 21
224.1352386474609
 31
0.0
  0
LINE
  5
1A5
330
22
100
AcDbEntity
  8
0
  6
Continuous
 62
     7
100
AcDbLine
 10
-395.7636108398438
 20
232.0301818847656
 30
0.0
 11
-395.7636108398438
 21
224.1352386474609
 31
0.0
  0
LINE
  5
1A6
330
22
100
AcDbEntity
  8
0
  6
Continuous
 62
     7
100
AcDbLine
 10
-389.5635986328125
 20
243.2301788330078
 30
0.0
 11
-389.5635986328125
 21
275.0400695800781
 31
0.0
  0
LINE
  5
1A7
330
22
100
AcDbEntity
  8
0
  6
Continuous
 62
     7
100
AcDbLine
 10
-384.3636169433594
 20
274.5575866699219
 30
0.0
 11
-384.3636169433594
 21
251.5756378173828
 31
0.0
  0
LINE
  5
1A8
330
22
100
AcDbEntity
  8
0
  6
Continuous
 62
     7
100
AcDbLine
 10
-412.3636169433593
 20
241.1094818115234
 30
0.0
 11
-412.3636169433593
 21
271.8912048339845
 31
0.0
  0
LINE
  5
1A9
330
22
100
AcDbEntity
  8
0
  6
Continuous
 62
     7
100
AcDbLine
 10
-412.3636169433593
 20
229.9094696044922
 30
0.0
 11
-412.3636169433593
 21
224.1352386474609
 31
0.0
  0
LINE
  5
1AA
330
22
100
AcDbEntity
  8
0
  6
Continuous
 62
     7
100
AcDbLine
 10
-338.7979431152344
 20
246.8228302001953
 30
0.0
 11
-339.169189453125
 21
246.9223022460938
 31
0.0
  0
LINE
  5
1AB
330
22
100
AcDbEntity
  8
0
  6
Continuous
 62
     7
100
AcDbLine
 10
-355.3636169433594
 20
248.7943420410156
 30
0.0
 11
-355.3636169433594
 21
262.5794372558594
 31
0.0
  0
LINE
  5
1AC
330
22
100
AcDbEntity
  8
0
  6
Continuous
 62
     7
100
AcDbLine
 10
-339.5404052734375
 20
247.0217742919922
 30
0.0
 11
-339.169189453125
 21
246.9223022460938
 31
0.0
  0
LINE
  5
1AD
330
22
100
AcDbEntity
  8
0
  6
Continuous
 62
     7
100
AcDbLine
 10
-338.7979431152344
 20
246.8228302001953
 30
0.0
 11
-339.1439819335938
 21
244.0623016357422
 31
0.0
  0
LINE
  5
1AE
330
22
100
AcDbEntity
  8
0
  6
Continuous
 62
     7
100
AcDbLine
 10
-350.1636047363281
 20
226.874267578125
 30
0.0
 11
-350.1636047363281
 21
224.1352386474609
 31
0.0
  0
LINE
  5
1AF
330
22
100
AcDbEntity
  8
0
  6
Continuous
 62
     7
100
AcDbLine
 10
-366.7636108398438
 20
241.1094818115234
 30
0.0
 11
-366.7636108398438
 21
269.4237365722656
 31
0.0
  0
LINE
  5
1B0
330
22
100
AcDbEntity
  8
0
  6
Continuous
 62
     7
100
AcDbLine
 10
-372.9635925292969
 20
241.1094818115234
 30
0.0
 11
-372.9635925292969
 21
271.8912048339845
 31
0.0
  0
LINE
  5
1B1
330
22
100
AcDbEntity
  8
0
  6
Continuous
 62
     7
100
AcDbLine
 10
-336.7590942382813
 20
242.2335510253906
 30
0.0
 11
-339.5397644042969
 21
242.5852813720703
 31
0.0
  0
LINE
  5
1B2
330
22
100
AcDbEntity
  8
0
  6
Continuous
 62
     7
100
AcDbLine
 10
-336.6595458984375
 20
242.6050567626953
 30
0.0
 11
-336.5599975585938
 21
242.9765777587891
 31
0.0
  0
LINE
  5
1B3
330
22
100
AcDbEntity
  8
0
  6
Continuous
 62
     7
100
AcDbLine
 10
-343.9635925292969
 20
226.874267578125
 30
0.0
 11
-343.9635925292969
 21
224.1352386474609
 31
0.0
  0
LINE
  5
1B4
330
22
100
AcDbEntity
  8
0
  6
Continuous
 62
     7
100
AcDbLine
 10
-343.501220703125
 20
244.4382781982422
 30
0.0
 11
-343.6007690429688
 21
244.0667724609375
 31
0.0
  0
LINE
  5
1B5
330
22
100
AcDbEntity
  8
0
  6
Continuous
 62
     7
100
AcDbLine
 10
-340.620361328125
 20
240.0215606689453
 30
0.0
 11
-339.5397644042969
 21
242.5852813720703
 31
0.0
  0
LINE
  5
1B6
330
22
100
AcDbEntity
  8
0
  6
Continuous
 62
     7
100
AcDbLine
 10
-341.3628234863281
 20
240.2205047607422
 30
0.0
 11
-341.0167846679688
 21
242.9810485839844
 31
0.0
  0
LINE
  5
1B7
330
22
100
AcDbEntity
  8
0
  6
Continuous
 62
     7
100
AcDbLine
 10
-341.3628234863281
 20
240.2205047607422
 30
0.0
 11
-340.9915771484375
 21
240.1210327148438
 31
0.0
  0
LINE
  5
1B8
330
22
100
AcDbEntity
  8
0
  6
Continuous
 62
     7
100
AcDbLine
 10
-372.9635925292969
 20
229.9094696044922
 30
0.0
 11
-372.9635925292969
 21
224.1352386474609
 31
0.0
  0
LINE
  5
1B9
330
22
100
AcDbEntity
  8
0
  6
Continuous
 62
     7
100
AcDbLine
 10
-400.9635925292968
 20
274.5575866699219
 30
0.0
 11
-400.9635925292968
 21
251.5756378173828
 31
0.0
  0
LINE
  5
1BA
330
22
100
AcDbEntity
  8
0
  6
Continuous
 62
     7
100
AcDbLine
 10
-332.4635925292969
 20
217.9664154052734
 30
0.0
 11
-332.4635925292969
 21
227.1160583496094
 31
0.0
  0
LINE
  5
1BB
330
22
100
AcDbEntity
  8
0
  6
Continuous
 62
     7
100
AcDbLine
 10
-395.7636108398438
 20
219.06640625
 30
0.0
 11
-395.7636108398438
 21
224.1352386474609
 31
0.0
  0
LINE
  5
1BC
330
22
100
AcDbEntity
  8
0
  6
Continuous
 62
     7
100
AcDbLine
 10
-384.3636169433594
 20
240.3756408691406
 30
0.0
 11
-384.3636169433594
 21
219.06640625
 31
0.0
  0
LINE
  5
1BD
330
22
100
AcDbEntity
  8
0
  6
Continuous
 62
     7
100
AcDbLine
 10
-389.5635986328125
 20
219.06640625
 30
0.0
 11
-389.5635986328125
 21
224.1352386474609
 31
0.0
  0
LINE
  5
1BE
330
22
100
AcDbEntity
  8
0
  6
Continuous
 62
     7
100
AcDbLine
 10
-412.3636169433593
 20
219.06640625
 30
0.0
 11
-412.3636169433593
 21
224.1352386474609
 31
0.0
  0
LINE
  5
1BF
330
22
100
AcDbEntity
  8
0
  6
Continuous
 62
     7
100
AcDbLine
 10
-346.1636047363281
 20
253.9981231689453
 30
0.0
 11
-346.1636047363281
 21
236.9742584228516
 31
0.0
  0
LINE
  5
1C0
330
22
100
AcDbEntity
  8
0
  6
Continuous
 62
     7
100
AcDbLine
 10
-350.1636047363281
 20
236.9742584228516
 30
0.0
 11
-350.1636047363281
 21
258.1654052734375
 31
0.0
  0
LINE
  5
1C1
330
22
100
AcDbEntity
  8
0
  6
Continuous
 62
     7
100
AcDbLine
 10
-340.620361328125
 20
240.0215606689453
 30
0.0
 11
-340.9915771484375
 21
240.1210327148438
 31
0.0
  0
LINE
  5
1C2
330
22
100
AcDbEntity
  8
0
  6
Continuous
 62
     7
100
AcDbLine
 10
-336.6595458984375
 20
242.6050567626953
 30
0.0
 11
-336.7590942382813
 21
242.2335510253906
 31
0.0
  0
LINE
  5
1C3
330
22
100
AcDbEntity
  8
0
  6
Continuous
 62
     7
100
AcDbLine
 10
-366.7636108398438
 20
229.9094696044922
 30
0.0
 11
-366.7636108398438
 21
224.1352386474609
 31
0.0
  0
LINE
  5
1C4
330
22
100
AcDbEntity
  8
0
  6
Continuous
 62
     7
100
AcDbLine
 10
-361.5635986328125
 20
248.7943420410156
 30
0.0
 11
-361.5635986328125
 21
266.7144775390625
 31
0.0
  0
LINE
  5
1C5
330
22
100
AcDbEntity
  8
0
  6
Continuous
 62
     7
100
AcDbLine
 10
-343.501220703125
 20
244.4382781982422
 30
0.0
 11
-343.4016723632813
 21
244.8097991943359
 31
0.0
  0
LINE
  5
1C6
330
22
100
AcDbEntity
  8
0
  6
Continuous
 62
     7
100
AcDbLine
 10
-336.5599975585938
 20
242.9765777587891
 30
0.0
 11
-339.1439819335938
 21
244.0623016357422
 31
0.0
  0
LINE
  5
1C7
330
22
100
AcDbEntity
  8
0
  6
Continuous
 62
     7
100
AcDbLine
 10
-343.4016723632813
 20
244.8097991943359
 30
0.0
 11
-340.6210021972656
 21
244.4580535888672
 31
0.0
  0
LINE
  5
1C8
330
22
100
AcDbEntity
  8
0
  6
Continuous
 62
     7
100
AcDbLine
 10
-343.6007690429688
 20
244.0667724609375
 30
0.0
 11
-341.0167846679688
 21
242.9810485839844
 31
0.0
  0
LINE
  5
1C9
330
22
100
AcDbEntity
  8
0
  6
Continuous
 62
     7
100
AcDbLine
 10
-339.5404052734375
 20
247.0217742919922
 30
0.0
 11
-340.6210021972656
 21
244.4580535888672
 31
0.0
  0
LINE
  5
1CA
330
22
100
AcDbEntity
  8
0
  6
Continuous
 62
     7
100
AcDbLine
 10
-400.9635925292968
 20
186.3602294921875
 30
0.0
 11
-400.9635925292968
 21
207.6694641113281
 31
0.0
  0
LINE
  5
1CB
330
22
100
AcDbEntity
  8
0
  6
Continuous
 62
     7
100
AcDbLine
 10
-407.1636047363281
 20
186.3602294921875
 30
0.0
 11
-407.1636047363281
 21
207.6694641113281
 31
0.0
  0
LINE
  5
1CC
330
22
100
AcDbEntity
  8
0
  6
Continuous
 62
     7
100
AcDbLine
 10
-378.1636047363281
 20
186.3602294921875
 30
0.0
 11
-378.1636047363281
 21
207.6694641113281
 31
0.0
  0
LINE
  5
1CD
330
22
100
AcDbEntity
  8
0
  6
Continuous
 62
     7
100
AcDbLine
 10
-361.5635986328125
 20
207.6694641113281
 30
0.0
 11
-361.5635986328125
 21
189.1415405273438
 31
0.0
  0
LINE
  5
1CE
330
22
100
AcDbEntity
  8
0
  6
Continuous
 62
     7
100
AcDbLine
 10
-355.3636169433594
 20
207.6694641113281
 30
0.0
 11
-355.3636169433594
 21
189.1415405273438
 31
0.0
  0
LINE
  5
1CF
330
22
100
AcDbEntity
  8
0
  6
Continuous
 62
     7
100
AcDbLine
 10
-418.5635986328125
 20
207.6694641113281
 30
0.0
 11
-418.5635986328125
 21
202.6006317138672
 31
0.0
  0
LINE
  5
1D0
330
22
100
AcDbEntity
  8
0
  6
Continuous
 62
     7
100
AcDbLine
 10
-412.3636169433593
 20
207.6694641113281
 30
0.0
 11
-412.3636169433593
 21
202.6006317138672
 31
0.0
  0
LINE
  5
1D1
330
22
100
AcDbEntity
  8
0
  6
Continuous
 62
     7
100
AcDbLine
 10
-441.3636169433593
 20
207.6694641113281
 30
0.0
 11
-441.3636169433593
 21
202.6006317138672
 31
0.0
  0
LINE
  5
1D2
330
22
100
AcDbEntity
  8
0
  6
Continuous
 62
     7
100
AcDbLine
 10
-435.1636047363281
 20
207.6694641113281
 30
0.0
 11
-435.1636047363281
 21
202.6006317138672
 31
0.0
  0
LINE
  5
1D3
330
22
100
AcDbEntity
  8
0
  6
Continuous
 62
     7
100
AcDbLine
 10
-429.9635925292968
 20
207.6694641113281
 30
0.0
 11
-429.9635925292968
 21
189.1415405273438
 31
0.0
  0
LINE
  5
1D4
330
22
100
AcDbEntity
  8
0
  6
Continuous
 62
     7
100
AcDbLine
 10
-423.7636108398437
 20
207.6694641113281
 30
0.0
 11
-423.7636108398437
 21
189.1415405273438
 31
0.0
  0
LINE
  5
1D5
330
22
100
AcDbEntity
  8
0
  6
Continuous
 62
     7
100
AcDbLine
 10
-343.9635925292969
 20
219.06640625
 30
0.0
 11
-343.9635925292969
 21
224.1352386474609
 31
0.0
  0
LINE
  5
1D6
330
22
100
AcDbEntity
  8
0
  6
Continuous
 62
     7
100
AcDbLine
 10
-400.9635925292968
 20
240.3756408691406
 30
0.0
 11
-400.9635925292968
 21
219.06640625
 31
0.0
  0
LINE
  5
1D7
330
22
100
AcDbEntity
  8
0
  6
Continuous
 62
     7
100
AcDbLine
 10
-378.1636047363281
 20
240.3756408691406
 30
0.0
 11
-378.1636047363281
 21
219.06640625
 31
0.0
  0
LINE
  5
1D8
330
22
100
AcDbEntity
  8
0
  6
Continuous
 62
     7
100
AcDbLine
 10
-407.1636047363281
 20
240.3756408691406
 30
0.0
 11
-407.1636047363281
 21
219.06640625
 31
0.0
  0
LINE
  5
1D9
330
22
100
AcDbEntity
  8
0
  6
Continuous
 62
     7
100
AcDbLine
 10
-418.5635986328125
 20
219.06640625
 30
0.0
 11
-418.5635986328125
 21
224.1352386474609
 31
0.0
  0
LINE
  5
1DA
330
22
100
AcDbEntity
  8
0
  6
Continuous
 62
     7
100
AcDbLine
 10
-372.9635925292969
 20
219.06640625
 30
0.0
 11
-372.9635925292969
 21
224.1352386474609
 31
0.0
  0
LINE
  5
1DB
330
22
100
AcDbEntity
  8
0
  6
Continuous
 62
     7
100
AcDbLine
 10
-361.5635986328125
 20
219.06640625
 30
0.0
 11
-361.5635986328125
 21
237.5943450927734
 31
0.0
  0
LINE
  5
1DC
330
22
100
AcDbEntity
  8
0
  6
Continuous
 62
     7
100
AcDbLine
 10
-366.7636108398438
 20
219.06640625
 30
0.0
 11
-366.7636108398438
 21
224.1352386474609
 31
0.0
  0
LINE
  5
1DD
330
22
100
AcDbEntity
  8
0
  6
Continuous
 62
     7
100
AcDbLine
 10
-338.7636108398438
 20
217.9664154052734
 30
0.0
 11
-338.7636108398438
 21
237.0495758056641
 31
0.0
  0
LINE
  5
1DE
330
22
100
AcDbEntity
  8
0
  6
Continuous
 62
     7
100
AcDbLine
 10
-355.3636169433594
 20
219.06640625
 30
0.0
 11
-355.3636169433594
 21
237.5943450927734
 31
0.0
  0
LINE
  5
1DF
330
22
100
AcDbEntity
  8
0
  6
Continuous
 62
     7
100
AcDbLine
 10
-350.1636047363281
 20
219.06640625
 30
0.0
 11
-350.1636047363281
 21
224.1352386474609
 31
0.0
  0
LINE
  5
1E0
330
22
100
AcDbEntity
  8
0
  6
Continuous
 62
     7
100
AcDbLine
 10
-338.7636108398438
 20
208.7694702148438
 30
0.0
 11
-338.7636108398438
 21
189.6862945556641
 31
0.0
  0
LINE
  5
1E1
330
22
100
AcDbEntity
  8
0
  6
Continuous
 62
     7
100
AcDbLine
 10
-334.4635925292969
 20
210.7694702148438
 30
0.0
 11
-336.7636108398438
 21
210.7694702148438
 31
0.0
  0
LINE
  5
1E2
330
22
100
AcDbEntity
  8
0
  6
Continuous
 62
     7
100
AcDbLine
 10
-452.8636169433593
 20
208.7694702148438
 30
0.0
 11
-452.8636169433593
 21
199.6198120117188
 31
0.0
  0
LINE
  5
1E3
330
22
100
AcDbEntity
  8
0
  6
Continuous
 62
     7
100
AcDbLine
 10
-450.8636169433593
 20
210.7694702148438
 30
0.0
 11
-448.5635986328125
 21
210.7694702148438
 31
0.0
  0
LINE
  5
1E4
330
22
100
AcDbEntity
  8
0
  6
Continuous
 62
     7
100
AcDbLine
 10
-446.5635986328124
 20
208.7694702148438
 30
0.0
 11
-446.5635986328124
 21
189.6862945556641
 31
0.0
  0
LINE
  5
1E5
330
22
100
AcDbEntity
  8
0
  6
Continuous
 62
     7
100
AcDbLine
 10
-350.1636047363281
 20
207.6694641113281
 30
0.0
 11
-350.1636047363281
 21
202.6006317138672
 31
0.0
  0
LINE
  5
1E6
330
22
100
AcDbEntity
  8
0
  6
Continuous
 62
     7
100
AcDbLine
 10
-372.9635925292969
 20
207.6694641113281
 30
0.0
 11
-372.9635925292969
 21
202.6006317138672
 31
0.0
  0
LINE
  5
1E7
330
22
100
AcDbEntity
  8
0
  6
Continuous
 62
     7
100
AcDbLine
 10
-343.9635925292969
 20
207.6694641113281
 30
0.0
 11
-343.9635925292969
 21
202.6006317138672
 31
0.0
  0
LINE
  5
1E8
330
22
100
AcDbEntity
  8
0
  6
Continuous
 62
     7
100
AcDbLine
 10
-366.7636108398438
 20
207.6694641113281
 30
0.0
 11
-366.7636108398438
 21
202.6006317138672
 31
0.0
  0
LINE
  5
1E9
330
22
100
AcDbEntity
  8
0
  6
Continuous
 62
     7
100
AcDbLine
 10
-395.7636108398438
 20
207.6694641113281
 30
0.0
 11
-395.7636108398438
 21
202.6006317138672
 31
0.0
  0
LINE
  5
1EA
330
22
100
AcDbEntity
  8
0
  6
Continuous
 62
     7
100
AcDbLine
 10
-389.5635986328125
 20
207.6694641113281
 30
0.0
 11
-389.5635986328125
 21
202.6006317138672
 31
0.0
  0
LINE
  5
1EB
330
22
100
AcDbEntity
  8
0
  6
Continuous
 62
     7
100
AcDbLine
 10
-384.3636169433594
 20
186.3602294921875
 30
0.0
 11
-384.3636169433594
 21
207.6694641113281
 31
0.0
  0
LINE
  5
1EC
330
22
100
AcDbEntity
  8
0
  6
Continuous
 62
     7
100
AcDbLine
 10
-441.3636169433593
 20
188.6390533447266
 30
0.0
 11
-441.3636169433593
 21
175.4025268554688
 31
0.0
  0
LINE
  5
1ED
330
22
100
AcDbEntity
  8
0
  6
Continuous
 62
     7
100
AcDbLine
 10
-435.1636047363281
 20
188.6390533447266
 30
0.0
 11
-435.1636047363281
 21
168.5704803466797
 31
0.0
  0
LINE
  5
1EE
330
22
100
AcDbEntity
  8
0
  6
Continuous
 62
     7
100
AcDbLine
 10
-423.7636108398437
 20
177.9415283203125
 30
0.0
 11
-423.7636108398437
 21
160.0214080810547
 31
0.0
  0
LINE
  5
1EF
330
22
100
AcDbEntity
  8
0
  6
Continuous
 62
     7
100
AcDbLine
 10
-429.9635925292968
 20
177.9415283203125
 30
0.0
 11
-429.9635925292968
 21
164.1564331054688
 31
0.0
  0
LINE
  5
1F0
330
22
100
AcDbEntity
  8
0
  6
Continuous
 62
     7
100
AcDbLine
 10
-332.4635925292969
 20
208.7694702148438
 30
0.0
 11
-332.4635925292969
 21
199.6198120117188
 31
0.0
  0
LINE
  5
1F1
330
22
100
AcDbEntity
  8
0
  6
Continuous
 62
     7
100
AcDbLine
 10
-390.4039001464844
 20
155.6472930908203
 30
0.0
 11
-392.6361694335938
 21
153.9523468017578
 31
0.0
  0
LINE
  5
1F2
330
22
100
AcDbEntity
  8
0
  6
Continuous
 62
     7
100
AcDbLine
 10
-395.3973693847656
 20
155.0887756347656
 30
0.0
 11
-393.7174072265625
 21
152.8711090087891
 31
0.0
  0
LINE
  5
1F3
330
22
100
AcDbEntity
  8
0
  6
Continuous
 62
     7
100
AcDbLine
 10
-394.8538513183594
 20
155.6322937011719
 30
0.0
 11
-392.6361694335938
 21
153.9523468017578
 31
0.0
  0
LINE
  5
1F4
330
22
100
AcDbEntity
  8
0
  6
Continuous
 62
     7
100
AcDbLine
 10
-366.7636108398438
 20
196.8264007568359
 30
0.0
 11
-366.7636108398438
 21
202.6006317138672
 31
0.0
  0
LINE
  5
1F5
330
22
100
AcDbEntity
  8
0
  6
Continuous
 62
     7
100
AcDbLine
 10
-389.5635986328125
 20
194.6757507324219
 30
0.0
 11
-389.5635986328125
 21
202.6006317138672
 31
0.0
  0
LINE
  5
1F6
330
22
100
AcDbEntity
  8
0
  6
Continuous
 62
     7
100
AcDbLine
 10
-395.7636108398438
 20
194.6757507324219
 30
0.0
 11
-395.7636108398438
 21
202.6006317138672
 31
0.0
  0
LINE
  5
1F7
330
22
100
AcDbEntity
  8
0
  6
Continuous
 62
     7
100
AcDbLine
 10
-395.3973693847656
 20
155.0887756347656
 30
0.0
 11
-393.7174072265625
 21
152.8711090087891
 31
0.0
  0
LINE
  5
1F8
330
22
100
AcDbEntity
  8
0
  6
Continuous
 62
     7
100
AcDbLine
 10
-412.3636169433593
 20
185.6264038085938
 30
0.0
 11
-412.3636169433593
 21
154.8446655273438
 31
0.0
  0
LINE
  5
1F9
330
22
100
AcDbEntity
  8
0
  6
Continuous
 62
     7
100
AcDbLine
 10
-412.3636169433593
 20
196.8264007568359
 30
0.0
 11
-412.3636169433593
 21
202.6006317138672
 31
0.0
  0
LINE
  5
1FA
330
22
100
AcDbEntity
  8
0
  6
Continuous
 62
     7
100
AcDbLine
 10
-418.5635986328125
 20
185.6264038085938
 30
0.0
 11
-418.5635986328125
 21
157.3121337890625
 31
0.0
  0
LINE
  5
1FB
330
22
100
AcDbEntity
  8
0
  6
Continuous
 62
     7
100
AcDbLine
 10
-418.5635986328125
 20
196.8264007568359
 30
0.0
 11
-418.5635986328125
 21
202.6006317138672
 31
0.0
  0
LINE
  5
1FC
330
22
100
AcDbEntity
  8
0
  6
Continuous
 62
     7
100
AcDbLine
 10
-441.3636169433593
 20
199.8616180419922
 30
0.0
 11
-441.3636169433593
 21
202.6006317138672
 31
0.0
  0
LINE
  5
1FD
330
22
100
AcDbEntity
  8
0
  6
Continuous
 62
     7
100
AcDbLine
 10
-435.1636047363281
 20
199.8616180419922
 30
0.0
 11
-435.1636047363281
 21
202.6006317138672
 31
0.0
  0
LINE
  5
1FE
330
22
100
AcDbEntity
  8
0
  6
Continuous
 62
     7
100
AcDbLine
 10
-390.4039001464844
 20
155.6472930908203
 30
0.0
 11
-392.6361694335938
 21
153.9523468017578
 31
0.0
  0
LINE
  5
1FF
330
22
100
AcDbEntity
  8
0
  6
Continuous
 62
     7
100
AcDbLine
 10
-394.8538513183594
 20
155.6322937011719
 30
0.0
 11
-395.1256103515625
 21
155.3605346679688
 31
0.0
  0
LINE
  5
200
330
22
100
AcDbEntity
  8
0
  6
Continuous
 62
     7
100
AcDbLine
 10
-372.9635925292969
 20
196.8264007568359
 30
0.0
 11
-372.9635925292969
 21
202.6006317138672
 31
0.0
  0
LINE
  5
201
330
22
100
AcDbEntity
  8
0
  6
Continuous
 62
     7
100
AcDbLine
 10
-384.3636169433594
 20
152.1782989501953
 30
0.0
 11
-384.3636169433594
 21
175.1602325439453
 31
0.0
  0
LINE
  5
202
330
22
100
AcDbEntity
  8
0
  6
Continuous
 62
     7
100
AcDbLine
 10
-389.5635986328125
 20
183.4757537841797
 30
0.0
 11
-389.5635986328125
 21
161.2077026367188
 31
0.0
  0
LINE
  5
203
330
22
100
AcDbEntity
  8
0
  6
Continuous
 62
     7
100
AcDbLine
 10
-394.8538513183594
 20
155.6322937011719
 30
0.0
 11
-395.1256103515625
 21
155.3605346679688
 31
0.0
  0
LINE
  5
204
330
22
100
AcDbEntity
  8
0
  6
Continuous
 62
     7
100
AcDbLine
 10
-350.1610717773438
 20
188.7645721435547
 30
0.0
 11
-350.1590270996094
 21
168.5748291015625
 31
0.0
  0
LINE
  5
205
330
22
100
AcDbEntity
  8
0
  6
Continuous
 62
     7
100
AcDbLine
 10
-350.1636047363281
 20
188.6390533447266
 30
0.0
 11
-350.1636047363281
 21
168.5704803466797
 31
0.0
  0
LINE
  5
206
330
22
100
AcDbEntity
  8
0
  6
Continuous
 62
     7
100
AcDbLine
 10
-343.9635925292969
 20
188.6390533447266
 30
0.0
 11
-343.9635925292969
 21
175.4025268554688
 31
0.0
  0
LINE
  5
207
330
22
100
AcDbEntity
  8
0
  6
Continuous
 62
     7
100
AcDbLine
 10
-394.8684387207031
 20
150.0949096679688
 30
0.0
 11
-392.6361694335938
 21
151.7898559570313
 31
0.0
  0
LINE
  5
208
330
22
100
AcDbEntity
  8
0
  6
Continuous
 62
     7
100
AcDbLine
 10
-395.1404113769531
 20
150.3668823242188
 30
0.0
 11
-394.8684387207031
 21
150.0949096679688
 31
0.0
  0
LINE
  5
209
330
22
100
AcDbEntity
  8
0
  6
Continuous
 62
     7
100
AcDbLine
 10
-390.1319580078125
 20
155.3753204345703
 30
0.0
 11
-390.4039001464844
 21
155.6472930908203
 31
0.0
  0
LINE
  5
20A
330
22
100
AcDbEntity
  8
0
  6
Continuous
 62
     7
100
AcDbLine
 10
-390.1319580078125
 20
155.3753204345703
 30
0.0
 11
-390.4039001464844
 21
155.6472930908203
 31
0.0
  0
LINE
  5
20B
330
22
100
AcDbEntity
  8
0
  6
Continuous
 62
     7
100
AcDbLine
 10
-389.8749694824219
 20
150.6534271240234
 30
0.0
 11
-390.146728515625
 21
150.3816680908203
 31
0.0
  0
LINE
  5
20C
330
22
100
AcDbEntity
  8
0
  6
Continuous
 62
     7
100
AcDbLine
 10
-389.8599853515625
 20
155.1033630371094
 30
0.0
 11
-391.554931640625
 21
152.8711090087891
 31
0.0
  0
LINE
  5
20D
330
22
100
AcDbEntity
  8
0
  6
Continuous
 62
     7
100
AcDbLine
 10
-390.1319580078125
 20
155.3753204345703
 30
0.0
 11
-389.8599853515625
 21
155.1033630371094
 31
0.0
  0
LINE
  5
20E
330
22
100
AcDbEntity
  8
0
  6
Continuous
 62
     7
100
AcDbLine
 10
-389.8599853515625
 20
155.1033630371094
 30
0.0
 11
-391.554931640625
 21
152.8711090087891
 31
0.0
  0
LINE
  5
20F
330
22
100
AcDbEntity
  8
0
  6
Continuous
 62
     7
100
AcDbLine
 10
-361.5635986328125
 20
177.9415283203125
 30
0.0
 11
-361.5635986328125
 21
160.0214080810547
 31
0.0
  0
LINE
  5
210
330
22
100
AcDbEntity
  8
0
  6
Continuous
 62
     7
100
AcDbLine
 10
-390.4184875488281
 20
150.1099090576172
 30
0.0
 11
-390.146728515625
 21
150.3816680908203
 31
0.0
  0
LINE
  5
211
330
22
100
AcDbEntity
  8
0
  6
Continuous
 62
     7
100
AcDbLine
 10
-395.412353515625
 20
150.6388397216797
 30
0.0
 11
-393.7174072265625
 21
152.8711090087891
 31
0.0
  0
LINE
  5
212
330
22
100
AcDbEntity
  8
0
  6
Continuous
 62
     7
100
AcDbLine
 10
-395.1404113769531
 20
150.3668823242188
 30
0.0
 11
-395.412353515625
 21
150.6388397216797
 31
0.0
  0
LINE
  5
213
330
22
100
AcDbEntity
  8
0
  6
Continuous
 62
     7
100
AcDbLine
 10
-395.412353515625
 20
150.6388397216797
 30
0.0
 11
-393.7174072265625
 21
152.8711090087891
 31
0.0
  0
LINE
  5
214
330
22
100
AcDbEntity
  8
0
  6
Continuous
 62
     7
100
AcDbLine
 10
-395.1404113769531
 20
150.3668823242188
 30
0.0
 11
-394.8684387207031
 21
150.0949096679688
 31
0.0
  0
LINE
  5
215
330
22
100
AcDbEntity
  8
0
  6
Continuous
 62
     7
100
AcDbLine
 10
-395.3973693847656
 20
155.0887756347656
 30
0.0
 11
-395.1256103515625
 21
155.3605346679688
 31
0.0
  0
LINE
  5
216
330
22
100
AcDbEntity
  8
0
  6
Continuous
 62
     7
100
AcDbLine
 10
-395.3973693847656
 20
155.0887756347656
 30
0.0
 11
-395.1256103515625
 21
155.3605346679688
 31
0.0
  0
LINE
  5
217
330
22
100
AcDbEntity
  8
0
  6
Continuous
 62
     7
100
AcDbLine
 10
-394.8538513183594
 20
155.6322937011719
 30
0.0
 11
-392.6361694335938
 21
153.9523468017578
 31
0.0
  0
LINE
  5
218
330
22
100
AcDbEntity
  8
0
  6
Continuous
 62
     7
100
AcDbLine
 10
-390.1319580078125
 20
155.3753204345703
 30
0.0
 11
-389.8599853515625
 21
155.1033630371094
 31
0.0
  0
LINE
  5
219
330
22
100
AcDbEntity
  8
0
  6
Continuous
 62
     7
100
AcDbLine
 10
-395.1404113769531
 20
150.3668823242188
 30
0.0
 11
-395.412353515625
 21
150.6388397216797
 31
0.0
  0
LINE
  5
21A
330
22
100
AcDbEntity
  8
0
  6
Continuous
 62
     7
100
AcDbLine
 10
-372.9635925292969
 20
185.6264038085938
 30
0.0
 11
-372.9635925292969
 21
154.8446655273438
 31
0.0
  0
LINE
  5
21B
330
22
100
AcDbEntity
  8
0
  6
Continuous
 62
     7
100
AcDbLine
 10
-366.7636108398438
 20
185.6264038085938
 30
0.0
 11
-366.7636108398438
 21
157.3121337890625
 31
0.0
  0
LINE
  5
21C
330
22
100
AcDbEntity
  8
0
  6
Continuous
 62
     7
100
AcDbLine
 10
-407.1636047363281
 20
153.3444976806641
 30
0.0
 11
-407.1636047363281
 21
175.1602325439453
 31
0.0
  0
LINE
  5
21D
330
22
100
AcDbEntity
  8
0
  6
Continuous
 62
     7
100
AcDbLine
 10
-400.9635925292968
 20
152.1782989501953
 30
0.0
 11
-400.9635925292968
 21
175.1602325439453
 31
0.0
  0
LINE
  5
21E
330
22
100
AcDbEntity
  8
0
  6
Continuous
 62
     7
100
AcDbLine
 10
-395.7636108398438
 20
183.4757537841797
 30
0.0
 11
-395.7636108398438
 21
161.2077026367188
 31
0.0
  0
LINE
  5
21F
330
22
100
AcDbEntity
  8
0
  6
Continuous
 62
     7
100
AcDbLine
 10
-378.1636047363281
 20
153.3444976806641
 30
0.0
 11
-378.1636047363281
 21
175.1602325439453
 31
0.0
  0
LINE
  5
220
330
22
100
AcDbEntity
  8
0
  6
Continuous
 62
     7
100
AcDbLine
 10
-355.3636169433594
 20
177.9415283203125
 30
0.0
 11
-355.3636169433594
 21
164.1564331054688
 31
0.0
  0
LINE
  5
221
330
22
100
AcDbEntity
  8
0
  6
Continuous
 62
     7
100
AcDbLine
 10
-389.8749694824219
 20
150.6534271240234
 30
0.0
 11
-390.146728515625
 21
150.3816680908203
 31
0.0
  0
LINE
  5
222
330
22
100
AcDbEntity
  8
0
  6
Continuous
 62
     7
100
AcDbLine
 10
-389.8749694824219
 20
150.6534271240234
 30
0.0
 11
-391.554931640625
 21
152.8711090087891
 31
0.0
  0
LINE
  5
223
330
22
100
AcDbEntity
  8
0
  6
Continuous
 62
     7
100
AcDbLine
 10
-394.8684387207031
 20
150.0949096679688
 30
0.0
 11
-392.6361694335938
 21
151.7898559570313
 31
0.0
  0
LINE
  5
224
330
22
100
AcDbEntity
  8
0
  6
Continuous
 62
     7
100
AcDbLine
 10
-390.4184875488281
 20
150.1099090576172
 30
0.0
 11
-392.6361694335938
 21
151.7898559570313
 31
0.0
  0
LINE
  5
225
330
22
100
AcDbEntity
  8
0
  6
Continuous
 62
     7
100
AcDbLine
 10
-389.8749694824219
 20
150.6534271240234
 30
0.0
 11
-391.554931640625
 21
152.8711090087891
 31
0.0
  0
LINE
  5
226
330
22
100
AcDbEntity
  8
0
  6
Continuous
 62
     7
100
AcDbLine
 10
-390.4184875488281
 20
150.1099090576172
 30
0.0
 11
-390.146728515625
 21
150.3816680908203
 31
0.0
  0
LINE
  5
227
330
22
100
AcDbEntity
  8
0
  6
Continuous
 62
     7
100
AcDbLine
 10
-390.4184875488281
 20
150.1099090576172
 30
0.0
 11
-392.6361694335938
 21
151.7898559570313
 31
0.0
  0
LINE
  5
228
330
22
100
AcDbEntity
  8
0
  6
Continuous
 62
     7
100
AcDbLine
 10
-350.1636047363281
 20
199.8616180419922
 30
0.0
 11
-350.1636047363281
 21
202.6006317138672
 31
0.0
  0
LINE
  5
229
330
22
100
AcDbEntity
  8
0
  6
Continuous
 62
     7
100
AcDbLine
 10
-343.9635925292969
 20
199.8616180419922
 30
0.0
 11
-343.9635925292969
 21
202.6006317138672
 31
0.0
  0
LINE
  5
22A
330
22
100
AcDbEntity
  8
0
  6
Continuous
 62
     7
100
AcDbLine
 10
-450.8636169433593
 20
215.9664154052734
 30
0.0
 11
-448.5635986328125
 21
215.9664154052734
 31
0.0
  0
LINE
  5
22B
330
22
100
AcDbEntity
  8
0
  6
CENTER
 62
     7
100
AcDbLine
 10
-392.6636047363281
 20
116.471565246582
 30
0.0
 11
-392.6636047363281
 21
308.5067443847656
 31
0.0
  0
LINE
  5
22C
330
22
100
AcDbEntity
  8
0
  6
CENTER
 62
     7
100
AcDbLine
 10
-295.70703125
 20
213.3679351806641
 30
0.0
 11
-489.9751586914063
 21
213.3679351806641
 31
0.0
  0
LINE
  5
22D
330
22
100
AcDbEntity
  8
0
  6
Continuous
 62
     7
100
AcDbLine
 10
-334.4635925292969
 20
215.9664154052734
 30
0.0
 11
-336.7636108398438
 21
215.9664154052734
 31
0.0
  0
LINE
  5
22E
330
22
100
AcDbEntity
  8
0
  6
Continuous
 62
     7
100
AcDbLine
 10
-155.1264953613281
 20
250.0456237792969
 30
0.0
 11
-150.3041687011719
 21
254.8679351806641
 31
0.0
  0
ARC
  5
22F
330
22
100
AcDbEntity
  8
0
  6
Continuous
 62
     7
100
AcDbCircle
 10
-154.4337768554688
 20
255.8679351806641
 30
0.0
 40
1.0
100
AcDbArc
 50
180.0000000000004
 51
270.0000000000005
  0
ARC
  5
230
330
22
100
AcDbEntity
  8
0
  6
Continuous
 62
     7
100
AcDbCircle
 10
-156.9337768554688
 20
302.3679504394531
 30
0.0
 40
2.0
100
AcDbArc
 50
90.00000000000019
 51
180.0000000000004
  0
ARC
  5
231
330
22
100
AcDbEntity
  8
0
  6
Continuous
 62
     7
100
AcDbCircle
 10
-163.9337768554688
 20
259.3679504394531
 30
0.0
 40
5.0
100
AcDbArc
 50
270.0000000000005
 51
0.0
  0
ARC
  5
232
330
22
100
AcDbEntity
  8
0
  6
Continuous
 62
     7
100
AcDbCircle
 10
-222.8999481201172
 20
238.6461639404297
 30
0.0
 40
1.445344805717468
100
AcDbArc
 50
269.2021343621144
 51
345.3252787150832
  0
ARC
  5
233
330
22
100
AcDbEntity
  8
0
  6
Continuous
 62
     7
100
AcDbCircle
 10
-189.9337768554688
 20
253.3679351806641
 30
0.0
 40
1.0
100
AcDbArc
 50
90.00000000000019
 51
180.0000000000004
  0
ARC
  5
234
330
22
100
AcDbEntity
  8
0
  6
Continuous
 62
     7
100
AcDbCircle
 10
-230.2974090576172
 20
240.7313537597656
 30
0.0
 40
9.130867004394533
100
AcDbArc
 50
344.4269014901835
 51
40.98972018773276
  0
ARC
  5
235
330
22
100
AcDbEntity
  8
0
  6
Continuous
 62
     7
100
AcDbCircle
 10
-204.8604888916016
 20
251.3679351806641
 30
0.0
 40
5.0
100
AcDbArc
 50
210.0000178622848
 51
270.0000000000005
  0
ARC
  5
236
330
22
100
AcDbEntity
  8
0
  6
Continuous
 62
     7
100
AcDbCircle
 10
-204.8893585205078
 20
253.4179382324219
 30
0.0
 40
3.0
100
AcDbArc
 50
210.0000761467314
 51
270.0000000000005
  0
ARC
  5
237
330
22
100
AcDbEntity
  8
0
  6
Continuous
 62
     7
100
AcDbCircle
 10
-155.9337768554688
 20
303.8679504394531
 30
0.0
 40
0.5
100
AcDbArc
 50
0.0
 51
90.00000000000019
  0
ARC
  5
238
330
22
100
AcDbEntity
  8
0
  6
Continuous
 62
     7
100
AcDbCircle
 10
-189.9337768554688
 20
173.3679351806641
 30
0.0
 40
1.0
100
AcDbArc
 50
180.0000000000004
 51
270.0000000000005
  0
ARC
  5
239
330
22
100
AcDbEntity
  8
0
  6
Continuous
 62
     7
100
AcDbCircle
 10
-154.4337768554688
 20
170.8679351806641
 30
0.0
 40
1.0
100
AcDbArc
 50
90.00000000000019
 51
180.0000000000004
  0
ARC
  5
23A
330
22
100
AcDbEntity
  8
0
  6
Continuous
 62
     7
100
AcDbCircle
 10
-155.9337768554688
 20
122.8679351806641
 30
0.0
 40
0.5
100
AcDbArc
 50
270.0000000000005
 51
0.0
  0
ARC
  5
23B
330
22
100
AcDbEntity
  8
0
  6
Continuous
 62
     7
100
AcDbCircle
 10
-163.9337768554688
 20
167.3679351806641
 30
0.0
 40
5.0
100
AcDbArc
 50
0.0
 51
90.00000000000019
  0
ARC
  5
23C
330
22
100
AcDbEntity
  8
0
  6
Continuous
 62
     7
100
AcDbCircle
 10
-156.9337768554688
 20
124.3679351806641
 30
0.0
 40
2.0
100
AcDbArc
 50
180.0000000000004
 51
270.0000000000005
  0
ARC
  5
23D
330
22
100
AcDbEntity
  8
0
  6
Continuous
 62
     7
100
AcDbCircle
 10
-136.8883056640625
 20
152.0813140869141
 30
0.0
 40
16.0
100
AcDbArc
 50
99.15419448772251
 51
161.2476139822793
  0
ARC
  5
23E
330
22
100
AcDbEntity
  8
0
  6
Continuous
 62
     7
100
AcDbCircle
 10
-153.9328002929688
 20
157.8679351806641
 30
0.0
 40
2.0
100
AcDbArc
 50
270.0000000000005
 51
341.2475271089839
  0
ARC
  5
23F
330
22
100
AcDbEntity
  8
0
  6
Continuous
 62
     7
100
AcDbCircle
 10
-224.5054168701172
 20
245.7009582519531
 30
0.0
 40
1.5
100
AcDbArc
 50
42.82011575526465
 51
90.00000000000019
  0
ARC
  5
240
330
22
100
AcDbEntity
  8
0
  6
Continuous
 62
     7
100
AcDbCircle
 10
-123.9337692260742
 20
253.8679351806641
 30
0.0
 40
1.0
100
AcDbArc
 50
0.0
 51
90.00000000000019
  0
ARC
  5
241
330
22
100
AcDbEntity
  8
0
  6
Continuous
 62
     7
100
AcDbCircle
 10
-234.9337768554689
 20
289.8679504394531
 30
0.0
 40
1.0
100
AcDbArc
 50
0.0
 51
90.00000000000019
  0
ARC
  5
242
330
22
100
AcDbEntity
  8
0
  6
Continuous
 62
     7
100
AcDbCircle
 10
-232.9337768554688
 20
284.8679504394531
 30
0.0
 40
1.0
100
AcDbArc
 50
180.0000000000004
 51
270.0000000000005
  0
ARC
  5
243
330
22
100
AcDbEntity
  8
0
  6
Continuous
 62
     7
100
AcDbCircle
 10
-236.9337768554689
 20
289.8679504394531
 30
0.0
 40
1.0
100
AcDbArc
 50
90.00000000000019
 51
180.0000000000004
  0
ARC
  5
244
330
22
100
AcDbEntity
  8
0
  6
Continuous
 62
     7
100
AcDbCircle
 10
-123.9337692260742
 20
172.8679351806641
 30
0.0
 40
1.0
100
AcDbArc
 50
270.0000000000005
 51
0.0
  0
ARC
  5
245
330
22
100
AcDbEntity
  8
0
  6
Continuous
 62
     7
100
AcDbCircle
 10
-139.4337768554688
 20
169.8679351806641
 30
0.0
 40
2.0
100
AcDbArc
 50
270.0000000000005
 51
0.0
  0
ARC
  5
246
330
22
100
AcDbEntity
  8
0
  6
Continuous
 62
     7
100
AcDbCircle
 10
-204.8893585205078
 20
173.3179321289063
 30
0.0
 40
3.0
100
AcDbArc
 50
90.00000000000019
 51
149.9999238532694
  0
ARC
  5
247
330
22
100
AcDbEntity
  8
0
  6
Continuous
 62
     7
100
AcDbCircle
 10
-234.9337768554689
 20
136.8679351806641
 30
0.0
 40
1.0
100
AcDbArc
 50
270.0000000000005
 51
0.0
  0
ARC
  5
248
330
22
100
AcDbEntity
  8
0
  6
Continuous
 62
     7
100
AcDbCircle
 10
-236.9337768554689
 20
136.8679351806641
 30
0.0
 40
1.0
100
AcDbArc
 50
180.0000000000004
 51
270.0000000000005
  0
ARC
  5
249
330
22
100
AcDbEntity
  8
0
  6
Continuous
 62
     7
100
AcDbCircle
 10
-228.5318450927734
 20
272.3679504394531
 30
0.0
 40
5.0
100
AcDbArc
 50
30.00001786228407
 51
90.00000000000019
  0
ARC
  5
24A
330
22
100
AcDbEntity
  8
0
  6
Continuous
 62
     7
100
AcDbCircle
 10
-228.8205261230469
 20
278.8679504394531
 30
0.0
 40
5.0
100
AcDbArc
 50
30.00001786228407
 51
90.00000000000019
  0
ARC
  5
24B
330
22
100
AcDbEntity
  8
0
  6
Continuous
 62
     7
100
AcDbCircle
 10
-228.8205261230469
 20
147.8679351806641
 30
0.0
 40
5.0
100
AcDbArc
 50
270.0000000000005
 51
329.9999821377166
  0
ARC
  5
24C
330
22
100
AcDbEntity
  8
0
  6
Continuous
 62
     7
100
AcDbCircle
 10
-438.2636108398438
 20
226.874267578125
 30
0.0
 40
3.099999904632568
100
AcDbArc
 50
90.00000000000019
 51
180.0000000000004
  0
ARC
  5
24D
330
22
100
AcDbEntity
  8
0
  6
Continuous
 62
     7
100
AcDbCircle
 10
-438.2636108398438
 20
226.874267578125
 30
0.0
 40
3.099999904632568
100
AcDbArc
 50
0.0
 51
90.00000000000019
  0
ARC
  5
24E
330
22
100
AcDbEntity
  8
0
  6
Continuous
 62
     7
100
AcDbCircle
 10
-392.6910400390625
 20
213.3711090087891
 30
0.0
 40
61.72245407104492
100
AcDbArc
 50
156.8795506290744
 51
167.1329461182626
  0
ARC
  5
24F
330
22
100
AcDbEntity
  8
0
  6
Continuous
 62
     7
100
AcDbCircle
 10
-448.0635986328125
 20
237.0495758056641
 30
0.0
 40
1.5
100
AcDbArc
 50
0.0
 51
158.1691515628411
  0
ARC
  5
250
330
22
100
AcDbEntity
  8
0
  6
Continuous
 62
     7
100
AcDbCircle
 10
-426.8636169433594
 20
248.7943420410156
 30
0.0
 40
3.099999904632568
100
AcDbArc
 50
180.0000000000004
 51
270.0000000000005
  0
ARC
  5
251
330
22
100
AcDbEntity
  8
0
  6
Continuous
 62
     7
100
AcDbCircle
 10
-426.8636169433594
 20
237.5943450927734
 30
0.0
 40
3.099999904632568
100
AcDbArc
 50
0.0
 51
90.00000000000019
  0
ARC
  5
252
330
22
100
AcDbEntity
  8
0
  6
Continuous
 62
     7
100
AcDbCircle
 10
-426.8636169433594
 20
248.7943420410156
 30
0.0
 40
3.099999904632568
100
AcDbArc
 50
270.0000000000005
 51
0.0
  0
ARC
  5
253
330
22
100
AcDbEntity
  8
0
  6
Continuous
 62
     7
100
AcDbCircle
 10
-392.6636047363281
 20
213.3679351806641
 30
0.0
 40
61.75
100
AcDbArc
 50
120.2413612629624
 51
127.1604038486795
  0
ARC
  5
254
330
22
100
AcDbEntity
  8
0
  6
Continuous
 62
     7
100
AcDbCircle
 10
-426.8636169433594
 20
237.5943450927734
 30
0.0
 40
3.099999904632568
100
AcDbArc
 50
90.00000000000019
 51
180.0000000000004
  0
ARC
  5
255
330
22
100
AcDbEntity
  8
0
  6
Continuous
 62
     7
100
AcDbCircle
 10
-415.4635925292969
 20
229.9094696044922
 30
0.0
 40
3.099999904632568
100
AcDbArc
 50
90.00000000000019
 51
180.0000000000004
  0
ARC
  5
256
330
22
100
AcDbEntity
  8
0
  6
Continuous
 62
     7
100
AcDbCircle
 10
-415.4635925292969
 20
229.9094696044922
 30
0.0
 40
3.099999904632568
100
AcDbArc
 50
0.0
 51
90.00000000000019
  0
ARC
  5
257
330
22
100
AcDbEntity
  8
0
  6
Continuous
 62
     7
100
AcDbCircle
 10
-415.4635925292969
 20
241.1094818115234
 30
0.0
 40
3.099999904632568
100
AcDbArc
 50
270.0000000000005
 51
0.0
  0
ARC
  5
258
330
22
100
AcDbEntity
  8
0
  6
Continuous
 62
     7
100
AcDbCircle
 10
-415.4635925292969
 20
241.1094818115234
 30
0.0
 40
3.099999904632568
100
AcDbArc
 50
180.0000000000004
 51
270.0000000000005
  0
ARC
  5
259
330
22
100
AcDbEntity
  8
0
  6
Continuous
 62
     7
100
AcDbCircle
 10
-437.163604736328
 20
236.9742584228516
 30
0.0
 40
2.0
100
AcDbArc
 50
180.0000000000004
 51
0.0
  0
CIRCLE
  5
25A
330
22
100
AcDbEntity
  8
0
  6
Continuous
 62
     7
100
AcDbCircle
 10
-444.8639831542968
 20
243.7110290527344
 30
0.0
 40
4.5
  0
CIRCLE
  5
25B
330
22
100
AcDbEntity
  8
0
  6
Continuous
 62
     7
100
AcDbCircle
 10
-444.8639831542968
 20
243.7110290527344
 30
0.0
 40
4.75
  0
ARC
  5
25C
330
22
100
AcDbEntity
  8
0
  6
Continuous
 62
     7
100
AcDbCircle
 10
-392.6636047363281
 20
213.3679351806641
 30
0.0
 40
61.75
100
AcDbArc
 50
133.4924538916171
 51
138.8540953004003
  0
ARC
  5
25D
330
22
100
AcDbEntity
  8
0
  6
Continuous
 62
     7
100
AcDbCircle
 10
-381.2636108398438
 20
240.3756408691406
 30
0.0
 40
3.099999904632568
100
AcDbArc
 50
0.0
 51
90.00000000000019
  0
ARC
  5
25E
330
22
100
AcDbEntity
  8
0
  6
Continuous
 62
     7
100
AcDbCircle
 10
-381.2636108398438
 20
251.5756378173828
 30
0.0
 40
3.099999904632568
100
AcDbArc
 50
270.0000000000005
 51
0.0
  0
ARC
  5
25F
330
22
100
AcDbEntity
  8
0
  6
Continuous
 62
     7
100
AcDbCircle
 10
-404.0635986328124
 20
240.3756408691406
 30
0.0
 40
3.099999904632568
100
AcDbArc
 50
90.00000000000019
 51
180.0000000000004
  0
ARC
  5
260
330
22
100
AcDbEntity
  8
0
  6
Continuous
 62
     7
100
AcDbCircle
 10
-404.0635986328124
 20
251.5756378173828
 30
0.0
 40
3.099999904632568
100
AcDbArc
 50
180.0000000000004
 51
270.0000000000005
  0
ARC
  5
261
330
22
100
AcDbEntity
  8
0
  6
Continuous
 62
     7
100
AcDbCircle
 10
-393.42529296875
 20
233.698486328125
 30
0.0
 40
41.40766525268555
100
AcDbArc
 50
88.94599283081708
 51
93.23725264777358
  0
ARC
  5
262
330
22
100
AcDbEntity
  8
0
  6
Continuous
 62
     7
100
AcDbCircle
 10
-404.0635986328124
 20
240.3756408691406
 30
0.0
 40
3.099999904632568
100
AcDbArc
 50
0.0
 51
90.00000000000019
  0
ARC
  5
263
330
22
100
AcDbEntity
  8
0
  6
Continuous
 62
     7
100
AcDbCircle
 10
-404.0635986328124
 20
251.5756378173828
 30
0.0
 40
3.099999904632568
100
AcDbArc
 50
270.0000000000005
 51
0.0
  0
ARC
  5
264
330
22
100
AcDbEntity
  8
0
  6
Continuous
 62
     7
100
AcDbCircle
 10
-391.9019165039063
 20
233.698486328125
 30
0.0
 40
41.40766525268555
100
AcDbArc
 50
86.76274735222641
 51
91.05400716918294
  0
ARC
  5
265
330
22
100
AcDbEntity
  8
0
  6
Continuous
 62
     7
100
AcDbCircle
 10
-392.6636047363281
 20
232.0301818847656
 30
0.0
 40
3.099999904632568
100
AcDbArc
 50
90.00000000000019
 51
180.0000000000004
  0
ARC
  5
266
330
22
100
AcDbEntity
  8
0
  6
Continuous
 62
     7
100
AcDbCircle
 10
-392.6636047363281
 20
243.2301788330078
 30
0.0
 40
3.099999904632568
100
AcDbArc
 50
180.0000000000004
 51
270.0000000000005
  0
ARC
  5
267
330
22
100
AcDbEntity
  8
0
  6
Continuous
 62
     7
100
AcDbCircle
 10
-392.6636047363281
 20
243.2301788330078
 30
0.0
 40
3.099999904632568
100
AcDbArc
 50
270.0000000000005
 51
0.0
  0
ARC
  5
268
330
22
100
AcDbEntity
  8
0
  6
Continuous
 62
     7
100
AcDbCircle
 10
-381.2636108398438
 20
240.3756408691406
 30
0.0
 40
3.099999904632568
100
AcDbArc
 50
90.00000000000019
 51
180.0000000000004
  0
ARC
  5
269
330
22
100
AcDbEntity
  8
0
  6
Continuous
 62
     7
100
AcDbCircle
 10
-392.6636047363281
 20
232.0301818847656
 30
0.0
 40
3.099999904632568
100
AcDbArc
 50
0.0
 51
90.00000000000019
  0
ARC
  5
26A
330
22
100
AcDbEntity
  8
0
  6
Continuous
 62
     7
100
AcDbCircle
 10
-392.6636047363281
 20
213.3679351806641
 30
0.0
 40
61.75
100
AcDbArc
 50
76.4191139062882
 51
82.27533686351602
  0
ARC
  5
26B
330
22
100
AcDbEntity
  8
0
  6
Continuous
 62
     7
100
AcDbCircle
 10
-381.2636108398438
 20
251.5756378173828
 30
0.0
 40
3.099999904632568
100
AcDbArc
 50
180.0000000000004
 51
270.0000000000005
  0
ARC
  5
26C
330
22
100
AcDbEntity
  8
0
  6
Continuous
 62
     7
100
AcDbCircle
 10
-392.6636047363281
 20
213.3679351806641
 30
0.0
 40
61.75
100
AcDbArc
 50
41.14590469959972
 51
46.50754610838288
  0
ARC
  5
26D
330
22
100
AcDbEntity
  8
0
  6
Continuous
 62
     7
100
AcDbCircle
 10
-392.6636047363281
 20
213.3679351806641
 30
0.0
 40
61.75
100
AcDbArc
 50
108.6041824337126
 51
114.7988016845019
  0
ARC
  5
26E
330
22
100
AcDbEntity
  8
0
  6
Continuous
 62
     7
100
AcDbCircle
 10
-358.4635925292969
 20
237.5943450927734
 30
0.0
 40
3.099999904632568
100
AcDbArc
 50
0.0
 51
90.00000000000019
  0
ARC
  5
26F
330
22
100
AcDbEntity
  8
0
  6
Continuous
 62
     7
100
AcDbCircle
 10
-392.6636047363281
 20
213.3679351806641
 30
0.0
 40
61.75
100
AcDbArc
 50
52.83959615132046
 51
59.75863873703762
  0
ARC
  5
270
330
22
100
AcDbEntity
  8
0
  6
Continuous
 62
     7
100
AcDbCircle
 10
-358.4635925292969
 20
248.7943420410156
 30
0.0
 40
3.099999904632568
100
AcDbArc
 50
270.0000000000005
 51
0.0
  0
ARC
  5
271
330
22
100
AcDbEntity
  8
0
  6
Continuous
 62
     7
100
AcDbCircle
 10
-369.8636169433594
 20
241.1094818115234
 30
0.0
 40
3.099999904632568
100
AcDbArc
 50
180.0000000000004
 51
270.0000000000005
  0
ARC
  5
272
330
22
100
AcDbEntity
  8
0
  6
Continuous
 62
     7
100
AcDbCircle
 10
-369.8636169433594
 20
241.1094818115234
 30
0.0
 40
3.099999904632568
100
AcDbArc
 50
270.0000000000005
 51
0.0
  0
ARC
  5
273
330
22
100
AcDbEntity
  8
0
  6
Continuous
 62
     7
100
AcDbCircle
 10
-392.6636047363281
 20
213.3679351806641
 30
0.0
 40
61.75
100
AcDbArc
 50
65.20119831549813
 51
71.39581756628745
  0
CIRCLE
  5
274
330
22
100
AcDbEntity
  8
0
  6
Continuous
 62
     7
100
AcDbCircle
 10
-340.0803833007813
 20
243.5216674804689
 30
0.0
 40
4.75
  0
ARC
  5
275
330
22
100
AcDbEntity
  8
0
  6
Continuous
 62
     7
100
AcDbCircle
 10
-392.6636047363281
 20
213.3679351806641
 30
0.0
 40
61.75
100
AcDbArc
 50
97.72466313648399
 51
103.5808860937118
  0
ARC
  5
276
330
22
100
AcDbEntity
  8
0
  6
Continuous
 62
     7
100
AcDbCircle
 10
-369.8636169433594
 20
229.9094696044922
 30
0.0
 40
3.099999904632568
100
AcDbArc
 50
90.00000000000019
 51
180.0000000000004
  0
ARC
  5
277
330
22
100
AcDbEntity
  8
0
  6
Continuous
 62
     7
100
AcDbCircle
 10
-348.1636047363281
 20
236.9742584228516
 30
0.0
 40
2.0
100
AcDbArc
 50
180.0000000000004
 51
0.0
  0
ARC
  5
278
330
22
100
AcDbEntity
  8
0
  6
Continuous
 62
     7
100
AcDbCircle
 10
-392.6361694335938
 20
213.3711090087891
 30
0.0
 40
61.72245407104492
100
AcDbArc
 50
12.86705388173744
 51
23.12044937092563
  0
ARC
  5
279
330
22
100
AcDbEntity
  8
0
  6
Continuous
 62
     7
100
AcDbCircle
 10
-369.8636169433594
 20
229.9094696044922
 30
0.0
 40
3.099999904632568
100
AcDbArc
 50
0.0
 51
90.00000000000019
  0
ARC
  5
27A
330
22
100
AcDbEntity
  8
0
  6
Continuous
 62
     7
100
AcDbCircle
 10
-358.4635925292969
 20
237.5943450927734
 30
0.0
 40
3.099999904632568
100
AcDbArc
 50
90.00000000000019
 51
180.0000000000004
  0
ARC
  5
27B
330
22
100
AcDbEntity
  8
0
  6
Continuous
 62
     7
100
AcDbCircle
 10
-358.4635925292969
 20
248.7943420410156
 30
0.0
 40
3.099999904632568
100
AcDbArc
 50
180.0000000000004
 51
270.0000000000005
  0
ARC
  5
27C
330
22
100
AcDbEntity
  8
0
  6
Continuous
 62
     7
100
AcDbCircle
 10
-337.2636108398438
 20
237.0495758056641
 30
0.0
 40
1.5
100
AcDbArc
 50
21.83084843715887
 51
180.0000000000004
  0
ARC
  5
27D
330
22
100
AcDbEntity
  8
0
  6
Continuous
 62
     7
100
AcDbCircle
 10
-347.0635986328125
 20
226.874267578125
 30
0.0
 40
3.099999904632568
100
AcDbArc
 50
0.0
 51
90.00000000000019
  0
ARC
  5
27E
330
22
100
AcDbEntity
  8
0
  6
Continuous
 62
     7
100
AcDbCircle
 10
-347.0635986328125
 20
226.874267578125
 30
0.0
 40
3.099999904632568
100
AcDbArc
 50
90.00000000000019
 51
180.0000000000004
  0
CIRCLE
  5
27F
330
22
100
AcDbEntity
  8
0
  6
Continuous
 62
     7
100
AcDbCircle
 10
-340.0803833007813
 20
243.5216674804689
 30
0.0
 40
4.5
  0
ARC
  5
280
330
22
100
AcDbEntity
  8
0
  6
Continuous
 62
     7
100
AcDbCircle
 10
-404.0635986328124
 20
207.6694641113281
 30
0.0
 40
3.099999904632568
100
AcDbArc
 50
90.00000000000019
 51
180.0000000000004
  0
ARC
  5
281
330
22
100
AcDbEntity
  8
0
  6
Continuous
 62
     7
100
AcDbCircle
 10
-404.0635986328124
 20
207.6694641113281
 30
0.0
 40
3.099999904632568
100
AcDbArc
 50
0.0
 51
90.00000000000019
  0
ARC
  5
282
330
22
100
AcDbEntity
  8
0
  6
Continuous
 62
     7
100
AcDbCircle
 10
-392.6636047363281
 20
207.6694641113281
 30
0.0
 40
3.099999904632568
100
AcDbArc
 50
90.00000000000019
 51
180.0000000000004
  0
ARC
  5
283
330
22
100
AcDbEntity
  8
0
  6
Continuous
 62
     7
100
AcDbCircle
 10
-392.6636047363281
 20
207.6694641113281
 30
0.0
 40
3.099999904632568
100
AcDbArc
 50
0.0
 51
90.00000000000019
  0
ARC
  5
284
330
22
100
AcDbEntity
  8
0
  6
Continuous
 62
     7
100
AcDbCircle
 10
-381.2636108398438
 20
207.6694641113281
 30
0.0
 40
3.099999904632568
100
AcDbArc
 50
90.00000000000019
 51
180.0000000000004
  0
ARC
  5
285
330
22
100
AcDbEntity
  8
0
  6
Continuous
 62
     7
100
AcDbCircle
 10
-415.4635925292969
 20
207.6694641113281
 30
0.0
 40
3.099999904632568
100
AcDbArc
 50
90.00000000000019
 51
180.0000000000004
  0
ARC
  5
286
330
22
100
AcDbEntity
  8
0
  6
Continuous
 62
     7
100
AcDbCircle
 10
-415.4635925292969
 20
207.6694641113281
 30
0.0
 40
3.099999904632568
100
AcDbArc
 50
0.0
 51
90.00000000000019
  0
ARC
  5
287
330
22
100
AcDbEntity
  8
0
  6
Continuous
 62
     7
100
AcDbCircle
 10
-448.5635986328125
 20
208.7694702148438
 30
0.0
 40
2.0
100
AcDbArc
 50
0.0
 51
90.00000000000019
  0
ARC
  5
288
330
22
100
AcDbEntity
  8
0
  6
Continuous
 62
     7
100
AcDbCircle
 10
-450.8636169433593
 20
208.7694702148438
 30
0.0
 40
2.0
100
AcDbArc
 50
90.00000000000019
 51
184.413323061828
  0
ARC
  5
289
330
22
100
AcDbEntity
  8
0
  6
Continuous
 62
     7
100
AcDbCircle
 10
-438.2636108398438
 20
207.6694641113281
 30
0.0
 40
3.099999904632568
100
AcDbArc
 50
0.0
 51
90.00000000000019
  0
ARC
  5
28A
330
22
100
AcDbEntity
  8
0
  6
Continuous
 62
     7
100
AcDbCircle
 10
-438.2636108398438
 20
207.6694641113281
 30
0.0
 40
3.099999904632568
100
AcDbArc
 50
90.00000000000019
 51
180.0000000000004
  0
ARC
  5
28B
330
22
100
AcDbEntity
  8
0
  6
Continuous
 62
     7
100
AcDbCircle
 10
-426.8636169433594
 20
207.6694641113281
 30
0.0
 40
3.099999904632568
100
AcDbArc
 50
0.0
 51
90.00000000000019
  0
ARC
  5
28C
330
22
100
AcDbEntity
  8
0
  6
Continuous
 62
     7
100
AcDbCircle
 10
-426.8636169433594
 20
207.6694641113281
 30
0.0
 40
3.099999904632568
100
AcDbArc
 50
90.00000000000019
 51
180.0000000000004
  0
ARC
  5
28D
330
22
100
AcDbEntity
  8
0
  6
Continuous
 62
     7
100
AcDbCircle
 10
-392.6910400390625
 20
213.3647766113281
 30
0.0
 40
61.72245407104492
100
AcDbArc
 50
192.8670676905009
 51
203.1204623977026
  0
ARC
  5
28E
330
22
100
AcDbEntity
  8
0
  6
Continuous
 62
     7
100
AcDbCircle
 10
-438.2636108398438
 20
188.6390533447266
 30
0.0
 40
3.099999904632568
100
AcDbArc
 50
0.0
 51
90.00000000000019
  0
ARC
  5
28F
330
22
100
AcDbEntity
  8
0
  6
Continuous
 62
     7
100
AcDbCircle
 10
-438.2636108398438
 20
188.6390533447266
 30
0.0
 40
3.099999904632568
100
AcDbArc
 50
90.00000000000019
 51
180.0000000000004
  0
ARC
  5
290
330
22
100
AcDbEntity
  8
0
  6
Continuous
 62
     7
100
AcDbCircle
 10
-438.2636108398438
 20
199.8616180419922
 30
0.0
 40
3.099999904632568
100
AcDbArc
 50
270.0000000000005
 51
0.0
  0
ARC
  5
291
330
22
100
AcDbEntity
  8
0
  6
Continuous
 62
     7
100
AcDbCircle
 10
-438.2636108398438
 20
199.8616180419922
 30
0.0
 40
3.099999904632568
100
AcDbArc
 50
180.0000000000004
 51
270.0000000000005
  0
ARC
  5
292
330
22
100
AcDbEntity
  8
0
  6
Continuous
 62
     7
100
AcDbCircle
 10
-448.0635986328125
 20
189.6862945556641
 30
0.0
 40
1.5
100
AcDbArc
 50
201.8308484371596
 51
0.0
  0
ARC
  5
293
330
22
100
AcDbEntity
  8
0
  6
Continuous
 62
     7
100
AcDbCircle
 10
-392.6636047363281
 20
213.3679351806641
 30
0.0
 40
61.75
100
AcDbArc
 50
232.8395961513212
 51
239.7586316063874
  0
ARC
  5
294
330
22
100
AcDbEntity
  8
0
  6
Continuous
 62
     7
100
AcDbCircle
 10
-426.8636169433594
 20
177.9415283203125
 30
0.0
 40
3.099999904632568
100
AcDbArc
 50
90.00000000000019
 51
180.0000000000004
  0
ARC
  5
295
330
22
100
AcDbEntity
  8
0
  6
Continuous
 62
     7
100
AcDbCircle
 10
-426.8636169433594
 20
177.9415283203125
 30
0.0
 40
3.099999904632568
100
AcDbArc
 50
0.0
 51
90.00000000000019
  0
ARC
  5
296
330
22
100
AcDbEntity
  8
0
  6
Continuous
 62
     7
100
AcDbCircle
 10
-426.8636169433594
 20
189.1415405273438
 30
0.0
 40
3.099999904632568
100
AcDbArc
 50
270.0000000000005
 51
0.0
  0
ARC
  5
297
330
22
100
AcDbEntity
  8
0
  6
Continuous
 62
     7
100
AcDbCircle
 10
-426.8636169433594
 20
189.1415405273438
 30
0.0
 40
3.099999904632568
100
AcDbArc
 50
180.0000000000004
 51
270.0000000000005
  0
ARC
  5
298
330
22
100
AcDbEntity
  8
0
  6
Continuous
 62
     7
100
AcDbCircle
 10
-381.2636108398438
 20
207.6694641113281
 30
0.0
 40
3.099999904632568
100
AcDbArc
 50
0.0
 51
90.00000000000019
  0
ARC
  5
299
330
22
100
AcDbEntity
  8
0
  6
Continuous
 62
     7
100
AcDbCircle
 10
-358.4635925292969
 20
207.6694641113281
 30
0.0
 40
3.099999904632568
100
AcDbArc
 50
0.0
 51
90.00000000000019
  0
ARC
  5
29A
330
22
100
AcDbEntity
  8
0
  6
Continuous
 62
     7
100
AcDbCircle
 10
-336.7636108398438
 20
208.7694702148438
 30
0.0
 40
2.0
100
AcDbArc
 50
90.00000000000019
 51
180.0000000000004
  0
ARC
  5
29B
330
22
100
AcDbEntity
  8
0
  6
Continuous
 62
     7
100
AcDbCircle
 10
-334.4635925292969
 20
208.7694702148438
 30
0.0
 40
2.0
100
AcDbArc
 50
355.5866769381733
 51
90.00000000000019
  0
ARC
  5
29C
330
22
100
AcDbEntity
  8
0
  6
Continuous
 62
     7
100
AcDbCircle
 10
-347.0635986328125
 20
207.6694641113281
 30
0.0
 40
3.099999904632568
100
AcDbArc
 50
0.0
 51
90.00000000000019
  0
ARC
  5
29D
330
22
100
AcDbEntity
  8
0
  6
Continuous
 62
     7
100
AcDbCircle
 10
-358.4635925292969
 20
207.6694641113281
 30
0.0
 40
3.099999904632568
100
AcDbArc
 50
90.00000000000019
 51
180.0000000000004
  0
ARC
  5
29E
330
22
100
AcDbEntity
  8
0
  6
Continuous
 62
     7
100
AcDbCircle
 10
-347.0635986328125
 20
207.6694641113281
 30
0.0
 40
3.099999904632568
100
AcDbArc
 50
90.00000000000019
 51
180.0000000000004
  0
ARC
  5
29F
330
22
100
AcDbEntity
  8
0
  6
Continuous
 62
     7
100
AcDbCircle
 10
-369.8636169433594
 20
207.6694641113281
 30
0.0
 40
3.099999904632568
100
AcDbArc
 50
0.0
 51
90.00000000000019
  0
ARC
  5
2A0
330
22
100
AcDbEntity
  8
0
  6
Continuous
 62
     7
100
AcDbCircle
 10
-369.8636169433594
 20
207.6694641113281
 30
0.0
 40
3.099999904632568
100
AcDbArc
 50
90.00000000000019
 51
180.0000000000004
  0
ARC
  5
2A1
330
22
100
AcDbEntity
  8
0
  6
Continuous
 62
     7
100
AcDbCircle
 10
-358.4635925292969
 20
189.1415405273438
 30
0.0
 40
3.099999904632568
100
AcDbArc
 50
270.0000000000005
 51
0.0
  0
ARC
  5
2A2
330
22
100
AcDbEntity
  8
0
  6
Continuous
 62
     7
100
AcDbCircle
 10
-337.2636108398438
 20
189.6862945556641
 30
0.0
 40
1.5
100
AcDbArc
 50
180.0000000000004
 51
338.1691515628419
  0
ARC
  5
2A3
330
22
100
AcDbEntity
  8
0
  6
Continuous
 62
     7
100
AcDbCircle
 10
-392.6636047363281
 20
194.6757507324219
 30
0.0
 40
3.099999904632568
100
AcDbArc
 50
180.0000000000004
 51
270.0000000000005
  0
ARC
  5
2A4
330
22
100
AcDbEntity
  8
0
  6
Continuous
 62
     7
100
AcDbCircle
 10
-392.6636047363281
 20
194.6757507324219
 30
0.0
 40
3.099999904632568
100
AcDbArc
 50
270.0000000000005
 51
0.0
  0
ARC
  5
2A5
330
22
100
AcDbEntity
  8
0
  6
Continuous
 62
     7
100
AcDbCircle
 10
-347.0635986328125
 20
188.6390533447266
 30
0.0
 40
3.099999904632568
100
AcDbArc
 50
90.00000000000019
 51
180.0000000000004
  0
ARC
  5
2A6
330
22
100
AcDbEntity
  8
0
  6
Continuous
 62
     7
100
AcDbCircle
 10
-392.6636047363281
 20
213.3679351806641
 30
0.0
 40
61.75
100
AcDbArc
 50
245.2011983154988
 51
251.3958175662882
  0
ARC
  5
2A7
330
22
100
AcDbEntity
  8
0
  6
Continuous
 62
     7
100
AcDbCircle
 10
-415.4635925292969
 20
185.6264038085938
 30
0.0
 40
3.099999904632568
100
AcDbArc
 50
0.0
 51
90.00000000000019
  0
ARC
  5
2A8
330
22
100
AcDbEntity
  8
0
  6
Continuous
 62
     7
100
AcDbCircle
 10
-415.4635925292969
 20
185.6264038085938
 30
0.0
 40
3.099999904632568
100
AcDbArc
 50
90.00000000000019
 51
180.0000000000004
  0
ARC
  5
2A9
330
22
100
AcDbEntity
  8
0
  6
Continuous
 62
     7
100
AcDbCircle
 10
-415.4635925292969
 20
196.8264007568359
 30
0.0
 40
3.099999904632568
100
AcDbArc
 50
270.0000000000005
 51
0.0
  0
ARC
  5
2AA
330
22
100
AcDbEntity
  8
0
  6
Continuous
 62
     7
100
AcDbCircle
 10
-415.4635925292969
 20
196.8264007568359
 30
0.0
 40
3.099999904632568
100
AcDbArc
 50
180.0000000000004
 51
270.0000000000005
  0
ARC
  5
2AB
330
22
100
AcDbEntity
  8
0
  6
Continuous
 62
     7
100
AcDbCircle
 10
-392.6636047363281
 20
213.3679351806641
 30
0.0
 40
61.75
100
AcDbArc
 50
217.9391585230292
 51
226.5075363639255
  0
ARC
  5
2AC
330
22
100
AcDbEntity
  8
0
  6
Continuous
 62
     7
100
AcDbCircle
 10
-392.6636047363281
 20
213.3679351806641
 30
0.0
 40
61.75
100
AcDbArc
 50
221.1459046996004
 51
226.5075363639255
  0
ARC
  5
2AD
330
22
100
AcDbEntity
  8
0
  6
Continuous
 62
     7
100
AcDbCircle
 10
-358.4635925292969
 20
189.1415405273438
 30
0.0
 40
3.099999904632568
100
AcDbArc
 50
180.0000000000004
 51
270.0000000000005
  0
ARC
  5
2AE
330
22
100
AcDbEntity
  8
0
  6
Continuous
 62
     7
100
AcDbCircle
 10
-369.8636169433594
 20
185.6264038085938
 30
0.0
 40
3.099999904632568
100
AcDbArc
 50
0.0
 51
90.00000000000019
  0
ARC
  5
2AF
330
22
100
AcDbEntity
  8
0
  6
Continuous
 62
     7
100
AcDbCircle
 10
-369.8636169433594
 20
185.6264038085938
 30
0.0
 40
3.099999904632568
100
AcDbArc
 50
90.00000000000019
 51
180.0000000000004
  0
CIRCLE
  5
2B0
330
22
100
AcDbEntity
  8
0
  6
Continuous
 62
     7
100
AcDbCircle
 10
-392.6361694335938
 20
152.8711090087891
 30
0.0
 40
4.75
  0
CIRCLE
  5
2B1
330
22
100
AcDbEntity
  8
0
  6
Continuous
 62
     7
100
AcDbCircle
 10
-392.6361694335938
 20
152.8711090087891
 30
0.0
 40
4.5
  0
ARC
  5
2B2
330
22
100
AcDbEntity
  8
0
  6
Continuous
 62
     7
100
AcDbCircle
 10
-347.0635986328125
 20
199.8616180419922
 30
0.0
 40
3.099999904632568
100
AcDbArc
 50
180.0000000000004
 51
270.0000000000005
  0
ARC
  5
2B3
330
22
100
AcDbEntity
  8
0
  6
Continuous
 62
     7
100
AcDbCircle
 10
-392.6361694335938
 20
213.3647766113281
 30
0.0
 40
61.72245407104492
100
AcDbArc
 50
336.8795376022987
 51
347.1329323095005
  0
ARC
  5
2B4
330
22
100
AcDbEntity
  8
0
  6
Continuous
 62
     7
100
AcDbCircle
 10
-392.6636047363281
 20
213.3679351806641
 30
0.0
 40
61.75
100
AcDbArc
 50
277.7246650395174
 51
283.5808827691322
  0
ARC
  5
2B5
330
22
100
AcDbEntity
  8
0
  6
Continuous
 62
     7
100
AcDbCircle
 10
-347.0635986328125
 20
188.6390533447266
 30
0.0
 40
3.099999904632568
100
AcDbArc
 50
0.0
 51
90.00000000000019
  0
ARC
  5
2B6
330
22
100
AcDbEntity
  8
0
  6
Continuous
 62
     7
100
AcDbCircle
 10
-347.0635986328125
 20
199.8616180419922
 30
0.0
 40
3.099999904632568
100
AcDbArc
 50
270.0000000000005
 51
0.0
  0
ARC
  5
2B7
330
22
100
AcDbEntity
  8
0
  6
Continuous
 62
     7
100
AcDbCircle
 10
-369.8636169433594
 20
196.8264007568359
 30
0.0
 40
3.099999904632568
100
AcDbArc
 50
270.0000000000005
 51
0.0
  0
ARC
  5
2B8
330
22
100
AcDbEntity
  8
0
  6
Continuous
 62
     7
100
AcDbCircle
 10
-369.8636169433594
 20
196.8264007568359
 30
0.0
 40
3.099999904632568
100
AcDbArc
 50
180.0000000000004
 51
270.0000000000005
  0
CIRCLE
  5
2B9
330
22
100
AcDbEntity
  8
0
  6
Continuous
 62
     7
100
AcDbCircle
 10
-392.6361694335938
 20
152.8711090087891
 30
0.0
 40
4.75
  0
ARC
  5
2BA
330
22
100
AcDbEntity
  8
0
  6
Continuous
 62
     7
100
AcDbCircle
 10
-392.6636047363281
 20
183.4757537841797
 30
0.0
 40
3.099999904632568
100
AcDbArc
 50
0.0
 51
90.00000000000019
  0
ARC
  5
2BB
330
22
100
AcDbEntity
  8
0
  6
Continuous
 62
     7
100
AcDbCircle
 10
-392.6636047363281
 20
183.4757537841797
 30
0.0
 40
3.099999904632568
100
AcDbArc
 50
90.00000000000019
 51
180.0000000000004
  0
ARC
  5
2BC
330
22
100
AcDbEntity
  8
0
  6
Continuous
 62
     7
100
AcDbCircle
 10
-381.2636108398438
 20
186.3602294921875
 30
0.0
 40
3.099999904632568
100
AcDbArc
 50
180.0000000000004
 51
270.0000000000005
  0
ARC
  5
2BD
330
22
100
AcDbEntity
  8
0
  6
Continuous
 62
     7
100
AcDbCircle
 10
-381.2636108398438
 20
175.1602325439453
 30
0.0
 40
3.099999904632568
100
AcDbArc
 50
90.00000000000019
 51
180.0000000000004
  0
ARC
  5
2BE
330
22
100
AcDbEntity
  8
0
  6
CENTER
 62
     7
100
AcDbCircle
 10
-392.6361694335938
 20
213.3711090087891
 30
0.0
 40
60.5
100
AcDbArc
 50
263.3690079032323
 51
276.5790288526923
  0
CIRCLE
  5
2BF
330
22
100
AcDbEntity
  8
0
  6
Continuous
 62
     7
100
AcDbCircle
 10
-392.6361694335938
 20
152.8711090087891
 30
0.0
 40
4.5
  0
ARC
  5
2C0
330
22
100
AcDbEntity
  8
0
  6
Continuous
 62
     7
100
AcDbCircle
 10
-392.6636047363281
 20
161.2077026367188
 30
0.0
 40
3.099999904632568
100
AcDbArc
 50
180.0000000000004
 51
270.0000000000005
  0
ARC
  5
2C1
330
22
100
AcDbEntity
  8
0
  6
Continuous
 62
     7
100
AcDbCircle
 10
-392.6636047363281
 20
161.2077026367188
 30
0.0
 40
3.099999904632568
100
AcDbArc
 50
270.0000000000005
 51
0.0
  0
ARC
  5
2C2
330
22
100
AcDbEntity
  8
0
  6
CENTER
 62
     7
100
AcDbCircle
 10
-392.6361694335938
 20
213.3711090087891
 30
0.0
 40
60.5
100
AcDbArc
 50
263.3690079032323
 51
276.5790288526923
  0
ARC
  5
2C3
330
22
100
AcDbEntity
  8
0
  6
Continuous
 62
     7
100
AcDbCircle
 10
-358.4635925292969
 20
177.9415283203125
 30
0.0
 40
3.099999904632568
100
AcDbArc
 50
90.00000000000019
 51
180.0000000000004
  0
ARC
  5
2C4
330
22
100
AcDbEntity
  8
0
  6
Continuous
 62
     7
100
AcDbCircle
 10
-381.2636108398438
 20
175.1602325439453
 30
0.0
 40
3.099999904632568
100
AcDbArc
 50
0.0
 51
90.00000000000019
  0
ARC
  5
2C5
330
22
100
AcDbEntity
  8
0
  6
Continuous
 62
     7
100
AcDbCircle
 10
-381.2636108398438
 20
186.3602294921875
 30
0.0
 40
3.099999904632568
100
AcDbArc
 50
270.0000000000005
 51
0.0
  0
ARC
  5
2C6
330
22
100
AcDbEntity
  8
0
  6
Continuous
 62
     7
100
AcDbCircle
 10
-392.6636047363281
 20
213.3679351806641
 30
0.0
 40
61.75
100
AcDbArc
 50
288.6041824337133
 51
294.7988016845026
  0
ARC
  5
2C7
330
22
100
AcDbEntity
  8
0
  6
Continuous
 62
     7
100
AcDbCircle
 10
-358.4635925292969
 20
177.9415283203125
 30
0.0
 40
3.099999904632568
100
AcDbArc
 50
0.0
 51
90.00000000000019
  0
ARC
  5
2C8
330
22
100
AcDbEntity
  8
0
  6
Continuous
 62
     7
100
AcDbCircle
 10
-392.6636047363281
 20
213.3679351806641
 30
0.0
 40
61.75
100
AcDbArc
 50
300.241368393614
 51
307.1604038486802
  0
ARC
  5
2C9
330
22
100
AcDbEntity
  8
0
  6
Continuous
 62
     7
100
AcDbCircle
 10
-404.0635986328124
 20
186.3602294921875
 30
0.0
 40
3.099999904632568
100
AcDbArc
 50
180.0000000000004
 51
270.0000000000005
  0
ARC
  5
2CA
330
22
100
AcDbEntity
  8
0
  6
Continuous
 62
     7
100
AcDbCircle
 10
-404.0635986328124
 20
175.1602325439453
 30
0.0
 40
3.099999904632568
100
AcDbArc
 50
90.00000000000019
 51
180.0000000000004
  0
ARC
  5
2CB
330
22
100
AcDbEntity
  8
0
  6
Continuous
 62
     7
100
AcDbCircle
 10
-404.0635986328124
 20
186.3602294921875
 30
0.0
 40
3.099999904632568
100
AcDbArc
 50
270.0000000000005
 51
0.0
  0
ARC
  5
2CC
330
22
100
AcDbEntity
  8
0
  6
Continuous
 62
     7
100
AcDbCircle
 10
-404.0635986328124
 20
175.1602325439453
 30
0.0
 40
3.099999904632568
100
AcDbArc
 50
0.0
 51
90.00000000000019
  0
ARC
  5
2CD
330
22
100
AcDbEntity
  8
0
  6
Continuous
 62
     7
100
AcDbCircle
 10
-392.6636047363281
 20
213.3679351806641
 30
0.0
 40
61.75
100
AcDbArc
 50
256.4191172308692
 51
262.275334960484
  0
ARC
  5
2CE
330
22
100
AcDbEntity
  8
0
  6
Continuous
 62
     7
100
AcDbCircle
 10
-392.6636047363281
 20
213.3679351806641
 30
0.0
 40
61.75
100
AcDbArc
 50
313.4924636360759
 51
322.0608414769723
  0
ARC
  5
2CF
330
22
100
AcDbEntity
  8
0
  6
Continuous
 62
     7
100
AcDbCircle
 10
-392.6636047363281
 20
213.3679351806641
 30
0.0
 40
61.75
100
AcDbArc
 50
313.4924636360759
 51
322.0608414769723
  0
ARC
  5
2D0
330
22
100
AcDbEntity
  8
0
  6
Continuous
 62
     7
100
AcDbCircle
 10
-404.0635986328124
 20
219.06640625
 30
0.0
 40
3.099999904632568
100
AcDbArc
 50
180.0000000000004
 51
270.0000000000005
  0
ARC
  5
2D1
330
22
100
AcDbEntity
  8
0
  6
Continuous
 62
     7
100
AcDbCircle
 10
-392.6636047363281
 20
219.06640625
 30
0.0
 40
3.099999904632568
100
AcDbArc
 50
180.0000000000004
 51
270.0000000000005
  0
ARC
  5
2D2
330
22
100
AcDbEntity
  8
0
  6
Continuous
 62
     7
100
AcDbCircle
 10
-404.0635986328124
 20
219.06640625
 30
0.0
 40
3.099999904632568
100
AcDbArc
 50
270.0000000000005
 51
0.0
  0
ARC
  5
2D3
330
22
100
AcDbEntity
  8
0
  6
Continuous
 62
     7
100
AcDbCircle
 10
-381.2636108398438
 20
219.06640625
 30
0.0
 40
3.099999904632568
100
AcDbArc
 50
180.0000000000004
 51
270.0000000000005
  0
ARC
  5
2D4
330
22
100
AcDbEntity
  8
0
  6
Continuous
 62
     7
100
AcDbCircle
 10
-392.6636047363281
 20
219.06640625
 30
0.0
 40
3.099999904632568
100
AcDbArc
 50
270.0000000000005
 51
0.0
  0
ARC
  5
2D5
330
22
100
AcDbEntity
  8
0
  6
Continuous
 62
     7
100
AcDbCircle
 10
-438.2636108398438
 20
219.06640625
 30
0.0
 40
3.099999904632568
100
AcDbArc
 50
270.0000000000005
 51
0.0
  0
ARC
  5
2D6
330
22
100
AcDbEntity
  8
0
  6
Continuous
 62
     7
100
AcDbCircle
 10
-438.2636108398438
 20
219.06640625
 30
0.0
 40
3.099999904632568
100
AcDbArc
 50
180.0000000000004
 51
270.0000000000005
  0
ARC
  5
2D7
330
22
100
AcDbEntity
  8
0
  6
Continuous
 62
     7
100
AcDbCircle
 10
-450.8636169433593
 20
217.9664154052734
 30
0.0
 40
2.0
100
AcDbArc
 50
175.5871127789129
 51
270.0000000000005
  0
ARC
  5
2D8
330
22
100
AcDbEntity
  8
0
  6
Continuous
 62
     7
100
AcDbCircle
 10
-448.5635986328125
 20
217.9664154052734
 30
0.0
 40
2.0
100
AcDbArc
 50
270.0000000000005
 51
0.0
  0
ARC
  5
2D9
330
22
100
AcDbEntity
  8
0
  6
Continuous
 62
     7
100
AcDbCircle
 10
-426.8636169433594
 20
219.06640625
 30
0.0
 40
3.099999904632568
100
AcDbArc
 50
180.0000000000004
 51
270.0000000000005
  0
ARC
  5
2DA
330
22
100
AcDbEntity
  8
0
  6
Continuous
 62
     7
100
AcDbCircle
 10
-426.8636169433594
 20
219.06640625
 30
0.0
 40
3.099999904632568
100
AcDbArc
 50
270.0000000000005
 51
0.0
  0
CIRCLE
  5
2DB
330
22
100
AcDbEntity
  8
0
  6
DASHED
 62
     7
100
AcDbCircle
 10
-392.5263671875
 20
213.3679351806641
 30
0.0
 40
33.5
  0
CIRCLE
  5
2DC
330
22
100
AcDbEntity
  8
0
  6
Continuous
 62
     7
100
AcDbCircle
 10
-392.5263671875
 20
213.3679351806641
 30
0.0
 40
67.5
  0
CIRCLE
  5
2DD
330
22
100
AcDbEntity
  8
0
  6
Continuous
 62
     7
100
AcDbCircle
 10
-392.6636047363281
 20
213.3679351806641
 30
0.0
 40
91.0
  0
CIRCLE
  5
2DE
330
22
100
AcDbEntity
  8
0
  6
Continuous
 62
     7
100
AcDbCircle
 10
-392.6636047363281
 20
213.3679351806641
 30
0.0
 40
77.5
  0
CIRCLE
  5
2DF
330
22
100
AcDbEntity
  8
0
  6
Continuous
 62
     7
100
AcDbCircle
 10
-392.712890625
 20
213.3679351806641
 30
0.0
 40
67.0
  0
ARC
  5
2E0
330
22
100
AcDbEntity
  8
0
  6
Continuous
 62
     7
100
AcDbCircle
 10
-358.4635925292969
 20
219.06640625
 30
0.0
 40
3.099999904632568
100
AcDbArc
 50
180.0000000000004
 51
270.0000000000005
  0
ARC
  5
2E1
330
22
100
AcDbEntity
  8
0
  6
Continuous
 62
     7
100
AcDbCircle
 10
-369.8636169433594
 20
219.06640625
 30
0.0
 40
3.099999904632568
100
AcDbArc
 50
270.0000000000005
 51
0.0
  0
ARC
  5
2E2
330
22
100
AcDbEntity
  8
0
  6
Continuous
 62
     7
100
AcDbCircle
 10
-381.2636108398438
 20
219.06640625
 30
0.0
 40
3.099999904632568
100
AcDbArc
 50
270.0000000000005
 51
0.0
  0
ARC
  5
2E3
330
22
100
AcDbEntity
  8
0
  6
Continuous
 62
     7
100
AcDbCircle
 10
-415.4635925292969
 20
219.06640625
 30
0.0
 40
3.099999904632568
100
AcDbArc
 50
270.0000000000005
 51
0.0
  0
ARC
  5
2E4
330
22
100
AcDbEntity
  8
0
  6
Continuous
 62
     7
100
AcDbCircle
 10
-415.4635925292969
 20
219.06640625
 30
0.0
 40
3.099999904632568
100
AcDbArc
 50
180.0000000000004
 51
270.0000000000005
  0
ARC
  5
2E5
330
22
100
AcDbEntity
  8
0
  6
Continuous
 62
     7
100
AcDbCircle
 10
-369.8636169433594
 20
219.06640625
 30
0.0
 40
3.099999904632568
100
AcDbArc
 50
180.0000000000004
 51
270.0000000000005
  0
ARC
  5
2E6
330
22
100
AcDbEntity
  8
0
  6
Continuous
 62
     7
100
AcDbCircle
 10
-358.4635925292969
 20
219.06640625
 30
0.0
 40
3.099999904632568
100
AcDbArc
 50
270.0000000000005
 51
0.0
  0
ARC
  5
2E7
330
22
100
AcDbEntity
  8
0
  6
Continuous
 62
     7
100
AcDbCircle
 10
-334.4635925292969
 20
217.9664154052734
 30
0.0
 40
2.0
100
AcDbArc
 50
270.0000000000005
 51
4.412887221087117
  0
ARC
  5
2E8
330
22
100
AcDbEntity
  8
0
  6
Continuous
 62
     7
100
AcDbCircle
 10
-347.0635986328125
 20
219.06640625
 30
0.0
 40
3.099999904632568
100
AcDbArc
 50
180.0000000000004
 51
270.0000000000005
  0
ARC
  5
2E9
330
22
100
AcDbEntity
  8
0
  6
Continuous
 62
     7
100
AcDbCircle
 10
-347.0635986328125
 20
219.06640625
 30
0.0
 40
3.099999904632568
100
AcDbArc
 50
270.0000000000005
 51
0.0
  0
ARC
  5
2EA
330
22
100
AcDbEntity
  8
0
  6
Continuous
 62
     7
100
AcDbCircle
 10
-336.7636108398438
 20
217.9664154052734
 30
0.0
 40
2.0
100
AcDbArc
 50
180.0000000000004
 51
270.0000000000005
  0
TEXT
  5
2EB
330
22
100
AcDbEntity
  8
0
  6
Continuous
 62
     7
100
AcDbText
 10
-313.029839515686
 20
70.71831512451172
 30
0.0
 40
7.0
  1
DL-CU65
 41
1.007000071661813
100
AcDbText
  0
DIMENSION
  5
2EC
330
22
100
AcDbEntity
  8
0
  6
Continuous
 62
     7
100
AcDbDimension
  2
*D1
 10
-155.4337768554688
 20
326.4947814941406
 30
0.0
 11
-146.2724151611328
 21
326.4947814941406
 31
0.0
 71
     5
 42
-1.0
  3
DIMSTYLE1
100
AcDbAlignedDimension
 13
-158.9337768554688
 23
321.1948547363281
 33
0.0
 14
-155.4337768554688
 24
295.8679504394531
 34
0.0
100
AcDbRotatedDimension
  0
DIMENSION
  5
2ED
330
22
100
AcDbEntity
  8
0
  6
Continuous
 62
     7
100
AcDbDimension
  2
*D2
 10
-100.0477828979492
 20
254.8679351806641
 30
0.0
 11
-100.0477828979492
 21
213.3679351806641
 31
0.0
 71
     5
 42
-1.0
  3
DIMSTYLE2
100
AcDbAlignedDimension
 13
-123.9337692260742
 23
171.8679351806641
 33
0.0
 14
-123.9337692260742
 24
254.8679351806641
 34
0.0
 50
90.0
100
AcDbRotatedDimension
  0
DIMENSION
  5
2EE
330
22
100
AcDbEntity
  8
0
  6
Continuous
 62
     7
100
AcDbDimension
  2
*D3
 10
-122.9337692260742
 20
103.1627349853516
 30
0.0
 11
-156.9337768554688
 21
103.1627349853516
 31
0.0
 71
     5
 42
-1.0
  3
DIMSTYLE3
100
AcDbAlignedDimension
 13
-190.9337768554688
 23
173.3679351806641
 33
0.0
 14
-122.9337692260742
 24
172.8679351806641
 34
0.0
100
AcDbRotatedDimension
  0
DIMENSION
  5
2EF
330
22
100
AcDbEntity
  8
0
  6
Continuous
 62
     7
100
AcDbDimension
  2
*D4
 10
-129.4708404541016
 20
155.8679351806641
 30
0.0
 11
-129.4708404541016
 21
163.8679351806641
 31
0.0
 71
     5
 42
-1.0
  3
DIMSTYLE4
100
AcDbAlignedDimension
 13
-123.9337692260742
 23
171.8679351806641
 33
0.0
 14
-153.9328002929688
 24
155.8679351806641
 34
0.0
 50
90.0
100
AcDbRotatedDimension
  0
DIMENSION
  5
2F0
330
22
100
AcDbEntity
  8
0
  6
Continuous
 62
     7
100
AcDbDimension
  2
*D5
 10
-137.4337768554688
 20
142.9378051757813
 30
0.0
 11
-146.4337768554688
 21
142.9378051757813
 31
0.0
 71
     5
 42
-1.0
  3
DIMSTYLE5
100
AcDbAlignedDimension
 13
-155.4337768554688
 23
122.8679351806641
 33
0.0
 14
-137.4337768554688
 24
169.8679351806641
 34
0.0
100
AcDbRotatedDimension
  0
INSERT
  5
2F1
330
22
100
AcDbEntity
  8
0
  6
Continuous
 62
     7
100
AcDbBlockReference
  2
KOZU0001
 10
-149.2398834228516
 20
167.9194793701172
 30
0.0
  0
DIMENSION
  5
2F2
330
22
100
AcDbEntity
  8
0
  6
Continuous
 62
     7
100
AcDbDimension
  2
*D6
 10
-158.9337768554688
 20
326.4947814941406
 30
0.0
 11
-198.4337768554688
 21
326.4947814941406
 31
0.0
 71
     5
 42
-1.0
  3
DIMSTYLE6
100
AcDbAlignedDimension
 13
-237.9337768554688
 23
289.8679504394531
 33
0.0
 14
-158.9337768554688
 24
300.9261169433594
 34
0.0
100
AcDbRotatedDimension
  0
DIMENSION
  5
2F3
330
22
100
AcDbEntity
  8
0
  6
Continuous
 62
     7
100
AcDbDimension
  2
*D7
 10
-190.9337768554688
 20
316.0976867675781
 30
0.0
 11
-174.9337768554688
 21
316.0976867675781
 31
0.0
 71
     5
 42
-1.0
  3
DIMSTYLE7
100
AcDbAlignedDimension
 13
-158.9337768554688
 23
328.7807922363281
 33
0.0
 14
-190.9337768554688
 24
253.3679351806641
 34
0.0
100
AcDbRotatedDimension
  0
INSERT
  5
2F4
330
22
100
AcDbEntity
  8
0
  6
Continuous
 62
     7
100
AcDbBlockReference
  2
KOZU0002
 10
-138.6492767333984
 20
250.466796875
 30
0.0
  0
DIMENSION
  5
2F5
330
22
100
AcDbEntity
  8
0
  6
Continuous
 62
     7
100
AcDbDimension
  2
*D8
 10
-170.9337768554688
 20
224.3941040039064
 30
0.0
 11
-200.1036071777344
 21
224.3941040039064
 31
0.0
 71
     5
 42
-1.0
  3
DIMSTYLE8
100
AcDbAlignedDimension
 13
-237.9337768554688
 23
289.8679504394531
 33
0.0
 14
-170.9337768554688
 24
228.1120758056641
 34
0.0
100
AcDbRotatedDimension
  0
DIMENSION
  5
2F6
330
22
100
AcDbEntity
  8
0
  6
Continuous
 62
     7
100
AcDbDimension
  2
*D9
 10
-429.9349940318978
 20
130.3508071890376
 30
0.0
 11
-347.1151123046875
 21
314.8212585449219
 31
0.0
 70
     3
 71
     5
 42
-1.0
  3
DIMSTYLE9
100
AcDbDiametricDimension
 15
-355.3922154407584
 25
296.3850631722905
 35
0.0
 40
0.0
  0
DIMENSION
  5
2F7
330
22
100
AcDbEntity
  8
0
  6
Continuous
 62
     7
100
AcDbDimension
  2
*D10
 10
-440.7685393884033
 20
152.6047451547975
 30
0.0
 11
-323.3685913085938
 21
300.8971252441406
 31
0.0
 70
     3
 71
     5
 42
-1.0
  3
DIMSTYLE10
100
AcDbDiametricDimension
 15
-344.5586700842529
 25
274.1311252065306
 35
0.0
 40
0.0
  0
DIMENSION
  5
2F8
330
22
100
AcDbEntity
  8
0
  6
Continuous
 62
     7
100
AcDbDimension
  2
*D11
 10
-444.0451740736555
 20
170.3098734970851
 30
0.0
 11
-308.138427734375
 21
284.3099060058594
 31
0.0
 70
     3
 71
     5
 42
-1.0
  3
DIMSTYLE11
100
AcDbDiametricDimension
 15
-341.3806071763445
 25
256.4259968642431
 35
0.0
 40
0.0
  0
ENDSEC
  0
SECTION
  2
OBJECTS
  0
DICTIONARY
  5
C
330
0
100
AcDbDictionary
281
     1
  3
ACAD_COLOR
350
1B
  3
ACAD_GROUP
350
D
  3
ACAD_LAYOUT
350
19
  3
ACAD_MATERIAL
350
1A
  3
ACAD_MLINESTYLE
350
16
  3
ACAD_PLOTSETTINGS
350
18
  3
ACAD_PLOTSTYLENAME
350
E
  3
ACAD_TABLESTYLE
350
1C
  3
AcDbVariableDictionary
350
304
  0
DICTIONARY
  5
1B
102
{ACAD_REACTORS
330
C
102
}
330
C
100
AcDbDictionary
281
     1
  0
DICTIONARY
  5
D
102
{ACAD_REACTORS
330
C
102
}
330
C
100
AcDbDictionary
281
     1
  0
DICTIONARY
  5
19
102
{ACAD_REACTORS
330
C
102
}
330
C
100
AcDbDictionary
281
     1
  3
Model
350
25
  3
レイアウト1
350
21
  0
DICTIONARY
  5
1A
102
{ACAD_REACTORS
330
C
102
}
330
C
100
AcDbDictionary
281
     1
  0
DICTIONARY
  5
16
102
{ACAD_REACTORS
330
C
102
}
330
C
100
AcDbDictionary
281
     1
  3
Standard
350
17
  0
DICTIONARY
  5
18
102
{ACAD_REACTORS
330
C
102
}
330
C
100
AcDbDictionary
281
     1
  0
ACDBDICTIONARYWDFLT
  5
E
102
{ACAD_REACTORS
330
C
102
}
330
C
100
AcDbDictionary
281
     1
  3
Normal
350
F
100
AcDbDictionaryWithDefault
340
F
  0
DICTIONARY
  5
1C
102
{ACAD_REACTORS
330
C
102
}
330
C
100
AcDbDictionary
281
     1
  3
Standard
350
1D
  0
DICTIONARY
  5
304
102
{ACAD_REACTORS
330
C
102
}
330
C
100
AcDbDictionary
281
     1
  3
CTABLESTYLE
350
305
  0
LAYOUT
  5
25
102
{ACAD_REACTORS
330
19
102
}
330
19
100
AcDbPlotSettings
  1

  2
PDF reDirect v2
  4
User66
  6

 40
3.174999952316284
 41
3.174999952316284
 42
3.17498779296875
 43
3.17498779296875
 44
420.0
 45
594.0
 46
0.0
 47
0.0
 48
0.0
 49
0.0
140
0.0
141
0.0
142
1.0
143
1.0
 70
 11952
 72
     1
 73
     1
 74
     2
  7
C:\Users\ck\AppData\Roaming\Autodesk\AutoCAD 2005\R16.1\jpn\Plot Styles\black.ctb
 75
    16
147
1.0
 76
     0
 77
     2
 78
   300
148
592.0
149
0.0
100
AcDbLayout
  1
Model
 70
     1
 71
     0
 10
0.0
 20
0.0
 11
12.0
 21
9.0
 12
0.0
 22
0.0
 32
0.0
 14
0.0
 24
0.0
 34
0.0
 15
0.0
 25
0.0
 35
0.0
146
0.0
 13
0.0
 23
0.0
 33
0.0
 16
1.0
 26
0.0
 36
0.0
 17
0.0
 27
1.0
 37
0.0
 76
     0
330
22
1001
ACAD_PSEXT
1000
PDF reDirect v2
1000
PDF reDirect Pro
1000
PDF_REDIRECT_PORT:
1000
PDF reDirect provided by EXP Systems
1070
     0
  0
LAYOUT
  5
21
102
{ACAD_REACTORS
330
19
102
}
330
19
100
AcDbPlotSettings
  1

  2
PDF reDirect v2
  4

  6

 40
0.0
 41
0.0
 42
0.0
 43
0.0
 44
0.0
 45
0.0
 46
0.0
 47
0.0
 48
0.0
 49
0.0
140
0.0
141
0.0
142
1.0
143
1.0
 70
   688
 72
     0
 73
     0
 74
     5
  7
C:\Users\ck\AppData\Roaming\Autodesk\AutoCAD 2005\R16.1\jpn\Plot Styles\black.ctb
 75
    16
147
1.0
 76
     0
 77
     2
 78
   300
148
0.0
149
0.0
100
AcDbLayout
  1
レイアウト1
 70
     1
 71
     1
 10
-592.0
 20
0.0
 11
0.0
 21
418.0
 12
0.0
 22
0.0
 32
0.0
 14
1.000000000000000E+20
 24
1.000000000000000E+20
 34
1.000000000000000E+20
 15
-1.000000000000000E+20
 25
-1.000000000000000E+20
 35
-1.000000000000000E+20
146
0.0
 13
0.0
 23
0.0
 33
0.0
 16
1.0
 26
0.0
 36
0.0
 17
0.0
 27
1.0
 37
0.0
 76
     0
330
1E
  0
MLINESTYLE
  5
17
102
{ACAD_REACTORS
330
16
102
}
330
16
100
AcDbMlineStyle
  2
STANDARD
 70
     0
  3

 62
   256
 51
90.0
 52
90.0
 71
     2
 49
0.5
 62
   256
  6
BYLAYER
 49
-0.5
 62
   256
  6
BYLAYER
  0
ACDBPLACEHOLDER
  5
F
102
{ACAD_REACTORS
330
E
102
}
330
E
  0
TABLESTYLE
  5
1D
102
{ACAD_REACTORS
330
1C
102
}
330
1C
100
AcDbTableStyle
  3
Standard
 70
     0
 71
     0
 40
0.06
 41
0.06
280
     0
281
     0
  7
STANDARD
140
0.18
170
     2
 62
     0
 63
     7
283
     0
274
    -2
284
     1
 64
     0
275
    -2
285
     1
 65
     0
276
    -2
286
     1
 66
     0
277
    -2
287
     1
 67
     0
278
    -2
288
     1
 68
     0
279
    -2
289
     1
 69
     0
  7
STANDARD
140
0.25
170
     5
 62
     0
 63
     7
283
     0
274
    -2
284
     1
 64
     0
275
    -2
285
     1
 65
     0
276
    -2
286
     1
 66
     0
277
    -2
287
     1
 67
     0
278
    -2
288
     1
 68
     0
279
    -2
289
     1
 69
     0
  7
STANDARD
140
0.18
170
     5
 62
     0
 63
     7
283
     0
274
    -2
284
     1
 64
     0
275
    -2
285
     1
 65
     0
276
    -2
286
     1
 66
     0
277
    -2
287
     1
 67
     0
278
    -2
288
     1
 68
     0
279
    -2
289
     1
 69
     0
  0
DICTIONARYVAR
  5
305
102
{ACAD_REACTORS
330
304
102
}
330
304
100
DictionaryVariables
280
     0
  1
STANDARD
  0
ENDSEC
  0
EOF
