  0
SECTION
  2
HEADER
  9
$ACADVER
  1
AC1018
  9
$ACADMAINTVER
 70
    39
  9
$DWGCODEPAGE
  3
ANSI_932
  9
$INSBASE
 10
0.0
 20
0.0
 30
0.0
  9
$EXTMIN
 10
-474.2702621564619
 20
69.41366682552462
 30
-0.0015258207003583
  9
$EXTMAX
 10
-95.05639521667763
 20
323.0098580403835
 30
0.0000000349246037
  9
$LIMMIN
 10
-592.0
 20
0.0
  9
$LIMMAX
 10
0.0
 20
418.0
  9
$ORTHOMODE
 70
     0
  9
$REGENMODE
 70
     1
  9
$FILLMODE
 70
     1
  9
$QTEXTMODE
 70
     0
  9
$MIRRTEXT
 70
     0
  9
$LTSCALE
 40
1.0
  9
$ATTMODE
 70
     1
  9
$TEXTSIZE
 40
0.2
  9
$TRACEWID
 40
0.05
  9
$TEXTSTYLE
  7
STANDARD
  9
$CLAYER
  8
0
  9
$CELTYPE
  6
CONTINUOUS
  9
$CECOLOR
 62
   256
  9
$CELTSCALE
 40
1.0
  9
$DISPSILH
 70
     0
  9
$DIMSCALE
 40
1.0
  9
$DIMASZ
 40
1.0
  9
$DIMEXO
 40
2.54
  9
$DIMDLI
 40
0.38
  9
$DIMRND
 40
0.0
  9
$DIMDLE
 40
0.0
  9
$DIMEXE
 40
2.54
  9
$DIMTP
 40
0.0
  9
$DIMTM
 40
0.0
  9
$DIMTXT
 40
3.0
  9
$DIMCEN
 40
0.09
  9
$DIMTSZ
 40
0.0
  9
$DIMTOL
 70
     0
  9
$DIMLIM
 70
     0
  9
$DIMTIH
 70
     0
  9
$DIMTOH
 70
     0
  9
$DIMSE1
 70
     0
  9
$DIMSE2
 70
     0
  9
$DIMTAD
 70
     1
  9
$DIMZIN
 70
     0
  9
$DIMBLK
  1

  9
$DIMASO
 70
     1
  9
$DIMSHO
 70
     0
  9
$DIMPOST
  1

  9
$DIMAPOST
  1

  9
$DIMALT
 70
     0
  9
$DIMALTD
 70
     2
  9
$DIMALTF
 40
25.4
  9
$DIMLFAC
 40
1.0
  9
$DIMTOFL
 70
     0
  9
$DIMTVP
 40
1.0
  9
$DIMTIX
 70
     0
  9
$DIMSOXD
 70
     0
  9
$DIMSAH
 70
     1
  9
$DIMBLK1
  1

  9
$DIMBLK2
  1

  9
$DIMSTYLE
  2
DIMSTYLE1
  9
$DIMCLRD
 70
     0
  9
$DIMCLRE
 70
     0
  9
$DIMCLRT
 70
     0
  9
$DIMTFAC
 40
1.0
  9
$DIMGAP
 40
1.5
  9
$DIMJUST
 70
     0
  9
$DIMSD1
 70
     0
  9
$DIMSD2
 70
     0
  9
$DIMTOLJ
 70
     1
  9
$DIMTZIN
 70
     0
  9
$DIMALTZ
 70
     0
  9
$DIMALTTZ
 70
     0
  9
$DIMUPT
 70
     0
  9
$DIMDEC
 70
     4
  9
$DIMTDEC
 70
     4
  9
$DIMALTU
 70
     2
  9
$DIMALTTD
 70
     2
  9
$DIMTXSTY
  7
STANDARD
  9
$DIMAUNIT
 70
     0
  9
$DIMADEC
 70
     0
  9
$DIMALTRND
 40
0.0
  9
$DIMAZIN
 70
     0
  9
$DIMDSEP
 70
    46
  9
$DIMATFIT
 70
     3
  9
$DIMFRAC
 70
     0
  9
$DIMLDRBLK
  1

  9
$DIMLUNIT
 70
     2
  9
$DIMLWD
 70
    -2
  9
$DIMLWE
 70
    -2
  9
$DIMTMOVE
 70
     0
  9
$LUNITS
 70
     2
  9
$LUPREC
 70
     4
  9
$SKETCHINC
 40
0.1
  9
$FILLETRAD
 40
0.0
  9
$AUNITS
 70
     0
  9
$AUPREC
 70
     0
  9
$MENU
  1
.
  9
$ELEVATION
 40
0.0
  9
$PELEVATION
 40
0.0
  9
$THICKNESS
 40
0.0
  9
$LIMCHECK
 70
     0
  9
$CHAMFERA
 40
0.0
  9
$CHAMFERB
 40
0.0
  9
$CHAMFERC
 40
0.0
  9
$CHAMFERD
 40
0.0
  9
$SKPOLY
 70
     0
  9
$TDCREATE
 40
2457701.437343287
  9
$TDUCREATE
 40
2457701.062343287
  9
$TDUPDATE
 40
2457701.438100810
  9
$TDUUPDATE
 40
2457701.063100810
  9
$TDINDWG
 40
0.0007584491
  9
$TDUSRTIMER
 40
0.0007584491
  9
$USRTIMER
 70
     1
  9
$ANGBASE
 50
0.0
  9
$ANGDIR
 70
     0
  9
$PDMODE
 70
     0
  9
$PDSIZE
 40
0.0
  9
$PLINEWID
 40
0.0
  9
$SPLFRAME
 70
     0
  9
$SPLINETYPE
 70
     6
  9
$SPLINESEGS
 70
     8
  9
$HANDSEED
  5
298
  9
$SURFTAB1
 70
     6
  9
$SURFTAB2
 70
     6
  9
$SURFTYPE
 70
     6
  9
$SURFU
 70
     6
  9
$SURFV
 70
     6
  9
$UCSBASE
  2

  9
$UCSNAME
  2

  9
$UCSORG
 10
0.0
 20
0.0
 30
0.0
  9
$UCSXDIR
 10
1.0
 20
0.0
 30
0.0
  9
$UCSYDIR
 10
0.0
 20
1.0
 30
0.0
  9
$UCSORTHOREF
  2

  9
$UCSORTHOVIEW
 70
     0
  9
$UCSORGTOP
 10
0.0
 20
0.0
 30
0.0
  9
$UCSORGBOTTOM
 10
0.0
 20
0.0
 30
0.0
  9
$UCSORGLEFT
 10
0.0
 20
0.0
 30
0.0
  9
$UCSORGRIGHT
 10
0.0
 20
0.0
 30
0.0
  9
$UCSORGFRONT
 10
0.0
 20
0.0
 30
0.0
  9
$UCSORGBACK
 10
0.0
 20
0.0
 30
0.0
  9
$PUCSBASE
  2

  9
$PUCSNAME
  2

  9
$PUCSORG
 10
0.0
 20
0.0
 30
0.0
  9
$PUCSXDIR
 10
1.0
 20
0.0
 30
0.0
  9
$PUCSYDIR
 10
0.0
 20
1.0
 30
0.0
  9
$PUCSORTHOREF
  2

  9
$PUCSORTHOVIEW
 70
     0
  9
$PUCSORGTOP
 10
0.0
 20
0.0
 30
0.0
  9
$PUCSORGBOTTOM
 10
0.0
 20
0.0
 30
0.0
  9
$PUCSORGLEFT
 10
0.0
 20
0.0
 30
0.0
  9
$PUCSORGRIGHT
 10
0.0
 20
0.0
 30
0.0
  9
$PUCSORGFRONT
 10
0.0
 20
0.0
 30
0.0
  9
$PUCSORGBACK
 10
0.0
 20
0.0
 30
0.0
  9
$USERI1
 70
     0
  9
$USERI2
 70
     0
  9
$USERI3
 70
     0
  9
$USERI4
 70
     0
  9
$USERI5
 70
     0
  9
$USERR1
 40
0.0
  9
$USERR2
 40
0.0
  9
$USERR3
 40
0.0
  9
$USERR4
 40
0.0
  9
$USERR5
 40
0.0
  9
$WORLDVIEW
 70
     1
  9
$SHADEDGE
 70
     3
  9
$SHADEDIF
 70
    70
  9
$TILEMODE
 70
     1
  9
$MAXACTVP
 70
    64
  9
$PINSBASE
 10
0.0
 20
0.0
 30
0.0
  9
$PLIMCHECK
 70
     0
  9
$PEXTMIN
 10
1.000000000000000E+20
 20
1.000000000000000E+20
 30
1.000000000000000E+20
  9
$PEXTMAX
 10
-1.000000000000000E+20
 20
-1.000000000000000E+20
 30
-1.000000000000000E+20
  9
$PLIMMIN
 10
-592.0
 20
0.0
  9
$PLIMMAX
 10
0.0
 20
418.0
  9
$UNITMODE
 70
     0
  9
$VISRETAIN
 70
     1
  9
$PLINEGEN
 70
     0
  9
$PSLTSCALE
 70
     1
  9
$TREEDEPTH
 70
  3020
  9
$CMLSTYLE
  2
Standard
  9
$CMLJUST
 70
     0
  9
$CMLSCALE
 40
1.0
  9
$PROXYGRAPHICS
 70
     1
  9
$MEASUREMENT
 70
     0
  9
$CELWEIGHT
370
    -1
  9
$ENDCAPS
280
     0
  9
$JOINSTYLE
280
     0
  9
$LWDISPLAY
290
     0
  9
$INSUNITS
 70
     0
  9
$HYPERLINKBASE
  1

  9
$STYLESHEET
  1

  9
$XEDIT
290
     1
  9
$CEPSNTYPE
380
     0
  9
$PSTYLEMODE
290
     1
  9
$FINGERPRINTGUID
  2
{9B5F6289-EE9F-4C24-961F-B37287FD89AE}
  9
$VERSIONGUID
  2
{E5C4C254-A540-44DB-BC11-B4CDA1BC7081}
  9
$EXTNAMES
290
     1
  9
$PSVPSCALE
 40
0.0
  9
$OLESTARTUP
290
     0
  9
$SORTENTS
280
   127
  9
$INDEXCTL
280
     0
  9
$HIDETEXT
280
     0
  9
$XCLIPFRAME
290
     0
  9
$HALOGAP
280
     0
  9
$OBSCOLOR
 70
   257
  9
$OBSLTYPE
280
     0
  9
$INTERSECTIONDISPLAY
280
     0
  9
$INTERSECTIONCOLOR
 70
   257
  9
$DIMASSOC
280
     1
  9
$PROJECTNAME
  1

  0
ENDSEC
  0
SECTION
  2
CLASSES
  0
CLASS
  1
ACDBDICTIONARYWDFLT
  2
AcDbDictionaryWithDefault
  3
ObjectDBX Classes
 90
        0
 91
        1
280
     0
281
     0
  0
CLASS
  1
TABLESTYLE
  2
AcDbTableStyle
  3
ObjectDBX Classes
 90
     2047
 91
        1
280
     0
281
     0
  0
CLASS
  1
DICTIONARYVAR
  2
AcDbDictionaryVar
  3
ObjectDBX Classes
 90
        0
 91
        1
280
     0
281
     0
  0
ENDSEC
  0
SECTION
  2
TABLES
  0
TABLE
  2
VPORT
  5
8
330
0
100
AcDbSymbolTable
 70
     2
  0
VPORT
  5
297
330
8
100
AcDbSymbolTableRecord
100
AcDbViewportTableRecord
  2
*Active
 70
     0
 10
0.0
 20
0.0
 11
1.0
 21
1.0
 12
-296.0
 22
209.0
 13
0.0
 23
0.0
 14
1.0
 24
1.0
 15
0.0
 25
0.0
 16
0.0
 26
0.0
 36
1.0
 17
0.0
 27
0.0
 37
0.0
 40
421.2999999999999
 41
1.56258234519104
 42
50.0
 43
0.0
 44
0.0
 50
0.0
 51
0.0
 71
     0
 72
   100
 73
     1
 74
     1
 75
     0
 76
     0
 77
     0
 78
     0
281
     0
 65
     1
110
0.0
120
0.0
130
0.0
111
1.0
121
0.0
131
0.0
112
0.0
122
1.0
132
0.0
 79
     0
146
0.0
  0
ENDTAB
  0
TABLE
  2
LTYPE
  5
5
330
0
100
AcDbSymbolTable
 70
     6
  0
LTYPE
  5
13
330
5
100
AcDbSymbolTableRecord
100
AcDbLinetypeTableRecord
  2
ByBlock
 70
     0
  3

 72
    65
 73
     0
 40
0.0
  0
LTYPE
  5
14
330
5
100
AcDbSymbolTableRecord
100
AcDbLinetypeTableRecord
  2
ByLayer
 70
     0
  3

 72
    65
 73
     0
 40
0.0
  0
LTYPE
  5
15
330
5
100
AcDbSymbolTableRecord
100
AcDbLinetypeTableRecord
  2
CONTINUOUS
 70
     0
  3
Solid line
 72
    65
 73
     0
 40
0.0
  0
LTYPE
  5
26
330
5
100
AcDbSymbolTableRecord
100
AcDbLinetypeTableRecord
  2
DASHED
 70
     0
  3
__ __ __ __ __ __ __ __ __ __ __ __ __ __ __
 72
    65
 73
     2
 40
3.5
 49
2.0
 74
     0
 49
-1.5
 74
     0
  0
LTYPE
  5
27
330
5
100
AcDbSymbolTableRecord
100
AcDbLinetypeTableRecord
  2
CENTER
 70
     0
  3
____ _ ____ _ ____ _ ____ _ ____ _ ____ _ ____
 72
    65
 73
     4
 40
17.5
 49
13.0
 74
     0
 49
-1.5
 74
     0
 49
1.5
 74
     0
 49
-1.5
 74
     0
  0
LTYPE
  5
28
330
5
100
AcDbSymbolTableRecord
100
AcDbLinetypeTableRecord
  2
PHANTOM
 70
     0
  3
_____ _ _ _____ _ _ _____ _ _ _____ _ _ ____  
 72
    65
 73
     6
 40
15.5
 49
8.0
 74
     0
 49
-1.5
 74
     0
 49
1.5
 74
     0
 49
-1.5
 74
     0
 49
1.5
 74
     0
 49
-1.5
 74
     0
  0
LTYPE
  5
29
330
5
100
AcDbSymbolTableRecord
100
AcDbLinetypeTableRecord
  2
DOT
 70
     0
  3
. . . . . . . . . . . . . . . . . . . . . . . .
 72
    65
 73
     2
 40
0.25
 49
0.0
 74
     0
 49
-0.25
 74
     0
  0
LTYPE
  5
2A
330
5
100
AcDbSymbolTableRecord
100
AcDbLinetypeTableRecord
  2
HIDDEN
 70
     0
  3
__ __ __ __ __ __ __ __ __ __ __ __ __ __ __
 72
    65
 73
     2
 40
3.5
 49
2.0
 74
     0
 49
-1.5
 74
     0
  0
ENDTAB
  0
TABLE
  2
LAYER
  5
2
330
0
100
AcDbSymbolTable
 70
     2
  0
LAYER
  5
10
330
2
100
AcDbSymbolTableRecord
100
AcDbLayerTableRecord
  2
0
 70
     0
 62
     7
  6
CONTINUOUS
370
    -3
390
F
  0
LAYER
  5
2B
330
2
100
AcDbSymbolTableRecord
100
AcDbLayerTableRecord
  2
DEFPOINTS
 70
     0
 62
     7
  6
CONTINUOUS
290
     0
370
    -3
390
F
  0
ENDTAB
  0
TABLE
  2
STYLE
  5
3
330
0
100
AcDbSymbolTable
 70
     2
  0
STYLE
  5
11
330
3
100
AcDbSymbolTableRecord
100
AcDbTextStyleTableRecord
  2
STANDARD
 70
     0
 40
0.0
 41
1.0
 50
0.0
 71
     0
 42
0.2
  3

  4

1001
ACAD
1000
MS Gothic
1071
    32817
  0
ENDTAB
  0
TABLE
  2
VIEW
  5
6
330
0
100
AcDbSymbolTable
 70
     0
  0
ENDTAB
  0
TABLE
  2
UCS
  5
7
330
0
100
AcDbSymbolTable
 70
     0
  0
ENDTAB
  0
TABLE
  2
APPID
  5
9
330
0
100
AcDbSymbolTable
 70
     2
  0
APPID
  5
12
330
9
100
AcDbSymbolTableRecord
100
AcDbRegAppTableRecord
  2
ACAD
 70
     0
  0
APPID
  5
28C
330
9
100
AcDbSymbolTableRecord
100
AcDbRegAppTableRecord
  2
ACAD_PSEXT
 70
     0
  0
ENDTAB
  0
TABLE
  2
DIMSTYLE
  5
A
330
0
100
AcDbSymbolTable
 70
    12
100
AcDbDimStyleTable
 71
     1
340
2C
  0
DIMSTYLE
105
2C
102
{ACAD_REACTORS
330
27D
102
}
330
A
100
AcDbSymbolTableRecord
100
AcDbDimStyleTableRecord
  2
DIMSTYLE1
 70
     0
 41
1.0
 42
2.54
 44
2.54
 73
     0
 74
     0
 77
     1
140
3.0
145
1.0
147
1.5
172
     1
173
     1
279
     2
340
11
  0
DIMSTYLE
105
2D
102
{ACAD_REACTORS
330
27E
102
}
330
A
100
AcDbSymbolTableRecord
100
AcDbDimStyleTableRecord
  2
DIMSTYLE2
 70
     0
 41
1.0
 42
2.54
 44
2.54
 73
     0
 74
     0
 77
     1
140
3.0
145
1.0
147
1.5
172
     1
173
     1
279
     2
340
11
  0
DIMSTYLE
105
2E
102
{ACAD_REACTORS
330
27F
102
}
330
A
100
AcDbSymbolTableRecord
100
AcDbDimStyleTableRecord
  2
DIMSTYLE3
 70
     0
 41
1.0
 42
2.54
 44
2.54
 73
     0
 74
     0
 77
     1
140
3.0
145
1.0
147
1.5
172
     1
173
     1
279
     2
340
11
  0
DIMSTYLE
105
2F
102
{ACAD_REACTORS
330
280
102
}
330
A
100
AcDbSymbolTableRecord
100
AcDbDimStyleTableRecord
  2
DIMSTYLE4
 70
     0
 41
1.0
 42
2.54
 44
2.54
 73
     0
 74
     0
 77
     1
140
3.0
145
1.0
147
1.5
172
     1
173
     1
279
     2
340
11
  0
DIMSTYLE
105
30
102
{ACAD_REACTORS
330
281
102
}
330
A
100
AcDbSymbolTableRecord
100
AcDbDimStyleTableRecord
  2
DIMSTYLE5
 70
     0
 41
1.0
 42
2.54
 44
2.54
 73
     0
 74
     0
 77
     1
140
3.0
145
1.0
147
1.5
172
     1
173
     1
279
     2
340
11
  0
DIMSTYLE
105
31
102
{ACAD_REACTORS
330
282
102
}
330
A
100
AcDbSymbolTableRecord
100
AcDbDimStyleTableRecord
  2
DIMSTYLE6
 70
     0
 41
1.0
 42
2.54
 44
2.54
 73
     0
 74
     0
 77
     1
140
3.0
145
1.0
147
1.5
172
     1
173
     1
279
     2
340
11
  0
DIMSTYLE
105
32
102
{ACAD_REACTORS
330
284
102
}
330
A
100
AcDbSymbolTableRecord
100
AcDbDimStyleTableRecord
  2
DIMSTYLE7
 70
     0
 41
1.0
 42
2.54
 44
2.54
 73
     0
 74
     0
 77
     1
140
3.0
145
1.0
147
1.5
172
     1
173
     1
279
     2
340
11
  0
DIMSTYLE
105
33
102
{ACAD_REACTORS
330
285
102
}
330
A
100
AcDbSymbolTableRecord
100
AcDbDimStyleTableRecord
  2
DIMSTYLE8
 70
     0
 41
1.0
 42
2.54
 44
2.54
 73
     0
 74
     0
 77
     1
140
3.0
145
1.0
147
1.5
172
     1
173
     1
279
     2
340
11
  0
DIMSTYLE
105
34
102
{ACAD_REACTORS
330
287
102
}
330
A
100
AcDbSymbolTableRecord
100
AcDbDimStyleTableRecord
  2
DIMSTYLE9
 70
     0
 41
1.0
 42
2.54
 44
2.54
 73
     0
 74
     0
 75
     1
 76
     1
 77
     1
140
3.0
145
1.0
147
1.5
172
     1
173
     1
279
     2
340
11
  0
DIMSTYLE
105
35
102
{ACAD_REACTORS
330
288
102
}
330
A
100
AcDbSymbolTableRecord
100
AcDbDimStyleTableRecord
  2
DIMSTYLE10
 70
     0
 41
1.0
 42
2.54
 44
2.54
 73
     0
 74
     0
 75
     1
 76
     1
 77
     1
140
3.0
145
1.0
147
1.5
172
     1
173
     1
279
     2
340
11
  0
DIMSTYLE
105
36
102
{ACAD_REACTORS
330
289
102
}
330
A
100
AcDbSymbolTableRecord
100
AcDbDimStyleTableRecord
  2
DIMSTYLE11
 70
     0
 41
1.0
 42
2.54
 44
2.54
 73
     0
 74
     0
 75
     1
 76
     1
 77
     1
140
3.0
145
1.0
147
1.5
172
     1
173
     1
279
     2
340
11
  0
ENDTAB
  0
TABLE
  2
BLOCK_RECORD
  5
1
330
0
100
AcDbSymbolTable
 70
    15
  0
BLOCK_RECORD
  5
22
330
1
100
AcDbSymbolTableRecord
100
AcDbBlockTableRecord
  2
*Model_Space
340
25
  0
BLOCK_RECORD
  5
1E
330
1
100
AcDbSymbolTableRecord
100
AcDbBlockTableRecord
  2
*Paper_Space
340
21
  0
BLOCK_RECORD
  5
3A
330
1
100
AcDbSymbolTableRecord
100
AcDbBlockTableRecord
  2
_OPEN30
340
0
102
{BLKREFS
331
43
331
44
331
50
331
52
331
5D
331
5E
331
68
331
69
331
72
331
73
331
7E
331
7F
331
8A
331
8B
331
95
331
96
331
A1
331
A2
331
AB
331
AC
331
B5
331
B6
102
}
  0
BLOCK_RECORD
  5
40
330
1
100
AcDbSymbolTableRecord
100
AcDbBlockTableRecord
  2
*D1
340
0
  0
BLOCK_RECORD
  5
4C
330
1
100
AcDbSymbolTableRecord
100
AcDbBlockTableRecord
  2
*D2
340
0
  0
BLOCK_RECORD
  5
5A
330
1
100
AcDbSymbolTableRecord
100
AcDbBlockTableRecord
  2
*D3
340
0
  0
BLOCK_RECORD
  5
65
330
1
100
AcDbSymbolTableRecord
100
AcDbBlockTableRecord
  2
*D4
340
0
  0
BLOCK_RECORD
  5
6F
330
1
100
AcDbSymbolTableRecord
100
AcDbBlockTableRecord
  2
*D5
340
0
  0
BLOCK_RECORD
  5
7B
330
1
100
AcDbSymbolTableRecord
100
AcDbBlockTableRecord
  2
*D6
340
0
  0
BLOCK_RECORD
  5
87
330
1
100
AcDbSymbolTableRecord
100
AcDbBlockTableRecord
  2
*D7
340
0
  0
BLOCK_RECORD
  5
92
330
1
100
AcDbSymbolTableRecord
100
AcDbBlockTableRecord
  2
*D8
340
0
  0
BLOCK_RECORD
  5
9D
330
1
100
AcDbSymbolTableRecord
100
AcDbBlockTableRecord
  2
*D9
340
0
  0
BLOCK_RECORD
  5
A7
330
1
100
AcDbSymbolTableRecord
100
AcDbBlockTableRecord
  2
*D10
340
0
  0
BLOCK_RECORD
  5
B1
330
1
100
AcDbSymbolTableRecord
100
AcDbBlockTableRecord
  2
*D11
340
0
  0
BLOCK_RECORD
  5
BB
330
1
100
AcDbSymbolTableRecord
100
AcDbBlockTableRecord
  2
KOZU0001
340
0
102
{BLKREFS
331
283
102
}
  0
BLOCK_RECORD
  5
C4
330
1
100
AcDbSymbolTableRecord
100
AcDbBlockTableRecord
  2
KOZU0002
340
0
102
{BLKREFS
331
286
102
}
  0
ENDTAB
  0
ENDSEC
  0
SECTION
  2
BLOCKS
  0
BLOCK
  5
23
330
22
100
AcDbEntity
  8
0
100
AcDbBlockBegin
  2
*Model_Space
 70
     0
 10
0.0
 20
0.0
 30
0.0
  3
*Model_Space
  1

  0
ENDBLK
  5
24
330
22
100
AcDbEntity
  8
0
100
AcDbBlockEnd
  0
BLOCK
  5
1F
330
1E
100
AcDbEntity
 67
     1
  8
0
100
AcDbBlockBegin
  2
*Paper_Space
 70
     0
 10
0.0
 20
0.0
 30
0.0
  3
*Paper_Space
  1

  0
ENDBLK
  5
20
330
1E
100
AcDbEntity
 67
     1
  8
0
100
AcDbBlockEnd
  0
BLOCK
  5
3B
330
3A
100
AcDbEntity
  8
0
100
AcDbBlockBegin
  2
_OPEN30
 70
     0
 10
0.0
 20
0.0
 30
0.0
  3
_OPEN30
  1

  0
LINE
  5
3C
330
3A
100
AcDbEntity
  8
0
  6
ByBlock
 62
     0
100
AcDbLine
 10
0.0
 20
0.0
 30
0.0
 11
-2.999999999999993
 21
-1.000000000000017
 31
0.0
  0
LINE
  5
3D
330
3A
100
AcDbEntity
  8
0
  6
ByBlock
 62
     0
100
AcDbLine
 10
0.0
 20
0.0
 30
0.0
 11
-3.000000000000006
 21
0.9999999999999815
 31
0.0
  0
LINE
  5
3E
330
3A
100
AcDbEntity
  8
0
  6
ByBlock
 62
     0
100
AcDbLine
 10
0.0
 20
0.0
 30
0.0
 11
-3.0
 21
0.0
 31
0.0
  0
ENDBLK
  5
3F
330
3A
100
AcDbEntity
  8
0
100
AcDbBlockEnd
  0
BLOCK
  5
41
330
40
100
AcDbEntity
  8
0
100
AcDbBlockBegin
  2
*D1
 70
     1
 10
0.0
 20
0.0
 30
0.0
  3
*D1
  1

  0
LINE
  5
42
330
40
100
AcDbEntity
  8
0
  6
Continuous
 62
     7
100
AcDbLine
 10
-235.9337768554688
 20
318.9088439941406
 30
0.0
 11
-161.9337768554688
 21
318.9088439941406
 31
0.0
  0
INSERT
  5
43
330
40
100
AcDbEntity
  8
0
  6
Continuous
 62
     7
100
AcDbBlockReference
  2
_OPEN30
 10
-238.9337768554689
 20
318.9088439941406
 30
0.0
 50
180.0000000000004
  0
INSERT
  5
44
330
40
100
AcDbEntity
  8
0
  6
Continuous
 62
     7
100
AcDbBlockReference
  2
_OPEN30
 10
-158.9337768554688
 20
318.9088439941406
 30
0.0
  0
LINE
  5
45
330
40
100
AcDbEntity
  8
0
  6
Continuous
 62
     7
100
AcDbLine
 10
-238.9337768554689
 20
279.9079504394532
 30
0.0
 11
-238.9337768554689
 21
321.1948547363281
 31
0.0
  0
LINE
  5
46
330
40
100
AcDbEntity
  8
0
  6
Continuous
 62
     7
100
AcDbLine
 10
-158.9337768554688
 20
282.9079504394532
 30
0.0
 11
-158.9337768554688
 21
321.1948547363281
 31
0.0
  0
TEXT
  5
47
330
40
100
AcDbEntity
  8
0
  6
Continuous
 62
     7
100
AcDbText
 10
-213.5037774443626
 20
319.6588439941406
 30
0.0
 40
3.0
  1
８０　（７２～８８）
 41
0.8443929326254473
100
AcDbText
  0
POINT
  5
48
330
40
100
AcDbEntity
  8
DEFPOINTS
  6
Continuous
 62
     7
100
AcDbPoint
 10
-238.9337768554689
 20
277.3679504394531
 30
0.0
  0
POINT
  5
49
330
40
100
AcDbEntity
  8
DEFPOINTS
  6
Continuous
 62
     7
100
AcDbPoint
 10
-158.9337768554688
 20
280.3679504394531
 30
0.0
  0
POINT
  5
4A
330
40
100
AcDbEntity
  8
DEFPOINTS
  6
Continuous
 62
     7
100
AcDbPoint
 10
-158.9337768554688
 20
318.9088439941406
 30
0.0
  0
ENDBLK
  5
4B
330
40
100
AcDbEntity
  8
0
100
AcDbBlockEnd
  0
BLOCK
  5
4D
330
4C
100
AcDbEntity
  8
0
100
AcDbBlockBegin
  2
*D2
 70
     1
 10
0.0
 20
0.0
 30
0.0
  3
*D2
  1

  0
LINE
  5
4E
330
4C
100
AcDbEntity
  8
0
  6
Continuous
 62
     7
100
AcDbLine
 10
-155.4337768554688
 20
318.9088439941406
 30
0.0
 11
-141.1986694335938
 21
318.9088439941406
 31
0.0
  0
LINE
  5
4F
330
4C
100
AcDbEntity
  8
0
  6
Continuous
 62
     7
100
AcDbLine
 10
-158.9337768554688
 20
318.9088439941406
 30
0.0
 11
-155.4337768554688
 21
318.9088439941406
 31
0.0
  0
INSERT
  5
50
330
4C
100
AcDbEntity
  8
0
  6
Continuous
 62
     7
100
AcDbBlockReference
  2
_OPEN30
 10
-158.9337768554688
 20
318.9088439941406
 30
0.0
 50
0.0000000000003562
  0
LINE
  5
51
330
4C
100
AcDbEntity
  8
0
  6
Continuous
 62
     7
100
AcDbLine
 10
-161.9337768554688
 20
318.9088439941406
 30
0.0
 11
-165.2837768554687
 21
318.9088439941406
 31
0.0
  0
INSERT
  5
52
330
4C
100
AcDbEntity
  8
0
  6
Continuous
 62
     7
100
AcDbBlockReference
  2
_OPEN30
 10
-155.4337768554688
 20
318.9088439941406
 30
0.0
 50
180.0
  0
LINE
  5
53
330
4C
100
AcDbEntity
  8
0
  6
Continuous
 62
     7
100
AcDbLine
 10
-152.4337768554688
 20
318.9088439941406
 30
0.0
 11
-149.0837768554688
 21
318.9088439941406
 31
0.0
  0
LINE
  5
54
330
4C
100
AcDbEntity
  8
0
  6
Continuous
 62
     7
100
AcDbLine
 10
-155.4337768554688
 20
284.4079504394532
 30
0.0
 11
-155.4337768554688
 21
321.1948547363281
 31
0.0
  0
TEXT
  5
55
330
4C
100
AcDbEntity
  8
0
  6
Continuous
 62
     7
100
AcDbText
 10
-149.3386769294739
 20
319.6588439941406
 30
0.0
 40
3.0
  1
3.5
 41
1.356666684150696
100
AcDbText
  0
POINT
  5
56
330
4C
100
AcDbEntity
  8
DEFPOINTS
  6
Continuous
 62
     7
100
AcDbPoint
 10
-158.9337768554688
 20
321.1948547363281
 30
0.0
  0
POINT
  5
57
330
4C
100
AcDbEntity
  8
DEFPOINTS
  6
Continuous
 62
     7
100
AcDbPoint
 10
-155.4337768554688
 20
281.8679504394531
 30
0.0
  0
POINT
  5
58
330
4C
100
AcDbEntity
  8
DEFPOINTS
  6
Continuous
 62
     7
100
AcDbPoint
 10
-155.4337768554688
 20
318.9088439941406
 30
0.0
  0
ENDBLK
  5
59
330
4C
100
AcDbEntity
  8
0
100
AcDbBlockEnd
  0
BLOCK
  5
5B
330
5A
100
AcDbEntity
  8
0
100
AcDbBlockBegin
  2
*D3
 70
     1
 10
0.0
 20
0.0
 30
0.0
  3
*D3
  1

  0
LINE
  5
5C
330
5A
100
AcDbEntity
  8
0
  6
Continuous
 62
     7
100
AcDbLine
 10
-161.9337768554688
 20
308.0862426757813
 30
0.0
 11
-185.9337768554688
 21
308.0862426757813
 31
0.0
  0
INSERT
  5
5D
330
5A
100
AcDbEntity
  8
0
  6
Continuous
 62
     7
100
AcDbBlockReference
  2
_OPEN30
 10
-158.9337768554688
 20
308.0862426757813
 30
0.0
  0
INSERT
  5
5E
330
5A
100
AcDbEntity
  8
0
  6
Continuous
 62
     7
100
AcDbBlockReference
  2
_OPEN30
 10
-188.9337768554688
 20
308.0862426757813
 30
0.0
 50
180.0000000000004
  0
LINE
  5
5F
330
5A
100
AcDbEntity
  8
0
  6
Continuous
 62
     7
100
AcDbLine
 10
-188.9337768554688
 20
233.9079351806641
 30
0.0
 11
-188.9337768554688
 21
310.3722229003906
 31
0.0
  0
TEXT
  5
60
330
5A
100
AcDbEntity
  8
0
  6
Continuous
 62
     7
100
AcDbText
 10
-176.5037769675255
 20
308.8362426757813
 30
0.0
 40
3.0
  1
30
 41
1.101428593908038
100
AcDbText
  0
POINT
  5
61
330
5A
100
AcDbEntity
  8
DEFPOINTS
  6
Continuous
 62
     7
100
AcDbPoint
 10
-158.9337768554688
 20
321.1948547363281
 30
0.0
  0
POINT
  5
62
330
5A
100
AcDbEntity
  8
DEFPOINTS
  6
Continuous
 62
     7
100
AcDbPoint
 10
-188.9337768554688
 20
231.3679351806641
 30
0.0
  0
POINT
  5
63
330
5A
100
AcDbEntity
  8
DEFPOINTS
  6
Continuous
 62
     7
100
AcDbPoint
 10
-188.9337768554688
 20
308.0862426757813
 30
0.0
  0
ENDBLK
  5
64
330
5A
100
AcDbEntity
  8
0
100
AcDbBlockEnd
  0
BLOCK
  5
66
330
65
100
AcDbEntity
  8
0
100
AcDbBlockBegin
  2
*D4
 70
     1
 10
0.0
 20
0.0
 30
0.0
  3
*D4
  1

  0
LINE
  5
67
330
65
100
AcDbEntity
  8
0
  6
Continuous
 62
     7
100
AcDbLine
 10
-235.9337768554688
 20
219.6026916503906
 30
0.0
 11
-171.9337768554688
 21
219.6026916503906
 31
0.0
  0
INSERT
  5
68
330
65
100
AcDbEntity
  8
0
  6
Continuous
 62
     7
100
AcDbBlockReference
  2
_OPEN30
 10
-238.9337768554689
 20
219.6026916503906
 30
0.0
 50
180.0000000000004
  0
INSERT
  5
69
330
65
100
AcDbEntity
  8
0
  6
Continuous
 62
     7
100
AcDbBlockReference
  2
_OPEN30
 10
-168.9337768554688
 20
219.6026916503906
 30
0.0
  0
TEXT
  5
6A
330
65
100
AcDbEntity
  8
0
  6
Continuous
 62
     7
100
AcDbText
 10
-219.522957265377
 20
220.3526916503906
 30
0.0
 40
3.0
  1
70
 41
1.101428593908038
100
AcDbText
  0
POINT
  5
6B
330
65
100
AcDbEntity
  8
DEFPOINTS
  6
Continuous
 62
     7
100
AcDbPoint
 10
-238.9337768554689
 20
213.3679351806641
 30
0.0
  0
POINT
  5
6C
330
65
100
AcDbEntity
  8
DEFPOINTS
  6
Continuous
 62
     7
100
AcDbPoint
 10
-168.9337768554688
 20
213.3679351806641
 30
0.0
  0
POINT
  5
6D
330
65
100
AcDbEntity
  8
DEFPOINTS
  6
Continuous
 62
     7
100
AcDbPoint
 10
-168.9337768554688
 20
219.6026916503906
 30
0.0
  0
ENDBLK
  5
6E
330
65
100
AcDbEntity
  8
0
100
AcDbBlockEnd
  0
BLOCK
  5
70
330
6F
100
AcDbEntity
  8
0
100
AcDbBlockBegin
  2
*D5
 70
     1
 10
0.0
 20
0.0
 30
0.0
  3
*D5
  1

  0
LINE
  5
71
330
6F
100
AcDbEntity
  8
0
  6
Continuous
 62
     7
100
AcDbLine
 10
-185.9337768554688
 20
123.5740280151367
 30
0.0
 11
-136.9337768554688
 21
123.5740280151367
 31
0.0
  0
INSERT
  5
72
330
6F
100
AcDbEntity
  8
0
  6
Continuous
 62
     7
100
AcDbBlockReference
  2
_OPEN30
 10
-188.9337768554688
 20
123.5740280151367
 30
0.0
 50
180.0000000000004
  0
INSERT
  5
73
330
6F
100
AcDbEntity
  8
0
  6
Continuous
 62
     7
100
AcDbBlockReference
  2
_OPEN30
 10
-133.9337768554688
 20
123.5740280151367
 30
0.0
  0
LINE
  5
74
330
6F
100
AcDbEntity
  8
0
  6
Continuous
 62
     7
100
AcDbLine
 10
-188.9337768554686
 20
192.8279351806641
 30
0.0
 11
-188.9337768554688
 21
121.2880249023438
 31
0.0
  0
LINE
  5
75
330
6F
100
AcDbEntity
  8
0
  6
Continuous
 62
     7
100
AcDbLine
 10
-133.9337768554687
 20
191.8279351806641
 30
0.0
 11
-133.9337768554688
 21
121.2880249023438
 31
0.0
  0
TEXT
  5
76
330
6F
100
AcDbEntity
  8
0
  6
Continuous
 62
     7
100
AcDbText
 10
-164.0037769675255
 20
124.3240280151367
 30
0.0
 40
3.0
  1
55
 41
1.028000020980834
100
AcDbText
  0
POINT
  5
77
330
6F
100
AcDbEntity
  8
DEFPOINTS
  6
Continuous
 62
     7
100
AcDbPoint
 10
-188.9337768554688
 20
195.3679351806641
 30
0.0
  0
POINT
  5
78
330
6F
100
AcDbEntity
  8
DEFPOINTS
  6
Continuous
 62
     7
100
AcDbPoint
 10
-133.9337768554688
 20
194.3679351806641
 30
0.0
  0
POINT
  5
79
330
6F
100
AcDbEntity
  8
DEFPOINTS
  6
Continuous
 62
     7
100
AcDbPoint
 10
-133.9337768554688
 20
123.5740280151367
 30
0.0
  0
ENDBLK
  5
7A
330
6F
100
AcDbEntity
  8
0
100
AcDbBlockEnd
  0
BLOCK
  5
7C
330
7B
100
AcDbEntity
  8
0
100
AcDbBlockBegin
  2
*D6
 70
     1
 10
0.0
 20
0.0
 30
0.0
  3
*D6
  1

  0
LINE
  5
7D
330
7B
100
AcDbEntity
  8
0
  6
Continuous
 62
     7
100
AcDbLine
 10
-109.8011550903321
 20
196.3679351806641
 30
0.0
 11
-109.801155090332
 21
230.3679351806641
 31
0.0
  0
INSERT
  5
7E
330
7B
100
AcDbEntity
  8
0
  6
Continuous
 62
     7
100
AcDbBlockReference
  2
_OPEN30
 10
-109.801155090332
 20
193.3679351806641
 30
0.0
 50
270.0000000000005
  0
INSERT
  5
7F
330
7B
100
AcDbEntity
  8
0
  6
Continuous
 62
     7
100
AcDbBlockReference
  2
_OPEN30
 10
-109.801155090332
 20
233.3679351806641
 30
0.0
 50
90.00000000000019
  0
LINE
  5
80
330
7B
100
AcDbEntity
  8
0
  6
Continuous
 62
     7
100
AcDbLine
 10
-132.3937768554688
 20
193.3679351806641
 30
0.0
 11
-107.5151596069336
 21
193.3679351806641
 31
0.0
  0
LINE
  5
81
330
7B
100
AcDbEntity
  8
0
  6
Continuous
 62
     7
100
AcDbLine
 10
-132.3937768554688
 20
233.3679351806641
 30
0.0
 11
-107.5151596069336
 21
233.3679351806641
 31
0.0
  0
TEXT
  5
82
330
7B
100
AcDbEntity
  8
0
  6
Continuous
 62
     7
100
AcDbText
 10
-110.5511549124267
 20
209.2979349762192
 30
0.0
 40
3.0
  1
%%C40
 50
90.00000250447815
 41
0.9882638735213483
100
AcDbText
  0
POINT
  5
83
330
7B
100
AcDbEntity
  8
DEFPOINTS
  6
Continuous
 62
     7
100
AcDbPoint
 10
-134.9337768554688
 20
193.3679351806641
 30
0.0
  0
POINT
  5
84
330
7B
100
AcDbEntity
  8
DEFPOINTS
  6
Continuous
 62
     7
100
AcDbPoint
 10
-134.9337768554688
 20
233.3679351806641
 30
0.0
  0
POINT
  5
85
330
7B
100
AcDbEntity
  8
DEFPOINTS
  6
Continuous
 62
     7
100
AcDbPoint
 10
-109.801155090332
 20
233.3679351806641
 30
0.0
  0
ENDBLK
  5
86
330
7B
100
AcDbEntity
  8
0
100
AcDbBlockEnd
  0
BLOCK
  5
88
330
87
100
AcDbEntity
  8
0
100
AcDbBlockBegin
  2
*D7
 70
     1
 10
0.0
 20
0.0
 30
0.0
  3
*D7
  1

  0
LINE
  5
89
330
87
100
AcDbEntity
  8
0
  6
Continuous
 62
     7
100
AcDbLine
 10
-137.9324035644531
 20
190.3679351806641
 30
0.0
 11
-137.9324035644531
 21
184.3679351806641
 31
0.0
  0
INSERT
  5
8A
330
87
100
AcDbEntity
  8
0
  6
Continuous
 62
     7
100
AcDbBlockReference
  2
_OPEN30
 10
-137.9324035644531
 20
193.3679351806641
 30
0.0
 50
90.00000000000019
  0
INSERT
  5
8B
330
87
100
AcDbEntity
  8
0
  6
Continuous
 62
     7
100
AcDbBlockReference
  2
_OPEN30
 10
-137.9324035644531
 20
181.3679351806641
 30
0.0
 50
270.0000000000005
  0
LINE
  5
8C
330
87
100
AcDbEntity
  8
0
  6
Continuous
 62
     7
100
AcDbLine
 10
-151.3920831298828
 20
181.3679351806641
 30
0.0
 11
-135.6464080810547
 21
181.3679351806641
 31
0.0
  0
TEXT
  5
8D
330
87
100
AcDbEntity
  8
0
  6
Continuous
 62
     7
100
AcDbText
 10
-138.6824034521147
 20
184.7979350358238
 30
0.0
 40
3.0
  1
12
 50
90.00000250447815
 41
1.285000026226043
100
AcDbText
  0
POINT
  5
8E
330
87
100
AcDbEntity
  8
DEFPOINTS
  6
Continuous
 62
     7
100
AcDbPoint
 10
-134.9337768554688
 20
193.3679351806641
 30
0.0
  0
POINT
  5
8F
330
87
100
AcDbEntity
  8
DEFPOINTS
  6
Continuous
 62
     7
100
AcDbPoint
 10
-153.9320831298828
 20
181.3679351806641
 30
0.0
  0
POINT
  5
90
330
87
100
AcDbEntity
  8
DEFPOINTS
  6
Continuous
 62
     7
100
AcDbPoint
 10
-137.9324035644531
 20
181.3679351806641
 30
0.0
  0
ENDBLK
  5
91
330
87
100
AcDbEntity
  8
0
100
AcDbBlockEnd
  0
BLOCK
  5
93
330
92
100
AcDbEntity
  8
0
100
AcDbBlockBegin
  2
*D8
 70
     1
 10
0.0
 20
0.0
 30
0.0
  3
*D8
  1

  0
LINE
  5
94
330
92
100
AcDbEntity
  8
0
  6
Continuous
 62
     7
100
AcDbLine
 10
-152.4337768554688
 20
171.5690155029297
 30
0.0
 11
-146.4337768554688
 21
171.5690155029297
 31
0.0
  0
INSERT
  5
95
330
92
100
AcDbEntity
  8
0
  6
Continuous
 62
     7
100
AcDbBlockReference
  2
_OPEN30
 10
-155.4337768554688
 20
171.5690155029297
 30
0.0
 50
180.0000000000004
  0
INSERT
  5
96
330
92
100
AcDbEntity
  8
0
  6
Continuous
 62
     7
100
AcDbBlockReference
  2
_OPEN30
 10
-143.4337768554688
 20
171.5690155029297
 30
0.0
  0
LINE
  5
97
330
92
100
AcDbEntity
  8
0
  6
Continuous
 62
     7
100
AcDbLine
 10
-143.4337768554687
 20
189.3410577392578
 30
0.0
 11
-143.4337768554688
 21
169.2830047607422
 31
0.0
  0
TEXT
  5
98
330
92
100
AcDbEntity
  8
0
  6
Continuous
 62
     7
100
AcDbText
 10
-152.0037769675255
 20
172.3190155029297
 30
0.0
 40
3.0
  1
12
 41
1.285000026226043
100
AcDbText
  0
POINT
  5
99
330
92
100
AcDbEntity
  8
DEFPOINTS
  6
Continuous
 62
     7
100
AcDbPoint
 10
-155.4337768554688
 20
144.8679351806641
 30
0.0
  0
POINT
  5
9A
330
92
100
AcDbEntity
  8
DEFPOINTS
  6
Continuous
 62
     7
100
AcDbPoint
 10
-143.4337768554688
 20
191.8810577392578
 30
0.0
  0
POINT
  5
9B
330
92
100
AcDbEntity
  8
DEFPOINTS
  6
Continuous
 62
     7
100
AcDbPoint
 10
-143.4337768554688
 20
171.5690155029297
 30
0.0
  0
ENDBLK
  5
9C
330
92
100
AcDbEntity
  8
0
100
AcDbBlockEnd
  0
BLOCK
  5
9E
330
9D
100
AcDbEntity
  8
0
100
AcDbBlockBegin
  2
*D9
 70
     1
 10
0.0
 20
0.0
 30
0.0
  3
*D9
  1

  0
LINE
  5
9F
330
9D
100
AcDbEntity
  8
0
  6
Continuous
 62
     7
100
AcDbLine
 10
-365.4566650390625
 20
276.7775573730469
 30
0.0
 11
-349.460205078125
 21
314.0595703125
 31
0.0
  0
LINE
  5
A0
330
9D
100
AcDbEntity
  8
0
  6
Continuous
 62
     7
100
AcDbLine
 10
-418.6876338531869
 20
152.7152385266006
 30
0.0
 11
-366.6395756194693
 21
274.0206165759383
 31
0.0
  0
INSERT
  5
A1
330
9D
100
AcDbEntity
  8
0
  6
Continuous
 62
     7
100
AcDbBlockReference
  2
_OPEN30
 10
-419.8705444335938
 20
149.9582977294922
 30
0.0
 50
246.7774561081086
  0
INSERT
  5
A2
330
9D
100
AcDbEntity
  8
0
  6
Continuous
 62
     7
100
AcDbBlockReference
  2
_OPEN30
 10
-365.4566650390625
 20
276.7775573730469
 30
0.0
 50
66.77745610810784
  0
TEXT
  5
A3
330
9D
100
AcDbEntity
  8
0
  6
Continuous
 62
     7
100
AcDbText
 10
-362.8166592694071
 20
284.8165157037461
 30
0.0
 40
3.0
  1
%%C１３８（防水皿外径）
 50
66.80000140353341
 41
0.8440126077968535
100
AcDbText
  0
POINT
  5
A4
330
9D
100
AcDbEntity
  8
DEFPOINTS
  6
Continuous
 62
     7
100
AcDbPoint
 10
-419.8705444335938
 20
149.9582977294922
 30
0.0
  0
POINT
  5
A5
330
9D
100
AcDbEntity
  8
DEFPOINTS
  6
Continuous
 62
     7
100
AcDbPoint
 10
-365.4566650390625
 20
276.7775573730469
 30
0.0
  0
ENDBLK
  5
A6
330
9D
100
AcDbEntity
  8
0
100
AcDbBlockEnd
  0
BLOCK
  5
A8
330
A7
100
AcDbEntity
  8
0
100
AcDbBlockBegin
  2
*D10
 70
     1
 10
0.0
 20
0.0
 30
0.0
  3
*D10
  1

  0
LINE
  5
A9
330
A7
100
AcDbEntity
  8
0
  6
Continuous
 62
     7
100
AcDbLine
 10
-352.8647155761719
 20
264.7590637207031
 30
0.0
 11
-327.0877990722656
 21
298.0440979003906
 31
0.0
  0
LINE
  5
AA
330
A7
100
AcDbEntity
  8
0
  6
Continuous
 62
     7
100
AcDbLine
 10
-430.6256221880374
 20
164.3486898465067
 30
0.0
 11
-354.7015872846188
 21
262.3871652560324
 31
0.0
  0
INSERT
  5
AB
330
A7
100
AcDbEntity
  8
0
  6
Continuous
 62
     7
100
AcDbBlockReference
  2
_OPEN30
 10
-432.4624938964843
 20
161.9767913818359
 30
0.0
 50
232.244689032352
  0
INSERT
  5
AC
330
A7
100
AcDbEntity
  8
0
  6
Continuous
 62
     7
100
AcDbBlockReference
  2
_OPEN30
 10
-352.8647155761719
 20
264.7590637207031
 30
0.0
 50
52.24468903235134
  0
TEXT
  5
AD
330
A7
100
AcDbEntity
  8
0
  6
Continuous
 62
     7
100
AcDbText
 10
-347.3693399734823
 20
273.100511635569
 30
0.0
 40
3.0
  1
%%C１３０（目皿受外径）
 50
52.20000076957841
 41
0.8440126077968535
100
AcDbText
  0
POINT
  5
AE
330
A7
100
AcDbEntity
  8
DEFPOINTS
  6
Continuous
 62
     7
100
AcDbPoint
 10
-432.4624938964843
 20
161.9767913818359
 30
0.0
  0
POINT
  5
AF
330
A7
100
AcDbEntity
  8
DEFPOINTS
  6
Continuous
 62
     7
100
AcDbPoint
 10
-352.8647155761719
 20
264.7590637207031
 30
0.0
  0
ENDBLK
  5
B0
330
A7
100
AcDbEntity
  8
0
100
AcDbBlockEnd
  0
BLOCK
  5
B2
330
B1
100
AcDbEntity
  8
0
100
AcDbBlockBegin
  2
*D11
 70
     1
 10
0.0
 20
0.0
 30
0.0
  3
*D11
  1

  0
LINE
  5
B3
330
B1
100
AcDbEntity
  8
0
  6
Continuous
 62
     7
100
AcDbLine
 10
-350.8116149902344
 20
248.2772674560547
 30
0.0
 11
-313.0568237304688
 21
279.7690734863281
 31
0.0
  0
LINE
  5
B4
330
B1
100
AcDbEntity
  8
0
  6
Continuous
 62
     7
100
AcDbLine
 10
-432.2118154341836
 20
180.380217355911
 30
0.0
 11
-353.1153940384725
 21
246.3556530054171
 31
0.0
  0
INSERT
  5
B5
330
B1
100
AcDbEntity
  8
0
  6
Continuous
 62
     7
100
AcDbBlockReference
  2
_OPEN30
 10
-434.5155944824218
 20
178.4586029052734
 30
0.0
 50
219.8319597188038
  0
INSERT
  5
B6
330
B1
100
AcDbEntity
  8
0
  6
Continuous
 62
     7
100
AcDbBlockReference
  2
_OPEN30
 10
-350.8116149902344
 20
248.2772674560547
 30
0.0
 50
39.83195971880311
  0
TEXT
  5
B7
330
B1
100
AcDbEntity
  8
0
  6
Continuous
 62
     7
100
AcDbText
 10
-335.9194874822224
 20
261.686245696125
 30
0.0
 40
3.0
  1
%%C１０９（目皿外径）
 50
39.80000065218995
 41
0.8443929326254473
100
AcDbText
  0
POINT
  5
B8
330
B1
100
AcDbEntity
  8
DEFPOINTS
  6
Continuous
 62
     7
100
AcDbPoint
 10
-434.5155944824218
 20
178.4586029052734
 30
0.0
  0
POINT
  5
B9
330
B1
100
AcDbEntity
  8
DEFPOINTS
  6
Continuous
 62
     7
100
AcDbPoint
 10
-350.8116149902344
 20
248.2772674560547
 30
0.0
  0
ENDBLK
  5
BA
330
B1
100
AcDbEntity
  8
0
100
AcDbBlockEnd
  0
BLOCK
  5
BC
330
BB
100
AcDbEntity
  8
0
100
AcDbBlockBegin
  2
KOZU0001
 70
     0
 10
0.0
 20
0.0
 30
0.0
  3
KOZU0001
  1

  0
LINE
  5
BD
330
BB
100
AcDbEntity
  8
0
  6
Continuous
 62
     7
100
AcDbLine
 10
0.0
 20
0.0
 30
0.0
 11
21.67559814453125
 21
21.20831298828125
 31
0.0
  0
LINE
  5
BE
330
BB
100
AcDbEntity
  8
0
  6
Continuous
 62
     7
100
AcDbLine
 10
21.67559814453125
 20
21.20831298828125
 30
0.0
 11
47.39669799804688
 21
21.20831298828125
 31
0.0
  0
LINE
  5
BF
330
BB
100
AcDbEntity
  8
0
  6
Continuous
 62
     7
100
AcDbLine
 10
0.0
 20
0.0
 30
0.0
 11
1.44494777964946
 21
2.812850140708903
 31
0.0
  0
LINE
  5
C0
330
BB
100
AcDbEntity
  8
0
  6
Continuous
 62
     7
100
AcDbLine
 10
0.0
 20
0.0
 30
0.0
 11
2.84366830814491
 21
1.383311444777447
 31
0.0
  0
TEXT
  5
C1
330
BB
100
AcDbEntity
  8
0
  6
Continuous
 62
     7
100
AcDbText
 10
23.21683430671692
 20
21.95831298828125
 30
0.0
 40
3.0
  1
配管接続口
 41
0.8487395020950888
100
AcDbText
  0
TEXT
  5
C2
330
BB
100
AcDbEntity
  8
0
  6
Continuous
 62
     7
100
AcDbText
 10
23.21683430671692
 20
16.69331298828125
 30
0.0
 40
3.0
  1
Ｒｃ１（２５Ａ）
 41
0.8454512278006642
100
AcDbText
  0
ENDBLK
  5
C3
330
BB
100
AcDbEntity
  8
0
100
AcDbBlockEnd
  0
BLOCK
  5
C5
330
C4
100
AcDbEntity
  8
0
100
AcDbBlockBegin
  2
KOZU0002
 70
     0
 10
0.0
 20
0.0
 30
0.0
  3
KOZU0002
  1

  0
LINE
  5
C6
330
C4
100
AcDbEntity
  8
0
  6
Continuous
 62
     7
100
AcDbLine
 10
0.0
 20
0.0
 30
0.0
 11
26.79522705078125
 21
-30.76908874511719
 31
0.0
  0
LINE
  5
C7
330
C4
100
AcDbEntity
  8
0
  6
Continuous
 62
     7
100
AcDbLine
 10
26.79522705078125
 20
-30.76908874511719
 30
0.0
 11
53.42353820800781
 21
-30.76908874511719
 31
0.0
  0
LINE
  5
C8
330
C4
100
AcDbEntity
  8
0
  6
Continuous
 62
     7
100
AcDbLine
 10
0.0
 20
0.0
 30
0.0
 11
2.724315322280943
 21
-1.605648163448418
 31
0.0
  0
LINE
  5
C9
330
C4
100
AcDbEntity
  8
0
  6
Continuous
 62
     7
100
AcDbLine
 10
0.0
 20
0.0
 30
0.0
 11
1.216063359755705
 21
-2.919107724127301
 31
0.0
  0
TEXT
  5
CA
330
C4
100
AcDbEntity
  8
0
  6
Continuous
 62
     7
100
AcDbText
 10
28.56353688240051
 20
-30.01908874511719
 30
0.0
 40
3.0
  1
共廻り防止用羽根
 41
0.8454512278006642
100
AcDbText
  0
TEXT
  5
CB
330
C4
100
AcDbEntity
  8
0
  6
Continuous
 62
     7
100
AcDbText
 10
28.56353688240051
 20
-35.28408874511719
 30
0.0
 40
3.0
  1
３ヶ所
 41
0.8550420278260688
100
AcDbText
  0
ENDBLK
  5
CC
330
C4
100
AcDbEntity
  8
0
100
AcDbBlockEnd
  0
ENDSEC
  0
SECTION
  2
ENTITIES
  0
POINT
  5
CD
330
22
100
AcDbEntity
  8
0
  6
Continuous
 62
     7
100
AcDbPoint
 10
-155.4337768554688
 20
213.3679351806641
 30
0.0
  0
POINT
  5
CE
330
22
100
AcDbEntity
  8
0
  6
Continuous
 62
     7
100
AcDbPoint
 10
-133.9337768554688
 20
229.992431640625
 30
0.0
  0
POINT
  5
CF
330
22
100
AcDbEntity
  8
0
  6
Continuous
 62
     7
100
AcDbPoint
 10
-155.36865234375
 20
229.3225708007813
 30
0.0
  0
POINT
  5
D0
330
22
100
AcDbEntity
  8
0
  6
Continuous
 62
     7
100
AcDbPoint
 10
-144.6512145996094
 20
229.6575012207031
 30
0.0
  0
POINT
  5
D1
330
22
100
AcDbEntity
  8
0
  6
Continuous
 62
     7
100
AcDbPoint
 10
-241.9337768554688
 20
213.3679351806641
 30
0.0
  0
LINE
  5
D2
330
22
100
AcDbEntity
  8
0
  6
Continuous
 62
     7
100
AcDbLine
 10
-158.9337768554688
 20
280.3679504394531
 30
0.0
 11
-158.9337768554688
 21
237.3679351806641
 31
0.0
  0
LINE
  5
D3
330
22
100
AcDbEntity
  8
0
  6
Continuous
 62
     7
100
AcDbLine
 10
-155.4337768554688
 20
234.3679351806641
 30
0.0
 11
-155.4337768554688
 21
281.8679504394531
 31
0.0
  0
LINE
  5
D4
330
22
100
AcDbEntity
  8
0
  6
Continuous
 62
     7
100
AcDbLine
 10
-158.9337768554688
 20
278.5209045410156
 30
0.0
 11
-155.4785766601563
 21
281.9761047363281
 31
0.0
  0
LINE
  5
D5
330
22
100
AcDbEntity
  8
0
  6
Continuous
 62
     7
100
AcDbLine
 10
-158.9337768554688
 20
275.6925048828125
 30
0.0
 11
-155.4337768554688
 21
279.1925048828125
 31
0.0
  0
LINE
  5
D6
330
22
100
AcDbEntity
  8
0
  6
Continuous
 62
     7
100
AcDbLine
 10
-158.9337768554688
 20
272.8640747070313
 30
0.0
 11
-155.4337768554688
 21
276.3640747070313
 31
0.0
  0
LINE
  5
D7
330
22
100
AcDbEntity
  8
0
  6
Continuous
 62
     7
100
AcDbLine
 10
-158.9337768554688
 20
270.03564453125
 30
0.0
 11
-155.4337768554688
 21
273.53564453125
 31
0.0
  0
LINE
  5
D8
330
22
100
AcDbEntity
  8
0
  6
Continuous
 62
     7
100
AcDbLine
 10
-158.9337768554688
 20
267.2072143554688
 30
0.0
 11
-155.4337768554688
 21
270.7072143554688
 31
0.0
  0
LINE
  5
D9
330
22
100
AcDbEntity
  8
0
  6
Continuous
 62
     7
100
AcDbLine
 10
-158.9337768554688
 20
264.3787841796875
 30
0.0
 11
-155.4337768554688
 21
267.8787841796875
 31
0.0
  0
LINE
  5
DA
330
22
100
AcDbEntity
  8
0
  6
Continuous
 62
     7
100
AcDbLine
 10
-158.9337768554688
 20
261.5503540039063
 30
0.0
 11
-155.4337768554688
 21
265.0503540039063
 31
0.0
  0
LINE
  5
DB
330
22
100
AcDbEntity
  8
0
  6
Continuous
 62
     7
100
AcDbLine
 10
-188.8884735107422
 20
231.5956573486328
 30
0.0
 11
-188.1614837646484
 21
232.3226470947266
 31
0.0
  0
LINE
  5
DC
330
22
100
AcDbEntity
  8
0
  6
Continuous
 62
     7
100
AcDbLine
 10
-158.9337768554688
 20
258.721923828125
 30
0.0
 11
-155.4337768554688
 21
262.221923828125
 31
0.0
  0
LINE
  5
DD
330
22
100
AcDbEntity
  8
0
  6
Continuous
 62
     7
100
AcDbLine
 10
-187.6632690429688
 20
229.992431640625
 30
0.0
 11
-185.2877655029297
 21
232.3679351806641
 31
0.0
  0
LINE
  5
DE
330
22
100
AcDbEntity
  8
0
  6
Continuous
 62
     7
100
AcDbLine
 10
-158.9337768554688
 20
255.8935089111328
 30
0.0
 11
-155.4337768554688
 21
259.3934936523438
 31
0.0
  0
LINE
  5
DF
330
22
100
AcDbEntity
  8
0
  6
Continuous
 62
     7
100
AcDbLine
 10
-184.8348388671875
 20
229.992431640625
 30
0.0
 11
-182.4593353271484
 21
232.3679351806641
 31
0.0
  0
LINE
  5
E0
330
22
100
AcDbEntity
  8
0
  6
Continuous
 62
     7
100
AcDbLine
 10
-158.9337768554688
 20
253.0650787353516
 30
0.0
 11
-155.4337768554688
 21
256.5650634765625
 31
0.0
  0
LINE
  5
E1
330
22
100
AcDbEntity
  8
0
  6
Continuous
 62
     7
100
AcDbLine
 10
-182.0064086914063
 20
229.992431640625
 30
0.0
 11
-179.6309051513672
 21
232.3679351806641
 31
0.0
  0
LINE
  5
E2
330
22
100
AcDbEntity
  8
0
  6
Continuous
 62
     7
100
AcDbLine
 10
-158.7431335449219
 20
250.4272918701172
 30
0.0
 11
-155.4337768554688
 21
253.7366485595703
 31
0.0
  0
LINE
  5
E3
330
22
100
AcDbEntity
  8
0
  6
Continuous
 62
     7
100
AcDbLine
 10
-179.177978515625
 20
229.992431640625
 30
0.0
 11
-176.8024749755859
 21
232.3679351806641
 31
0.0
  0
LINE
  5
E4
330
22
100
AcDbEntity
  8
0
  6
Continuous
 62
     7
100
AcDbLine
 10
-158.9337768554688
 20
247.4082183837891
 30
0.0
 11
-155.4337768554688
 21
250.9082183837891
 31
0.0
  0
LINE
  5
E5
330
22
100
AcDbEntity
  8
0
  6
Continuous
 62
     7
100
AcDbLine
 10
-176.3495483398438
 20
229.992431640625
 30
0.0
 11
-173.9740600585938
 21
232.3679351806641
 31
0.0
  0
LINE
  5
E6
330
22
100
AcDbEntity
  8
0
  6
Continuous
 62
     7
100
AcDbLine
 10
-158.9337768554688
 20
244.5797882080078
 30
0.0
 11
-155.4337768554688
 21
248.0797882080078
 31
0.0
  0
LINE
  5
E7
330
22
100
AcDbEntity
  8
0
  6
Continuous
 62
     7
100
AcDbLine
 10
-173.5211334228516
 20
229.992431640625
 30
0.0
 11
-171.1456298828125
 21
232.3679351806641
 31
0.0
  0
LINE
  5
E8
330
22
100
AcDbEntity
  8
0
  6
Continuous
 62
     7
100
AcDbLine
 10
-158.9337768554688
 20
241.7513732910156
 30
0.0
 11
-155.4337768554688
 21
245.2513732910156
 31
0.0
  0
LINE
  5
E9
330
22
100
AcDbEntity
  8
0
  6
Continuous
 62
     7
100
AcDbLine
 10
-170.6927032470703
 20
229.992431640625
 30
0.0
 11
-168.3171997070313
 21
232.3679351806641
 31
0.0
  0
LINE
  5
EA
330
22
100
AcDbEntity
  8
0
  6
Continuous
 62
     7
100
AcDbLine
 10
-158.9337768554688
 20
238.9229431152344
 30
0.0
 11
-155.4337768554688
 21
242.4229431152344
 31
0.0
  0
LINE
  5
EB
330
22
100
AcDbEntity
  8
0
  6
Continuous
 62
     7
100
AcDbLine
 10
-167.8642730712891
 20
229.992431640625
 30
0.0
 11
-165.48876953125
 21
232.3679351806641
 31
0.0
  0
LINE
  5
EC
330
22
100
AcDbEntity
  8
0
  6
Continuous
 62
     7
100
AcDbLine
 10
-159.2014312744141
 20
235.8268585205078
 30
0.0
 11
-155.4337768554688
 21
239.5945129394531
 31
0.0
  0
LINE
  5
ED
330
22
100
AcDbEntity
  8
0
  6
Continuous
 62
     7
100
AcDbLine
 10
-165.0358428955078
 20
229.992431640625
 30
0.0
 11
-162.3926849365234
 21
232.6355895996094
 31
0.0
  0
LINE
  5
EE
330
22
100
AcDbEntity
  8
0
  6
Continuous
 62
     7
100
AcDbLine
 10
-162.2074127197266
 20
229.992431640625
 30
0.0
 11
-155.4337768554688
 21
236.7660827636719
 31
0.0
  0
LINE
  5
EF
330
22
100
AcDbEntity
  8
0
  6
Continuous
 62
     7
100
AcDbLine
 10
-159.3789978027344
 20
229.992431640625
 30
0.0
 11
-155.3623809814453
 21
234.0090484619141
 31
0.0
  0
LINE
  5
F0
330
22
100
AcDbEntity
  8
0
  6
Continuous
 62
     7
100
AcDbLine
 10
-156.8149719238281
 20
229.72802734375
 30
0.0
 11
-153.1750640869141
 21
233.3679351806641
 31
0.0
  0
LINE
  5
F1
330
22
100
AcDbEntity
  8
0
  6
Continuous
 62
     7
100
AcDbLine
 10
-154.3605041503906
 20
229.3540649414063
 30
0.0
 11
-150.3466339111328
 21
233.3679351806641
 31
0.0
  0
LINE
  5
F2
330
22
100
AcDbEntity
  8
0
  6
Continuous
 62
     7
100
AcDbLine
 10
-151.4408264160156
 20
229.4453125
 30
0.0
 11
-147.5182037353516
 21
233.3679351806641
 31
0.0
  0
LINE
  5
F3
330
22
100
AcDbEntity
  8
0
  6
Continuous
 62
     7
100
AcDbLine
 10
-148.5211639404297
 20
229.5365600585938
 30
0.0
 11
-144.6897888183594
 21
233.3679351806641
 31
0.0
  0
LINE
  5
F4
330
22
100
AcDbEntity
  8
0
  6
Continuous
 62
     7
100
AcDbLine
 10
-145.6014862060547
 20
229.6278076171875
 30
0.0
 11
-141.8613586425781
 21
233.3679351806641
 31
0.0
  0
LINE
  5
F5
330
22
100
AcDbEntity
  8
0
  6
Continuous
 62
     7
100
AcDbLine
 10
-142.6818237304688
 20
229.7190399169922
 30
0.0
 11
-139.0329284667969
 21
233.3679351806641
 31
0.0
  0
LINE
  5
F6
330
22
100
AcDbEntity
  8
0
  6
Continuous
 62
     7
100
AcDbLine
 10
-139.7621459960937
 20
229.8102874755859
 30
0.0
 11
-136.2044982910156
 21
233.3679351806641
 31
0.0
  0
LINE
  5
F7
330
22
100
AcDbEntity
  8
0
  6
Continuous
 62
     7
100
AcDbLine
 10
-136.8424835205078
 20
229.9015350341797
 30
0.0
 11
-134.0071563720703
 21
232.7368621826172
 31
0.0
  0
LINE
  5
F8
330
22
100
AcDbEntity
  8
0
  6
Continuous
 62
     7
100
AcDbLine
 10
-225.2017211914064
 20
262.3679504394531
 30
0.0
 11
-205.4292907714844
 21
228.1210784912109
 31
0.0
  0
LINE
  5
F9
330
22
100
AcDbEntity
  8
0
  6
Continuous
 62
     7
100
AcDbLine
 10
-225.4904022216797
 20
268.8679504394531
 30
0.0
 11
-203.9329071044922
 21
231.5292663574219
 31
0.0
  0
LINE
  5
FA
330
22
100
AcDbEntity
  8
0
  6
Continuous
 62
     7
100
AcDbLine
 10
-170.4337615966797
 20
230.0066223144531
 30
0.0
 11
-198.9207611083984
 21
230.0066223144531
 31
0.0
  0
LINE
  5
FB
330
22
100
AcDbEntity
  8
0
  6
Continuous
 62
     7
100
AcDbLine
 10
-169.4337768554688
 20
225.6210784912109
 30
0.0
 11
-201.0991668701172
 21
225.6210784912109
 31
0.0
  0
LINE
  5
FC
330
22
100
AcDbEntity
  8
0
  6
Continuous
 62
     7
100
AcDbLine
 10
-188.9337768554688
 20
229.992431640625
 30
0.0
 11
-187.4547729492188
 21
228.5134429931641
 31
0.0
  0
LINE
  5
FD
330
22
100
AcDbEntity
  8
0
  6
Continuous
 62
     7
100
AcDbLine
 10
-168.9337768554688
 20
228.5196228027344
 30
0.0
 11
-197.4337768554688
 21
228.5196228027344
 31
0.0
  0
LINE
  5
FE
330
22
100
AcDbEntity
  8
0
  6
Continuous
 62
     7
100
AcDbLine
 10
-188.9337768554688
 20
229.992431640625
 30
0.0
 11
-158.9337768554688
 21
229.992431640625
 31
0.0
  0
LINE
  5
FF
330
22
100
AcDbEntity
  8
0
  6
Continuous
 62
     7
100
AcDbLine
 10
-188.9337768554688
 20
231.3679351806641
 30
0.0
 11
-188.9337768554688
 21
229.992431640625
 31
0.0
  0
LINE
  5
100
330
22
100
AcDbEntity
  8
0
  6
Continuous
 62
     7
100
AcDbLine
 10
-163.9337768554688
 20
232.3679351806641
 30
0.0
 11
-187.9337768554688
 21
232.3679351806641
 31
0.0
  0
LINE
  5
101
330
22
100
AcDbEntity
  8
0
  6
Continuous
 62
     7
100
AcDbLine
 10
-187.4547729492188
 20
228.5134429931641
 30
0.0
 11
-160.4127655029297
 21
228.5134429931641
 31
0.0
  0
LINE
  5
102
330
22
100
AcDbEntity
  8
0
  6
Continuous
 62
     7
100
AcDbLine
 10
-233.9337768554688
 20
268.3679504394531
 30
0.0
 11
-233.9337768554688
 21
264.8679504394531
 31
0.0
  0
LINE
  5
103
330
22
100
AcDbEntity
  8
0
  6
Continuous
 62
     7
100
AcDbLine
 10
-234.9337768554689
 20
277.3679504394531
 30
0.0
 11
-234.9337768554689
 21
272.3679504394531
 31
0.0
  0
LINE
  5
104
330
22
100
AcDbEntity
  8
0
  6
Continuous
 62
     7
100
AcDbLine
 10
-233.9337768554688
 20
264.8679504394531
 30
0.0
 11
-229.5318450927734
 21
264.8679504394531
 31
0.0
  0
LINE
  5
105
330
22
100
AcDbEntity
  8
0
  6
Continuous
 62
     7
100
AcDbLine
 10
-233.9337768554688
 20
271.367950439453
 30
0.0
 11
-229.8205261230469
 21
271.367950439453
 31
0.0
  0
LINE
  5
106
330
22
100
AcDbEntity
  8
0
  6
Continuous
 62
     7
100
AcDbLine
 10
-233.9337768554688
 20
230.4866943359375
 30
0.0
 11
-225.0830841064453
 21
230.4866943359375
 31
0.0
  0
LINE
  5
107
330
22
100
AcDbEntity
  8
0
  6
Continuous
 62
     7
100
AcDbLine
 10
-233.9337768554688
 20
240.4866943359375
 30
0.0
 11
-225.0830841064453
 21
240.4866943359375
 31
0.0
  0
LINE
  5
108
330
22
100
AcDbEntity
  8
0
  6
Continuous
 62
     7
100
AcDbLine
 10
-157.9337768554688
 20
265.6203308105469
 30
0.0
 11
-158.9337768554688
 21
266.6203308105469
 31
0.0
  0
LINE
  5
109
330
22
100
AcDbEntity
  8
0
  6
Continuous
 62
     7
100
AcDbLine
 10
-157.9337768554688
 20
249.6179351806641
 30
0.0
 11
-158.9337768554688
 21
248.6179351806641
 31
0.0
  0
LINE
  5
10A
330
22
100
AcDbEntity
  8
0
  6
Continuous
 62
     7
100
AcDbLine
 10
-157.9337768554688
 20
249.6179351806641
 30
0.0
 11
-158.9337768554688
 21
250.6179351806641
 31
0.0
  0
LINE
  5
10B
330
22
100
AcDbEntity
  8
0
  6
Continuous
 62
     7
100
AcDbLine
 10
-157.9337768554688
 20
265.6203308105469
 30
0.0
 11
-158.9337768554688
 21
264.6203308105469
 31
0.0
  0
LINE
  5
10C
330
22
100
AcDbEntity
  8
0
  6
Continuous
 62
     7
100
AcDbLine
 10
-155.9337768554688
 20
282.3679504394531
 30
0.0
 11
-156.9337768554688
 21
282.3679504394531
 31
0.0
  0
LINE
  5
10D
330
22
100
AcDbEntity
  8
0
  6
Continuous
 62
     7
100
AcDbLine
 10
-135.4612274169922
 20
228.4649810791016
 30
0.0
 11
-153.9337768554688
 21
227.8876800537109
 31
0.0
  0
LINE
  5
10E
330
22
100
AcDbEntity
  8
0
  6
Continuous
 62
     7
100
AcDbLine
 10
-168.9337768554688
 20
226.1210784912109
 30
0.0
 11
-168.9337768554688
 21
228.5196228027344
 31
0.0
  0
LINE
  5
10F
330
22
100
AcDbEntity
  8
0
  6
Continuous
 62
     7
100
AcDbLine
 10
-133.9337768554688
 20
229.992431640625
 30
0.0
 11
-155.36865234375
 21
229.3225708007813
 31
0.0
  0
LINE
  5
110
330
22
100
AcDbEntity
  8
0
  6
Continuous
 62
     7
100
AcDbLine
 10
-153.9337768554688
 20
227.8876800537109
 30
0.0
 11
-155.36865234375
 21
229.3225708007813
 31
0.0
  0
LINE
  5
111
330
22
100
AcDbEntity
  8
0
  6
Continuous
 62
     7
100
AcDbLine
 10
-168.9337768554688
 20
228.5196228027344
 30
0.0
 11
-170.4337615966797
 21
230.0066223144531
 31
0.0
  0
LINE
  5
112
330
22
100
AcDbEntity
  8
0
  6
Continuous
 62
     7
100
AcDbLine
 10
-154.4337768554688
 20
233.3679351806641
 30
0.0
 11
-134.9337768554688
 21
233.3679351806641
 31
0.0
  0
LINE
  5
113
330
22
100
AcDbEntity
  8
0
  6
Continuous
 62
     7
100
AcDbLine
 10
-160.4127655029297
 20
228.5134429931641
 30
0.0
 11
-158.9337768554688
 21
229.992431640625
 31
0.0
  0
LINE
  5
114
330
22
100
AcDbEntity
  8
0
  6
Continuous
 62
     7
100
AcDbLine
 10
-133.9337768554688
 20
229.992431640625
 30
0.0
 11
-135.4612274169922
 21
228.4649810791016
 31
0.0
  0
LINE
  5
115
330
22
100
AcDbEntity
  8
0
  6
Continuous
 62
     7
100
AcDbLine
 10
-155.36865234375
 20
229.3225708007813
 30
0.0
 11
-158.9337768554688
 21
229.3225708007813
 31
0.0
  0
LINE
  5
116
330
22
100
AcDbEntity
  8
0
  6
Continuous
 62
     7
100
AcDbLine
 10
-197.4337768554688
 20
228.5196228027344
 30
0.0
 11
-198.9434051513672
 21
230.0292663574219
 31
0.0
  0
LINE
  5
117
330
22
100
AcDbEntity
  8
0
  6
Continuous
 62
     7
100
AcDbLine
 10
-198.9434051513672
 20
230.0292663574219
 30
0.0
 11
-201.3348236083984
 21
230.0292663574219
 31
0.0
  0
LINE
  5
118
330
22
100
AcDbEntity
  8
0
  6
Continuous
 62
     7
100
AcDbLine
 10
-155.4337768554688
 20
144.8679351806641
 30
0.0
 11
-155.4337768554688
 21
213.3679351806641
 31
0.0
  0
LINE
  5
119
330
22
100
AcDbEntity
  8
0
  6
Continuous
 62
     7
100
AcDbLine
 10
-155.9337768554688
 20
144.3679351806641
 30
0.0
 11
-156.9337768554688
 21
144.3679351806641
 31
0.0
  0
LINE
  5
11A
330
22
100
AcDbEntity
  8
0
  6
Continuous
 62
     7
100
AcDbLine
 10
-154.4337768554688
 20
193.3679351806641
 30
0.0
 11
-134.9337768554688
 21
193.3679351806641
 31
0.0
  0
LINE
  5
11B
330
22
100
AcDbEntity
  8
0
  6
Continuous
 62
     7
100
AcDbLine
 10
-155.4337768554688
 20
181.3679351806641
 30
0.0
 11
-153.9320831298828
 21
181.3679351806641
 31
0.0
  0
LINE
  5
11C
330
22
100
AcDbEntity
  8
0
  6
Continuous
 62
     7
100
AcDbLine
 10
-197.4337615966797
 20
196.7066192626953
 30
0.0
 11
-202.0171966552734
 21
196.7066192626953
 31
0.0
  0
LINE
  5
11D
330
22
100
AcDbEntity
  8
0
  6
Continuous
 62
     7
100
AcDbLine
 10
-197.4337768554688
 20
198.2196197509766
 30
0.0
 11
-198.94677734375
 21
196.7066192626953
 31
0.0
  0
LINE
  5
11E
330
22
100
AcDbEntity
  8
0
  6
Continuous
 62
     7
100
AcDbLine
 10
-188.9337768554688
 20
198.2196197509766
 30
0.0
 11
-197.4337768554688
 21
198.2196197509766
 31
0.0
  0
LINE
  5
11F
330
22
100
AcDbEntity
  8
0
  6
Continuous
 62
     7
100
AcDbLine
 10
-188.9337768554688
 20
196.7066192626953
 30
0.0
 11
-197.4337615966797
 21
196.7066192626953
 31
0.0
  0
LINE
  5
120
330
22
100
AcDbEntity
  8
0
  6
Continuous
 62
     7
100
AcDbLine
 10
-163.9337768554688
 20
194.3679351806641
 30
0.0
 11
-187.9337768554688
 21
194.3679351806641
 31
0.0
  0
LINE
  5
121
330
22
100
AcDbEntity
  8
0
  6
Continuous
 62
     7
100
AcDbLine
 10
-234.9337768554689
 20
155.3679351806641
 30
0.0
 11
-229.8205261230469
 21
155.3679351806641
 31
0.0
  0
LINE
  5
122
330
22
100
AcDbEntity
  8
0
  6
Continuous
 62
     7
100
AcDbLine
 10
-225.4904022216797
 20
157.8679351806641
 30
0.0
 11
-204.6357574462891
 21
195.1705627441406
 31
0.0
  0
LINE
  5
123
330
22
100
AcDbEntity
  8
0
  6
Continuous
 62
     7
100
AcDbLine
 10
-395.1636047363281
 20
238.0679321289064
 30
0.0
 11
-395.1636047363281
 21
262.554443359375
 31
0.0
  0
LINE
  5
124
330
22
100
AcDbEntity
  8
0
  6
Continuous
 62
     7
100
AcDbLine
 10
-380.6636047363281
 20
261.1336364746094
 30
0.0
 11
-380.6636047363281
 21
218.1179351806641
 31
0.0
  0
LINE
  5
125
330
22
100
AcDbEntity
  8
0
  6
Continuous
 62
     7
100
AcDbLine
 10
-399.6636047363281
 20
262.1179504394531
 30
0.0
 11
-399.6636047363281
 21
218.1179351806641
 31
0.0
  0
LINE
  5
126
330
22
100
AcDbEntity
  8
0
  6
Continuous
 62
     7
100
AcDbLine
 10
-371.1636047363281
 20
257.677215576172
 30
0.0
 11
-371.1636047363281
 21
233.9926605224609
 31
0.0
  0
LINE
  5
127
330
22
100
AcDbEntity
  8
0
  6
Continuous
 62
     7
100
AcDbLine
 10
-435.0377197265625
 20
241.0383148193359
 30
0.0
 11
-433.9519958496094
 21
238.4543304443359
 31
0.0
  0
LINE
  5
128
330
22
100
AcDbEntity
  8
0
  6
Continuous
 62
     7
100
AcDbLine
 10
-435.4092407226563
 20
240.9387664794922
 30
0.0
 11
-435.0377197265625
 21
241.0383148193359
 31
0.0
  0
LINE
  5
129
330
22
100
AcDbEntity
  8
0
  6
Continuous
 62
     7
100
AcDbLine
 10
-435.4092407226563
 20
240.9387664794922
 30
0.0
 11
-435.78076171875
 21
240.8392333984375
 31
0.0
  0
LINE
  5
12A
330
22
100
AcDbEntity
  8
0
  6
Continuous
 62
     7
100
AcDbLine
 10
-350.2946166992188
 20
241.0180358886719
 30
0.0
 11
-351.3752136230469
 21
238.4543304443359
 31
0.0
  0
LINE
  5
12B
330
22
100
AcDbEntity
  8
0
  6
Continuous
 62
     7
100
AcDbLine
 10
-349.5521545410156
 20
240.819091796875
 30
0.0
 11
-349.898193359375
 21
238.0585632324219
 31
0.0
  0
LINE
  5
12C
330
22
100
AcDbEntity
  8
0
  6
Continuous
 62
     7
100
AcDbLine
 10
-349.5521545410156
 20
240.819091796875
 30
0.0
 11
-349.9233703613281
 21
240.9185638427734
 31
0.0
  0
LINE
  5
12D
330
22
100
AcDbEntity
  8
0
  6
Continuous
 62
     7
100
AcDbLine
 10
-366.6636047363281
 20
255.1957092285156
 30
0.0
 11
-366.6636047363281
 21
217.9969329833984
 31
0.0
  0
LINE
  5
12E
330
22
100
AcDbEntity
  8
0
  6
Continuous
 62
     7
100
AcDbLine
 10
-435.78076171875
 20
240.8392333984375
 30
0.0
 11
-435.4290161132813
 21
238.0585632324219
 31
0.0
  0
LINE
  5
12F
330
22
100
AcDbEntity
  8
0
  6
Continuous
 62
     7
100
AcDbLine
 10
-435.78076171875
 20
240.8392333984375
 30
0.0
 11
-435.4290161132813
 21
238.0585632324219
 31
0.0
  0
LINE
  5
130
330
22
100
AcDbEntity
  8
0
  6
Continuous
 62
     7
100
AcDbLine
 10
-435.0377197265625
 20
241.0383148193359
 30
0.0
 11
-433.9519958496094
 21
238.4543304443359
 31
0.0
  0
LINE
  5
131
330
22
100
AcDbEntity
  8
0
  6
Continuous
 62
     7
100
AcDbLine
 10
-435.4092407226563
 20
240.9387664794922
 30
0.0
 11
-435.78076171875
 21
240.8392333984375
 31
0.0
  0
LINE
  5
132
330
22
100
AcDbEntity
  8
0
  6
Continuous
 62
     7
100
AcDbLine
 10
-435.4092407226563
 20
240.9387664794922
 30
0.0
 11
-435.0377197265625
 21
241.0383148193359
 31
0.0
  0
LINE
  5
133
330
22
100
AcDbEntity
  8
0
  6
Continuous
 62
     7
100
AcDbLine
 10
-143.4337768554688
 20
193.3679351806641
 30
0.0
 11
-143.4337768554688
 21
191.8810577392578
 31
0.0
  0
LINE
  5
134
330
22
100
AcDbEntity
  8
0
  6
Continuous
 62
     7
100
AcDbLine
 10
-158.9337768554688
 20
146.3679351806641
 30
0.0
 11
-158.9337768554688
 21
213.3679351806641
 31
0.0
  0
LINE
  5
135
330
22
100
AcDbEntity
  8
0
  6
Continuous
 62
     7
100
AcDbLine
 10
-431.1914672851563
 20
238.8003692626953
 30
0.0
 11
-431.0920104980469
 21
238.4291381835939
 31
0.0
  0
LINE
  5
136
330
22
100
AcDbEntity
  8
0
  6
Continuous
 62
     7
100
AcDbLine
 10
-430.9925231933593
 20
238.0579071044922
 30
0.0
 11
-431.0920104980469
 21
238.4291381835939
 31
0.0
  0
LINE
  5
137
330
22
100
AcDbEntity
  8
0
  6
Continuous
 62
     7
100
AcDbLine
 10
-395.1636047363281
 20
228.5679321289063
 30
0.0
 11
-395.1636047363281
 21
222.0679321289063
 31
0.0
  0
LINE
  5
138
330
22
100
AcDbEntity
  8
0
  6
Continuous
 62
     7
100
AcDbLine
 10
-350.2946166992188
 20
241.0180358886719
 30
0.0
 11
-351.3752136230469
 21
238.4543304443359
 31
0.0
  0
LINE
  5
139
330
22
100
AcDbEntity
  8
0
  6
Continuous
 62
     7
100
AcDbLine
 10
-350.2946166992188
 20
241.0180358886719
 30
0.0
 11
-349.9233703613281
 21
240.9185638427734
 31
0.0
  0
LINE
  5
13A
330
22
100
AcDbEntity
  8
0
  6
Continuous
 62
     7
100
AcDbLine
 10
-349.5521545410156
 20
240.819091796875
 30
0.0
 11
-349.898193359375
 21
238.0585632324219
 31
0.0
  0
LINE
  5
13B
330
22
100
AcDbEntity
  8
0
  6
Continuous
 62
     7
100
AcDbLine
 10
-350.2946166992188
 20
241.0180358886719
 30
0.0
 11
-349.9233703613281
 21
240.9185638427734
 31
0.0
  0
LINE
  5
13C
330
22
100
AcDbEntity
  8
0
  6
Continuous
 62
     7
100
AcDbLine
 10
-349.5521545410156
 20
240.819091796875
 30
0.0
 11
-349.9233703613281
 21
240.9185638427734
 31
0.0
  0
LINE
  5
13D
330
22
100
AcDbEntity
  8
0
  6
Continuous
 62
     7
100
AcDbLine
 10
-361.6636047363281
 20
251.6375427246094
 30
0.0
 11
-361.6636047363281
 21
217.9969329833984
 31
0.0
  0
LINE
  5
13E
330
22
100
AcDbEntity
  8
0
  6
Continuous
 62
     7
100
AcDbLine
 10
-409.1508789062499
 20
259.7762756347655
 30
0.0
 11
-409.1763610839843
 21
233.9926605224609
 31
0.0
  0
LINE
  5
13F
330
22
100
AcDbEntity
  8
0
  6
Continuous
 62
     7
100
AcDbLine
 10
-390.1636047363281
 20
238.0679321289064
 30
0.0
 11
-390.1636047363281
 21
262.554443359375
 31
0.0
  0
LINE
  5
140
330
22
100
AcDbEntity
  8
0
  6
Continuous
 62
     7
100
AcDbLine
 10
-376.1636047363281
 20
233.9926605224609
 30
0.0
 11
-376.1763610839844
 21
259.7762756347655
 31
0.0
  0
LINE
  5
141
330
22
100
AcDbEntity
  8
0
  6
Continuous
 62
     7
100
AcDbLine
 10
-385.6636047363281
 20
262.1179504394531
 30
0.0
 11
-385.6636047363281
 21
218.1179351806641
 31
0.0
  0
LINE
  5
142
330
22
100
AcDbEntity
  8
0
  6
Continuous
 62
     7
100
AcDbLine
 10
-404.6636047363281
 20
261.1336364746094
 30
0.0
 11
-404.6636047363281
 21
218.1179351806641
 31
0.0
  0
LINE
  5
143
330
22
100
AcDbEntity
  8
0
  6
Continuous
 62
     7
100
AcDbLine
 10
-418.6636047363281
 20
255.1957092285156
 30
0.0
 11
-418.6636047363281
 21
218.1179351806641
 31
0.0
  0
LINE
  5
144
330
22
100
AcDbEntity
  8
0
  6
Continuous
 62
     7
100
AcDbLine
 10
-423.6636047363281
 20
251.6375427246094
 30
0.0
 11
-423.6636047363281
 21
218.1179351806641
 31
0.0
  0
LINE
  5
145
330
22
100
AcDbEntity
  8
0
  6
Continuous
 62
     7
100
AcDbLine
 10
-414.1636047363281
 20
257.677215576172
 30
0.0
 11
-414.1636047363281
 21
233.9926605224609
 31
0.0
  0
LINE
  5
146
330
22
100
AcDbEntity
  8
0
  6
Continuous
 62
     7
100
AcDbLine
 10
-431.1914672851563
 20
238.8003692626953
 30
0.0
 11
-433.9519958496094
 21
238.4543304443359
 31
0.0
  0
LINE
  5
147
330
22
100
AcDbEntity
  8
0
  6
Continuous
 62
     7
100
AcDbLine
 10
-433.5760192871093
 20
234.0971069335938
 30
0.0
 11
-433.9475402832031
 21
233.99755859375
 31
0.0
  0
LINE
  5
148
330
22
100
AcDbEntity
  8
0
  6
Continuous
 62
     7
100
AcDbLine
 10
-433.5760192871093
 20
234.0971069335938
 30
0.0
 11
-433.2044982910156
 21
234.1966400146484
 31
0.0
  0
LINE
  5
149
330
22
100
AcDbEntity
  8
0
  6
Continuous
 62
     7
100
AcDbLine
 10
-437.7937927246093
 20
236.2355041503906
 30
0.0
 11
-437.8932800292968
 21
236.6067352294922
 31
0.0
  0
LINE
  5
14A
330
22
100
AcDbEntity
  8
0
  6
Continuous
 62
     7
100
AcDbLine
 10
-437.7937927246093
 20
236.2355041503906
 30
0.0
 11
-437.8932800292968
 21
236.6067352294922
 31
0.0
  0
LINE
  5
14B
330
22
100
AcDbEntity
  8
0
  6
Continuous
 62
     7
100
AcDbLine
 10
-437.9927368164063
 20
236.9779663085938
 30
0.0
 11
-437.8932800292968
 21
236.6067352294922
 31
0.0
  0
LINE
  5
14C
330
22
100
AcDbEntity
  8
0
  6
Continuous
 62
     7
100
AcDbLine
 10
-437.7937927246093
 20
236.2355041503906
 30
0.0
 11
-435.0332641601562
 21
236.58154296875
 31
0.0
  0
LINE
  5
14D
330
22
100
AcDbEntity
  8
0
  6
Continuous
 62
     7
100
AcDbLine
 10
-430.9925231933593
 20
238.0579071044922
 30
0.0
 11
-433.5562438964843
 21
236.9773101806641
 31
0.0
  0
LINE
  5
14E
330
22
100
AcDbEntity
  8
0
  6
Continuous
 62
     7
100
AcDbLine
 10
-433.2044982910156
 20
234.1966400146484
 30
0.0
 11
-433.5562438964843
 21
236.9773101806641
 31
0.0
  0
LINE
  5
14F
330
22
100
AcDbEntity
  8
0
  6
Continuous
 62
     7
100
AcDbLine
 10
-433.5760192871093
 20
234.0971069335938
 30
0.0
 11
-433.2044982910156
 21
234.1966400146484
 31
0.0
  0
LINE
  5
150
330
22
100
AcDbEntity
  8
0
  6
Continuous
 62
     7
100
AcDbLine
 10
-433.9475402832031
 20
233.99755859375
 30
0.0
 11
-435.0332641601562
 21
236.58154296875
 31
0.0
  0
LINE
  5
151
330
22
100
AcDbEntity
  8
0
  6
Continuous
 62
     7
100
AcDbLine
 10
-437.9927368164063
 20
236.9779663085938
 30
0.0
 11
-435.4290161132813
 21
238.0585632324219
 31
0.0
  0
LINE
  5
152
330
22
100
AcDbEntity
  8
0
  6
Continuous
 62
     7
100
AcDbLine
 10
-433.9475402832031
 20
233.99755859375
 30
0.0
 11
-435.0332641601562
 21
236.58154296875
 31
0.0
  0
LINE
  5
153
330
22
100
AcDbEntity
  8
0
  6
Continuous
 62
     7
100
AcDbLine
 10
-437.9927368164063
 20
236.9779663085938
 30
0.0
 11
-435.4290161132813
 21
238.0585632324219
 31
0.0
  0
LINE
  5
154
330
22
100
AcDbEntity
  8
0
  6
Continuous
 62
     7
100
AcDbLine
 10
-433.5760192871093
 20
234.0971069335938
 30
0.0
 11
-433.9475402832031
 21
233.99755859375
 31
0.0
  0
LINE
  5
155
330
22
100
AcDbEntity
  8
0
  6
Continuous
 62
     7
100
AcDbLine
 10
-430.9925231933593
 20
238.0579071044922
 30
0.0
 11
-431.0920104980469
 21
238.4291381835939
 31
0.0
  0
LINE
  5
156
330
22
100
AcDbEntity
  8
0
  6
Continuous
 62
     7
100
AcDbLine
 10
-433.2044982910156
 20
234.1966400146484
 30
0.0
 11
-433.5562438964843
 21
236.9773101806641
 31
0.0
  0
LINE
  5
157
330
22
100
AcDbEntity
  8
0
  6
Continuous
 62
     7
100
AcDbLine
 10
-437.9927368164063
 20
236.9779663085938
 30
0.0
 11
-437.8932800292968
 21
236.6067352294922
 31
0.0
  0
LINE
  5
158
330
22
100
AcDbEntity
  8
0
  6
Continuous
 62
     7
100
AcDbLine
 10
-430.9925231933593
 20
238.0579071044922
 30
0.0
 11
-433.5562438964843
 21
236.9773101806641
 31
0.0
  0
LINE
  5
159
330
22
100
AcDbEntity
  8
0
  6
Continuous
 62
     7
100
AcDbLine
 10
-351.3745422363281
 20
234.0178375244141
 30
0.0
 11
-350.2939453125
 21
236.58154296875
 31
0.0
  0
LINE
  5
15A
330
22
100
AcDbEntity
  8
0
  6
Continuous
 62
     7
100
AcDbLine
 10
-351.3745422363281
 20
234.0178375244141
 30
0.0
 11
-350.2939453125
 21
236.58154296875
 31
0.0
  0
LINE
  5
15B
330
22
100
AcDbEntity
  8
0
  6
Continuous
 62
     7
100
AcDbLine
 10
-352.1170043945313
 20
234.2167816162109
 30
0.0
 11
-351.7709655761719
 21
236.9773101806641
 31
0.0
  0
LINE
  5
15C
330
22
100
AcDbEntity
  8
0
  6
Continuous
 62
     7
100
AcDbLine
 10
-347.4137573242188
 20
236.6013336181641
 30
0.0
 11
-347.314208984375
 21
236.9728393554688
 31
0.0
  0
LINE
  5
15D
330
22
100
AcDbEntity
  8
0
  6
Continuous
 62
     7
100
AcDbLine
 10
-347.4137573242188
 20
236.6013336181641
 30
0.0
 11
-347.5133056640625
 21
236.2298126220703
 31
0.0
  0
LINE
  5
15E
330
22
100
AcDbEntity
  8
0
  6
Continuous
 62
     7
100
AcDbLine
 10
-347.4137573242188
 20
236.6013336181641
 30
0.0
 11
-347.5133056640625
 21
236.2298126220703
 31
0.0
  0
LINE
  5
15F
330
22
100
AcDbEntity
  8
0
  6
Continuous
 62
     7
100
AcDbLine
 10
-347.4137573242188
 20
236.6013336181641
 30
0.0
 11
-347.314208984375
 21
236.9728393554688
 31
0.0
  0
LINE
  5
160
330
22
100
AcDbEntity
  8
0
  6
Continuous
 62
     7
100
AcDbLine
 10
-354.3549499511719
 20
238.0630340576172
 30
0.0
 11
-351.7709655761719
 21
236.9773101806641
 31
0.0
  0
LINE
  5
161
330
22
100
AcDbEntity
  8
0
  6
Continuous
 62
     7
100
AcDbLine
 10
-352.1170043945313
 20
234.2167816162109
 30
0.0
 11
-351.7709655761719
 21
236.9773101806641
 31
0.0
  0
LINE
  5
162
330
22
100
AcDbEntity
  8
0
  6
Continuous
 62
     7
100
AcDbLine
 10
-354.2554016113281
 20
238.4345397949219
 30
0.0
 11
-354.1558837890625
 21
238.8060607910156
 31
0.0
  0
LINE
  5
163
330
22
100
AcDbEntity
  8
0
  6
Continuous
 62
     7
100
AcDbLine
 10
-352.1170043945313
 20
234.2167816162109
 30
0.0
 11
-351.7457885742188
 21
234.1173095703125
 31
0.0
  0
LINE
  5
164
330
22
100
AcDbEntity
  8
0
  6
Continuous
 62
     7
100
AcDbLine
 10
-351.3745422363281
 20
234.0178375244141
 30
0.0
 11
-351.7457885742188
 21
234.1173095703125
 31
0.0
  0
LINE
  5
165
330
22
100
AcDbEntity
  8
0
  6
Continuous
 62
     7
100
AcDbLine
 10
-354.2554016113281
 20
238.4345397949219
 30
0.0
 11
-354.3549499511719
 21
238.0630340576172
 31
0.0
  0
LINE
  5
166
330
22
100
AcDbEntity
  8
0
  6
Continuous
 62
     7
100
AcDbLine
 10
-354.3549499511719
 20
238.0630340576172
 30
0.0
 11
-351.7709655761719
 21
236.9773101806641
 31
0.0
  0
LINE
  5
167
330
22
100
AcDbEntity
  8
0
  6
Continuous
 62
     7
100
AcDbLine
 10
-347.5133056640625
 20
236.2298126220703
 30
0.0
 11
-350.2939453125
 21
236.58154296875
 31
0.0
  0
LINE
  5
168
330
22
100
AcDbEntity
  8
0
  6
Continuous
 62
     7
100
AcDbLine
 10
-390.1636047363281
 20
228.5679321289063
 30
0.0
 11
-390.1636047363281
 21
222.0679321289063
 31
0.0
  0
LINE
  5
169
330
22
100
AcDbEntity
  8
0
  6
Continuous
 62
     7
100
AcDbLine
 10
-431.1914672851563
 20
238.8003692626953
 30
0.0
 11
-433.9519958496094
 21
238.4543304443359
 31
0.0
  0
LINE
  5
16A
330
22
100
AcDbEntity
  8
0
  6
Continuous
 62
     7
100
AcDbLine
 10
-431.1914672851563
 20
238.8003692626953
 30
0.0
 11
-431.0920104980469
 21
238.4291381835939
 31
0.0
  0
LINE
  5
16B
330
22
100
AcDbEntity
  8
0
  6
Continuous
 62
     7
100
AcDbLine
 10
-437.7937927246093
 20
236.2355041503906
 30
0.0
 11
-435.0332641601562
 21
236.58154296875
 31
0.0
  0
LINE
  5
16C
330
22
100
AcDbEntity
  8
0
  6
Continuous
 62
     7
100
AcDbLine
 10
-385.6636047363281
 20
164.6179351806641
 30
0.0
 11
-385.6636047363281
 21
208.6179351806641
 31
0.0
  0
LINE
  5
16D
330
22
100
AcDbEntity
  8
0
  6
Continuous
 62
     7
100
AcDbLine
 10
-354.2554016113281
 20
238.4345397949219
 30
0.0
 11
-354.3549499511719
 21
238.0630340576172
 31
0.0
  0
LINE
  5
16E
330
22
100
AcDbEntity
  8
0
  6
Continuous
 62
     7
100
AcDbLine
 10
-347.314208984375
 20
236.9728393554688
 30
0.0
 11
-349.898193359375
 21
238.0585632324219
 31
0.0
  0
LINE
  5
16F
330
22
100
AcDbEntity
  8
0
  6
Continuous
 62
     7
100
AcDbLine
 10
-347.314208984375
 20
236.9728393554688
 30
0.0
 11
-349.898193359375
 21
238.0585632324219
 31
0.0
  0
LINE
  5
170
330
22
100
AcDbEntity
  8
0
  6
Continuous
 62
     7
100
AcDbLine
 10
-347.5133056640625
 20
236.2298126220703
 30
0.0
 11
-350.2939453125
 21
236.58154296875
 31
0.0
  0
LINE
  5
171
330
22
100
AcDbEntity
  8
0
  6
Continuous
 62
     7
100
AcDbLine
 10
-351.3745422363281
 20
234.0178375244141
 30
0.0
 11
-351.7457885742188
 21
234.1173095703125
 31
0.0
  0
LINE
  5
172
330
22
100
AcDbEntity
  8
0
  6
Continuous
 62
     7
100
AcDbLine
 10
-352.1170043945313
 20
234.2167816162109
 30
0.0
 11
-351.7457885742188
 21
234.1173095703125
 31
0.0
  0
LINE
  5
173
330
22
100
AcDbEntity
  8
0
  6
Continuous
 62
     7
100
AcDbLine
 10
-354.1558837890625
 20
238.8060607910156
 30
0.0
 11
-351.3752136230469
 21
238.4543304443359
 31
0.0
  0
LINE
  5
174
330
22
100
AcDbEntity
  8
0
  6
Continuous
 62
     7
100
AcDbLine
 10
-354.2554016113281
 20
238.4345397949219
 30
0.0
 11
-354.1558837890625
 21
238.8060607910156
 31
0.0
  0
LINE
  5
175
330
22
100
AcDbEntity
  8
0
  6
Continuous
 62
     7
100
AcDbLine
 10
-354.1558837890625
 20
238.8060607910156
 30
0.0
 11
-351.3752136230469
 21
238.4543304443359
 31
0.0
  0
LINE
  5
176
330
22
100
AcDbEntity
  8
0
  6
Continuous
 62
     7
100
AcDbLine
 10
-414.1636047363281
 20
169.0586547851563
 30
0.0
 11
-414.1636047363281
 21
192.7432250976563
 31
0.0
  0
LINE
  5
177
330
22
100
AcDbEntity
  8
0
  6
Continuous
 62
     7
100
AcDbLine
 10
-433.1696166992188
 20
198.6083984375
 30
0.0
 11
-433.1636047363281
 21
185.3445129394531
 31
0.0
  0
LINE
  5
178
330
22
100
AcDbEntity
  8
0
  6
Continuous
 62
     7
100
AcDbLine
 10
-395.1678466796875
 20
162.5637054443359
 30
0.0
 11
-395.4397888183594
 21
162.8356781005859
 31
0.0
  0
LINE
  5
179
330
22
100
AcDbEntity
  8
0
  6
Continuous
 62
     7
100
AcDbLine
 10
-395.1678466796875
 20
162.5637054443359
 30
0.0
 11
-394.8958740234375
 21
162.291748046875
 31
0.0
  0
LINE
  5
17A
330
22
100
AcDbEntity
  8
0
  6
Continuous
 62
     7
100
AcDbLine
 10
-395.1678466796875
 20
162.5637054443359
 30
0.0
 11
-394.8958740234375
 21
162.291748046875
 31
0.0
  0
LINE
  5
17B
330
22
100
AcDbEntity
  8
0
  6
Continuous
 62
     7
100
AcDbLine
 10
-395.1678466796875
 20
162.5637054443359
 30
0.0
 11
-395.4397888183594
 21
162.8356781005859
 31
0.0
  0
LINE
  5
17C
330
22
100
AcDbEntity
  8
0
  6
Continuous
 62
     7
100
AcDbLine
 10
-395.4248046875
 20
167.2856140136719
 30
0.0
 11
-393.7448425292969
 21
165.0679321289063
 31
0.0
  0
LINE
  5
17D
330
22
100
AcDbEntity
  8
0
  6
Continuous
 62
     7
100
AcDbLine
 10
-395.4248046875
 20
167.2856140136719
 30
0.0
 11
-395.1530456542969
 21
167.557373046875
 31
0.0
  0
LINE
  5
17E
330
22
100
AcDbEntity
  8
0
  6
Continuous
 62
     7
100
AcDbLine
 10
-395.4248046875
 20
167.2856140136719
 30
0.0
 11
-395.1530456542969
 21
167.557373046875
 31
0.0
  0
LINE
  5
17F
330
22
100
AcDbEntity
  8
0
  6
Continuous
 62
     7
100
AcDbLine
 10
-395.4397888183594
 20
162.8356781005859
 30
0.0
 11
-393.7448425292969
 21
165.0679321289063
 31
0.0
  0
LINE
  5
180
330
22
100
AcDbEntity
  8
0
  6
Continuous
 62
     7
100
AcDbLine
 10
-395.4248046875
 20
167.2856140136719
 30
0.0
 11
-393.7448425292969
 21
165.0679321289063
 31
0.0
  0
LINE
  5
181
330
22
100
AcDbEntity
  8
0
  6
Continuous
 62
     7
100
AcDbLine
 10
-399.6636047363281
 20
164.6179351806641
 30
0.0
 11
-399.6636047363281
 21
208.6179351806641
 31
0.0
  0
LINE
  5
182
330
22
100
AcDbEntity
  8
0
  6
Continuous
 62
     7
100
AcDbLine
 10
-395.4397888183594
 20
162.8356781005859
 30
0.0
 11
-393.7448425292969
 21
165.0679321289063
 31
0.0
  0
LINE
  5
183
330
22
100
AcDbEntity
  8
0
  6
Continuous
 62
     7
100
AcDbLine
 10
-395.1636047363281
 20
188.6679382324219
 30
0.0
 11
-395.1636047363281
 21
172.9811706542969
 31
0.0
  0
LINE
  5
184
330
22
100
AcDbEntity
  8
0
  6
Continuous
 62
     7
100
AcDbLine
 10
-390.4459228515625
 20
162.3067474365234
 30
0.0
 11
-392.6636047363281
 21
163.9866943359375
 31
0.0
  0
LINE
  5
185
330
22
100
AcDbEntity
  8
0
  6
Continuous
 62
     7
100
AcDbLine
 10
-390.1593933105469
 20
167.5721588134766
 30
0.0
 11
-389.8874206542969
 21
167.3002014160156
 31
0.0
  0
LINE
  5
186
330
22
100
AcDbEntity
  8
0
  6
Continuous
 62
     7
100
AcDbLine
 10
-389.9024047851563
 20
162.8502655029297
 30
0.0
 11
-390.1741638183594
 21
162.5785064697266
 31
0.0
  0
LINE
  5
187
330
22
100
AcDbEntity
  8
0
  6
Continuous
 62
     7
100
AcDbLine
 10
-390.4459228515625
 20
162.3067474365234
 30
0.0
 11
-390.1741638183594
 21
162.5785064697266
 31
0.0
  0
LINE
  5
188
330
22
100
AcDbEntity
  8
0
  6
Continuous
 62
     7
100
AcDbLine
 10
-389.9024047851563
 20
162.8502655029297
 30
0.0
 11
-391.5823669433594
 21
165.0679321289063
 31
0.0
  0
LINE
  5
189
330
22
100
AcDbEntity
  8
0
  6
Continuous
 62
     7
100
AcDbLine
 10
-390.4459228515625
 20
162.3067474365234
 30
0.0
 11
-392.6636047363281
 21
163.9866943359375
 31
0.0
  0
LINE
  5
18A
330
22
100
AcDbEntity
  8
0
  6
Continuous
 62
     7
100
AcDbLine
 10
-390.1593933105469
 20
167.5721588134766
 30
0.0
 11
-390.4313354492188
 21
167.8441314697266
 31
0.0
  0
LINE
  5
18B
330
22
100
AcDbEntity
  8
0
  6
Continuous
 62
     7
100
AcDbLine
 10
-389.9024047851563
 20
162.8502655029297
 30
0.0
 11
-390.1741638183594
 21
162.5785064697266
 31
0.0
  0
LINE
  5
18C
330
22
100
AcDbEntity
  8
0
  6
Continuous
 62
     7
100
AcDbLine
 10
-394.8958740234375
 20
162.291748046875
 30
0.0
 11
-392.6636047363281
 21
163.9866943359375
 31
0.0
  0
LINE
  5
18D
330
22
100
AcDbEntity
  8
0
  6
Continuous
 62
     7
100
AcDbLine
 10
-394.8812866210938
 20
167.8291320800781
 30
0.0
 11
-392.6636047363281
 21
166.1491851806641
 31
0.0
  0
LINE
  5
18E
330
22
100
AcDbEntity
  8
0
  6
Continuous
 62
     7
100
AcDbLine
 10
-394.8812866210938
 20
167.8291320800781
 30
0.0
 11
-395.1530456542969
 21
167.557373046875
 31
0.0
  0
LINE
  5
18F
330
22
100
AcDbEntity
  8
0
  6
Continuous
 62
     7
100
AcDbLine
 10
-394.8812866210938
 20
167.8291320800781
 30
0.0
 11
-392.6636047363281
 21
166.1491851806641
 31
0.0
  0
LINE
  5
190
330
22
100
AcDbEntity
  8
0
  6
Continuous
 62
     7
100
AcDbLine
 10
-394.8958740234375
 20
162.291748046875
 30
0.0
 11
-392.6636047363281
 21
163.9866943359375
 31
0.0
  0
LINE
  5
191
330
22
100
AcDbEntity
  8
0
  6
Continuous
 62
     7
100
AcDbLine
 10
-394.8812866210938
 20
167.8291320800781
 30
0.0
 11
-395.1530456542969
 21
167.557373046875
 31
0.0
  0
LINE
  5
192
330
22
100
AcDbEntity
  8
0
  6
Continuous
 62
     7
100
AcDbLine
 10
-390.4313354492188
 20
167.8441314697266
 30
0.0
 11
-392.6636047363281
 21
166.1491851806641
 31
0.0
  0
LINE
  5
193
330
22
100
AcDbEntity
  8
0
  6
Continuous
 62
     7
100
AcDbLine
 10
-390.1636047363281
 20
188.6679382324219
 30
0.0
 11
-390.1636047363281
 21
172.9811706542969
 31
0.0
  0
LINE
  5
194
330
22
100
AcDbEntity
  8
0
  6
Continuous
 62
     7
100
AcDbLine
 10
-389.8874206542969
 20
167.3002014160156
 30
0.0
 11
-391.5823669433594
 21
165.0679321289063
 31
0.0
  0
LINE
  5
195
330
22
100
AcDbEntity
  8
0
  6
Continuous
 62
     7
100
AcDbLine
 10
-404.6636047363281
 20
165.6022338867188
 30
0.0
 11
-404.6636047363281
 21
208.6179351806641
 31
0.0
  0
LINE
  5
196
330
22
100
AcDbEntity
  8
0
  6
Continuous
 62
     7
100
AcDbLine
 10
-409.1508789062499
 20
166.9596099853516
 30
0.0
 11
-409.1763610839843
 21
192.7432250976563
 31
0.0
  0
LINE
  5
197
330
22
100
AcDbEntity
  8
0
  6
Continuous
 62
     7
100
AcDbLine
 10
-428.1636047363281
 20
198.6083984375
 30
0.0
 11
-428.1636047363281
 21
179.2312622070313
 31
0.0
  0
LINE
  5
198
330
22
100
AcDbEntity
  8
0
  6
Continuous
 62
     7
100
AcDbLine
 10
-418.6636047363281
 20
171.5401611328125
 30
0.0
 11
-418.6636047363281
 21
208.6179351806641
 31
0.0
  0
LINE
  5
199
330
22
100
AcDbEntity
  8
0
  6
Continuous
 62
     7
100
AcDbLine
 10
-423.6636047363281
 20
175.0983276367188
 30
0.0
 11
-423.6636047363281
 21
208.6179351806641
 31
0.0
  0
LINE
  5
19A
330
22
100
AcDbEntity
  8
0
  6
Continuous
 62
     7
100
AcDbLine
 10
-227.3205261230469
 20
158.1441650390625
 30
0.0
 11
-227.3205261230469
 21
213.3679351806641
 31
0.0
  0
LINE
  5
19B
330
22
100
AcDbEntity
  8
0
  6
Continuous
 62
     7
100
AcDbLine
 10
-233.9337768554688
 20
264.8679504394531
 30
0.0
 11
-233.9337768554688
 21
213.3679351806641
 31
0.0
  0
LINE
  5
19C
330
22
100
AcDbEntity
  8
0
  6
Continuous
 62
     7
100
AcDbLine
 10
-357.1636047363281
 20
198.6083984375
 30
0.0
 11
-357.1636047363281
 21
179.2312622070313
 31
0.0
  0
LINE
  5
19D
330
22
100
AcDbEntity
  8
0
  6
Continuous
 62
     7
100
AcDbLine
 10
-352.1575927734375
 20
198.6083984375
 30
0.0
 11
-352.1636047363281
 21
185.3445129394531
 31
0.0
  0
LINE
  5
19E
330
22
100
AcDbEntity
  8
0
  6
Continuous
 62
     7
100
AcDbLine
 10
-361.6636047363281
 20
175.0983276367188
 30
0.0
 11
-361.6636047363281
 21
208.4969329833984
 31
0.0
  0
LINE
  5
19F
330
22
100
AcDbEntity
  8
0
  6
Continuous
 62
     7
100
AcDbLine
 10
-371.1636047363281
 20
169.0586547851563
 30
0.0
 11
-371.1636047363281
 21
192.7432250976563
 31
0.0
  0
LINE
  5
1A0
330
22
100
AcDbEntity
  8
0
  6
Continuous
 62
     7
100
AcDbLine
 10
-376.1636047363281
 20
192.7432250976563
 30
0.0
 11
-376.1763610839844
 21
166.9596099853516
 31
0.0
  0
LINE
  5
1A1
330
22
100
AcDbEntity
  8
0
  6
Continuous
 62
     7
100
AcDbLine
 10
-380.6636047363281
 20
165.6022338867188
 30
0.0
 11
-380.6636047363281
 21
208.6179351806641
 31
0.0
  0
LINE
  5
1A2
330
22
100
AcDbEntity
  8
0
  6
Continuous
 62
     7
100
AcDbLine
 10
-366.6636047363281
 20
171.5401611328125
 30
0.0
 11
-366.6636047363281
 21
208.4969329833984
 31
0.0
  0
LINE
  5
1A3
330
22
100
AcDbEntity
  8
0
  6
Continuous
 62
     7
100
AcDbLine
 10
-390.4313354492188
 20
167.8441314697266
 30
0.0
 11
-392.6636047363281
 21
166.1491851806641
 31
0.0
  0
LINE
  5
1A4
330
22
100
AcDbEntity
  8
0
  6
Continuous
 62
     7
100
AcDbLine
 10
-390.1593933105469
 20
167.5721588134766
 30
0.0
 11
-390.4313354492188
 21
167.8441314697266
 31
0.0
  0
LINE
  5
1A5
330
22
100
AcDbEntity
  8
0
  6
Continuous
 62
     7
100
AcDbLine
 10
-389.9024047851563
 20
162.8502655029297
 30
0.0
 11
-391.5823669433594
 21
165.0679321289063
 31
0.0
  0
LINE
  5
1A6
330
22
100
AcDbEntity
  8
0
  6
Continuous
 62
     7
100
AcDbLine
 10
-390.4459228515625
 20
162.3067474365234
 30
0.0
 11
-390.1741638183594
 21
162.5785064697266
 31
0.0
  0
LINE
  5
1A7
330
22
100
AcDbEntity
  8
0
  6
Continuous
 62
     7
100
AcDbLine
 10
-390.1593933105469
 20
167.5721588134766
 30
0.0
 11
-389.8874206542969
 21
167.3002014160156
 31
0.0
  0
LINE
  5
1A8
330
22
100
AcDbEntity
  8
0
  6
Continuous
 62
     7
100
AcDbLine
 10
-389.8874206542969
 20
167.3002014160156
 30
0.0
 11
-391.5823669433594
 21
165.0679321289063
 31
0.0
  0
LINE
  5
1A9
330
22
100
AcDbEntity
  8
0
  6
CENTER
 62
     7
100
AcDbLine
 10
-392.6636047363281
 20
287.0715026855469
 30
0.0
 11
-392.6636047363281
 21
135.6388702392578
 31
0.0
  0
LINE
  5
1AA
330
22
100
AcDbEntity
  8
0
  6
Continuous
 62
     7
100
AcDbLine
 10
-158.9337768554688
 20
229.992431640625
 30
0.0
 11
-158.9337768554688
 21
213.3679351806641
 31
0.0
  0
LINE
  5
1AB
330
22
100
AcDbEntity
  8
0
  6
Continuous
 62
     7
100
AcDbLine
 10
-133.9337768554688
 20
194.3679351806641
 30
0.0
 11
-133.9337768554688
 21
232.3679351806641
 31
0.0
  0
LINE
  5
1AC
330
22
100
AcDbEntity
  8
0
  6
Continuous
 62
     7
100
AcDbLine
 10
-153.9337768554688
 20
227.8876800537109
 30
0.0
 11
-153.9337768554688
 21
213.3679351806641
 31
0.0
  0
LINE
  5
1AD
330
22
100
AcDbEntity
  8
0
  6
Continuous
 62
     7
100
AcDbLine
 10
-168.9337768554688
 20
213.3679351806641
 30
0.0
 11
-168.9337768554688
 21
226.1210784912109
 31
0.0
  0
LINE
  5
1AE
330
22
100
AcDbEntity
  8
0
  6
Continuous
 62
     7
100
AcDbLine
 10
-160.4127655029297
 20
228.5134429931641
 30
0.0
 11
-160.4127655029297
 21
213.3679351806641
 31
0.0
  0
LINE
  5
1AF
330
22
100
AcDbEntity
  8
0
  6
Continuous
 62
     7
100
AcDbLine
 10
-135.4612274169922
 20
228.4649810791016
 30
0.0
 11
-135.4612274169922
 21
213.3679351806641
 31
0.0
  0
LINE
  5
1B0
330
22
100
AcDbEntity
  8
0
  6
Continuous
 62
     7
100
AcDbLine
 10
-155.36865234375
 20
229.3225708007813
 30
0.0
 11
-155.36865234375
 21
213.3679351806641
 31
0.0
  0
LINE
  5
1B1
330
22
100
AcDbEntity
  8
0
  6
Continuous
 62
     7
100
AcDbLine
 10
-197.4337615966797
 20
213.3404693603516
 30
0.0
 11
-197.4337615966797
 21
198.2196197509766
 31
0.0
  0
LINE
  5
1B2
330
22
100
AcDbEntity
  8
0
  6
Continuous
 62
     7
100
AcDbLine
 10
-203.5351104736328
 20
197.3976745605469
 30
0.0
 11
-203.5351104736328
 21
213.3679351806641
 31
0.0
  0
LINE
  5
1B3
330
22
100
AcDbEntity
  8
0
  6
Continuous
 62
     7
100
AcDbLine
 10
-205.7432403564453
 20
226.2913818359375
 30
0.0
 11
-205.7432403564453
 21
213.3679351806641
 31
0.0
  0
LINE
  5
1B4
330
22
100
AcDbEntity
  8
0
  6
Continuous
 62
     7
100
AcDbLine
 10
-202.5628204345703
 20
224.7616424560547
 30
0.0
 11
-202.5628204345703
 21
213.3679351806641
 31
0.0
  0
LINE
  5
1B5
330
22
100
AcDbEntity
  8
0
  6
Continuous
 62
     7
100
AcDbLine
 10
-188.9337768554688
 20
195.3679351806641
 30
0.0
 11
-188.9337768554688
 21
213.3679351806641
 31
0.0
  0
LINE
  5
1B6
330
22
100
AcDbEntity
  8
0
  6
Continuous
 62
     7
100
AcDbLine
 10
-234.9337768554689
 20
213.3679351806641
 30
0.0
 11
-234.9337768554689
 21
149.3679351806641
 31
0.0
  0
LINE
  5
1B7
330
22
100
AcDbEntity
  8
0
  6
Continuous
 62
     7
100
AcDbLine
 10
-347.6636047363281
 20
227.9653015136719
 30
0.0
 11
-347.6636047363281
 21
213.3679351806641
 31
0.0
  0
LINE
  5
1B8
330
22
100
AcDbEntity
  8
0
  6
Continuous
 62
     7
100
AcDbLine
 10
-357.16357421875
 20
230.1083984375
 30
0.0
 11
-357.1636047363281
 21
208.1083984375
 31
0.0
  0
LINE
  5
1B9
330
22
100
AcDbEntity
  8
0
  6
Continuous
 62
     7
100
AcDbLine
 10
-347.6636047363281
 20
198.7705688476563
 30
0.0
 11
-347.6636047363281
 21
213.3679351806641
 31
0.0
  0
LINE
  5
1BA
330
22
100
AcDbEntity
  8
0
  6
Continuous
 62
     7
100
AcDbLine
 10
-376.15087890625
 20
213.3679351806641
 30
0.0
 11
-376.15087890625
 21
224.5181274414064
 31
0.0
  0
LINE
  5
1BB
330
22
100
AcDbEntity
  8
0
  6
Continuous
 62
     7
100
AcDbLine
 10
-352.1508483886719
 20
230.12109375
 30
0.0
 11
-352.1532897949219
 21
208.1083984375
 31
0.0
  0
LINE
  5
1BC
330
22
100
AcDbEntity
  8
0
  6
Continuous
 62
     7
100
AcDbLine
 10
-376.15087890625
 20
213.3679351806641
 30
0.0
 11
-376.15087890625
 21
202.2177429199219
 31
0.0
  0
LINE
  5
1BD
330
22
100
AcDbEntity
  8
0
  6
Continuous
 62
     7
100
AcDbLine
 10
-371.15087890625
 20
213.355224609375
 30
0.0
 11
-371.15087890625
 21
224.5054321289063
 31
0.0
  0
LINE
  5
1BE
330
22
100
AcDbEntity
  8
0
  6
Continuous
 62
     7
100
AcDbLine
 10
-371.15087890625
 20
213.355224609375
 30
0.0
 11
-371.15087890625
 21
202.2050323486328
 31
0.0
  0
LINE
  5
1BF
330
22
100
AcDbEntity
  8
0
  6
Continuous
 62
     7
100
AcDbLine
 10
-390.1636047363281
 20
198.1679382324219
 30
0.0
 11
-390.1636047363281
 21
222.0679321289063
 31
0.0
  0
LINE
  5
1C0
330
22
100
AcDbEntity
  8
0
  6
Continuous
 62
     7
100
AcDbLine
 10
-437.6636047363281
 20
227.9653015136719
 30
0.0
 11
-437.6636047363281
 21
213.3679351806641
 31
0.0
  0
LINE
  5
1C1
330
22
100
AcDbEntity
  8
0
  6
Continuous
 62
     7
100
AcDbLine
 10
-409.1763610839843
 20
213.3679351806641
 30
0.0
 11
-409.1763610839843
 21
224.5181274414064
 31
0.0
  0
LINE
  5
1C2
330
22
100
AcDbEntity
  8
0
  6
Continuous
 62
     7
100
AcDbLine
 10
-414.1636047363281
 20
213.3679351806641
 30
0.0
 11
-414.1636047363281
 21
224.5181274414064
 31
0.0
  0
LINE
  5
1C3
330
22
100
AcDbEntity
  8
0
  6
Continuous
 62
     7
100
AcDbLine
 10
-414.1636047363281
 20
213.3679351806641
 30
0.0
 11
-414.1636047363281
 21
202.2177429199219
 31
0.0
  0
LINE
  5
1C4
330
22
100
AcDbEntity
  8
0
  6
Continuous
 62
     7
100
AcDbLine
 10
-409.1763610839843
 20
213.3679351806641
 30
0.0
 11
-409.1763610839843
 21
202.2177429199219
 31
0.0
  0
LINE
  5
1C5
330
22
100
AcDbEntity
  8
0
  6
Continuous
 62
     7
100
AcDbLine
 10
-428.1636352539063
 20
230.1083984375
 30
0.0
 11
-428.1636047363281
 21
208.1083984375
 31
0.0
  0
LINE
  5
1C6
330
22
100
AcDbEntity
  8
0
  6
Continuous
 62
     7
100
AcDbLine
 10
-437.6636047363281
 20
198.7705688476563
 30
0.0
 11
-437.6636047363281
 21
213.3679351806641
 31
0.0
  0
LINE
  5
1C7
330
22
100
AcDbEntity
  8
0
  6
Continuous
 62
     7
100
AcDbLine
 10
-433.1763610839844
 20
230.12109375
 30
0.0
 11
-433.1739196777343
 21
208.1083984375
 31
0.0
  0
LINE
  5
1C8
330
22
100
AcDbEntity
  8
0
  6
Continuous
 62
     7
100
AcDbLine
 10
-395.1636047363281
 20
198.1679382324219
 30
0.0
 11
-395.1636047363281
 21
222.0679321289063
 31
0.0
  0
LINE
  5
1C9
330
22
100
AcDbEntity
  8
0
  6
CENTER
 62
     7
100
AcDbLine
 10
-474.2253112792968
 20
213.3679351806641
 30
0.0
 11
-318.2538146972656
 21
213.3679351806641
 31
0.0
  0
LINE
  5
1CA
330
22
100
AcDbEntity
  8
0
  6
Continuous
 62
     7
100
AcDbLine
 10
-238.9337768554689
 20
268.3679504394531
 30
0.0
 11
-233.9337768554688
 21
268.3679504394531
 31
0.0
  0
LINE
  5
1CB
330
22
100
AcDbEntity
  8
0
  6
Continuous
 62
     7
100
AcDbLine
 10
-235.9337768554688
 20
264.8662414550781
 30
0.0
 11
-233.9337768554688
 21
264.8662414550781
 31
0.0
  0
LINE
  5
1CC
330
22
100
AcDbEntity
  8
0
  6
Continuous
 62
     7
100
AcDbLine
 10
-238.9337768554689
 20
267.8662414550781
 30
0.0
 11
-233.9337768554688
 21
267.8662414550781
 31
0.0
  0
LINE
  5
1CD
330
22
100
AcDbEntity
  8
0
  6
Continuous
 62
     7
100
AcDbLine
 10
-238.9337768554689
 20
262.6162414550781
 30
0.0
 11
-235.9337768554688
 21
262.6162414550781
 31
0.0
  0
LINE
  5
1CE
330
22
100
AcDbEntity
  8
0
  6
Continuous
 62
     7
100
AcDbLine
 10
-237.9337768554688
 20
278.3679504394531
 30
0.0
 11
-235.9337768554688
 21
278.3679504394531
 31
0.0
  0
LINE
  5
1CF
330
22
100
AcDbEntity
  8
0
  6
Continuous
 62
     7
100
AcDbLine
 10
-238.9337768554689
 20
235.5662536621094
 30
0.0
 11
-235.9337768554688
 21
235.5662536621094
 31
0.0
  0
LINE
  5
1D0
330
22
100
AcDbEntity
  8
0
  6
Continuous
 62
     7
100
AcDbLine
 10
-238.9337768554689
 20
231.0662536621094
 30
0.0
 11
-235.9337768554688
 21
231.0662536621094
 31
0.0
  0
LINE
  5
1D1
330
22
100
AcDbEntity
  8
0
  6
Continuous
 62
     7
100
AcDbLine
 10
-233.9337768554688
 20
230.8356628417969
 30
0.0
 11
-235.9337768554688
 21
230.8356628417969
 31
0.0
  0
LINE
  5
1D2
330
22
100
AcDbEntity
  8
0
  6
Continuous
 62
     7
100
AcDbLine
 10
-238.9337768554689
 20
149.3679351806641
 30
0.0
 11
-238.9337768554689
 21
213.3679351806641
 31
0.0
  0
LINE
  5
1D3
330
22
100
AcDbEntity
  8
0
  6
Continuous
 62
     7
100
AcDbLine
 10
-237.9337768554688
 20
148.3679351806641
 30
0.0
 11
-235.9337768554688
 21
148.3679351806641
 31
0.0
  0
LINE
  5
1D4
330
22
100
AcDbEntity
  8
0
  6
Continuous
 62
     7
100
AcDbLine
 10
-233.9337768554688
 20
240.8356628417969
 30
0.0
 11
-235.9337768554688
 21
240.8356628417969
 31
0.0
  0
LINE
  5
1D5
330
22
100
AcDbEntity
  8
0
  6
Continuous
 62
     7
100
AcDbLine
 10
-235.4223480224609
 20
267.8662414550781
 30
0.0
 11
-233.9337768554688
 21
266.377685546875
 31
0.0
  0
LINE
  5
1D6
330
22
100
AcDbEntity
  8
0
  6
Continuous
 62
     7
100
AcDbLine
 10
-236.1294555664063
 20
267.8662414550781
 30
0.0
 11
-233.9337768554688
 21
265.6705627441406
 31
0.0
  0
LINE
  5
1D7
330
22
100
AcDbEntity
  8
0
  6
Continuous
 62
     7
100
AcDbLine
 10
-238.2507781982422
 20
267.8662414550781
 30
0.0
 11
-235.2507781982422
 21
264.8662414550781
 31
0.0
  0
LINE
  5
1D8
330
22
100
AcDbEntity
  8
0
  6
Continuous
 62
     7
100
AcDbLine
 10
-238.9337768554689
 20
267.8421325683594
 30
0.0
 11
-235.9337768554688
 21
264.8421325683594
 31
0.0
  0
LINE
  5
1D9
330
22
100
AcDbEntity
  8
0
  6
Continuous
 62
     7
100
AcDbLine
 10
-238.9337768554689
 20
265.7208251953125
 30
0.0
 11
-235.9337768554688
 21
262.7208251953125
 31
0.0
  0
LINE
  5
1DA
330
22
100
AcDbEntity
  8
0
  6
Continuous
 62
     7
100
AcDbLine
 10
-238.9337768554689
 20
265.0137023925781
 30
0.0
 11
-236.5363159179688
 21
262.6162414550781
 31
0.0
  0
LINE
  5
1DB
330
22
100
AcDbEntity
  8
0
  6
Continuous
 62
     7
100
AcDbLine
 10
-238.9337768554689
 20
262.8923950195313
 30
0.0
 11
-238.6576385498047
 21
262.6162414550781
 31
0.0
  0
LINE
  5
1DC
330
22
100
AcDbEntity
  8
0
  6
Continuous
 62
     7
100
AcDbLine
 10
-237.0634765625
 20
235.5662536621094
 30
0.0
 11
-235.9337768554688
 21
234.4365386962891
 31
0.0
  0
LINE
  5
1DD
330
22
100
AcDbEntity
  8
0
  6
Continuous
 62
     7
100
AcDbLine
 10
-237.7705841064453
 20
235.5662536621094
 30
0.0
 11
-235.9337768554688
 21
233.7294464111328
 31
0.0
  0
LINE
  5
1DE
330
22
100
AcDbEntity
  8
0
  6
Continuous
 62
     7
100
AcDbLine
 10
-238.9337768554689
 20
234.6081237792969
 30
0.0
 11
-235.9337768554688
 21
231.6081237792969
 31
0.0
  0
LINE
  5
1DF
330
22
100
AcDbEntity
  8
0
  6
Continuous
 62
     7
100
AcDbLine
 10
-238.9337768554689
 20
233.9010162353516
 30
0.0
 11
-236.0990142822266
 21
231.0662536621094
 31
0.0
  0
LINE
  5
1E0
330
22
100
AcDbEntity
  8
0
  6
Continuous
 62
     7
100
AcDbLine
 10
-238.9337768554689
 20
231.7796936035156
 30
0.0
 11
-238.2203369140625
 21
231.0662536621094
 31
0.0
  0
LINE
  5
1E1
330
22
100
AcDbEntity
  8
0
  6
Continuous
 62
     7
100
AcDbLine
 10
-238.9337768554689
 20
231.0725860595703
 30
0.0
 11
-238.9274444580078
 21
231.0662536621094
 31
0.0
  0
LINE
  5
1E2
330
22
100
AcDbEntity
  8
0
  6
Continuous
 62
     7
100
AcDbLine
 10
-238.9337768554689
 20
213.3679351806641
 30
0.0
 11
-238.9337768554689
 21
277.3679504394531
 31
0.0
  0
LINE
  5
1E3
330
22
100
AcDbEntity
  8
0
  6
Continuous
 62
     7
100
AcDbLine
 10
-235.9337768554688
 20
213.3679351806641
 30
0.0
 11
-235.9337768554688
 21
264.8662414550781
 31
0.0
  0
LINE
  5
1E4
330
22
100
AcDbEntity
  8
0
  6
Continuous
 62
     7
100
AcDbLine
 10
-238.8928985595703
 20
277.5734252929688
 30
0.0
 11
-238.1392669677734
 21
278.3270568847656
 31
0.0
  0
LINE
  5
1E5
330
22
100
AcDbEntity
  8
0
  6
Continuous
 62
     7
100
AcDbLine
 10
-238.9337768554689
 20
274.7041320800781
 30
0.0
 11
-235.4281921386719
 21
278.209716796875
 31
0.0
  0
LINE
  5
1E6
330
22
100
AcDbEntity
  8
0
  6
Continuous
 62
     7
100
AcDbLine
 10
-238.9337768554689
 20
271.8757019042969
 30
0.0
 11
-234.9337768554689
 21
275.8757019042969
 31
0.0
  0
LINE
  5
1E7
330
22
100
AcDbEntity
  8
0
  6
Continuous
 62
     7
100
AcDbLine
 10
-238.9337768554689
 20
269.0472717285156
 30
0.0
 11
-234.9337768554689
 21
273.0472717285156
 31
0.0
  0
LINE
  5
1E8
330
22
100
AcDbEntity
  8
0
  6
Continuous
 62
     7
100
AcDbLine
 10
-236.7846832275391
 20
268.3679504394531
 30
0.0
 11
-233.7846832275391
 21
271.367950439453
 31
0.0
  0
LINE
  5
1E9
330
22
100
AcDbEntity
  8
0
  6
Continuous
 62
     7
100
AcDbLine
 10
-233.9562530517578
 20
268.3679504394531
 30
0.0
 11
-230.9562530517578
 21
271.367950439453
 31
0.0
  0
LINE
  5
1EA
330
22
100
AcDbEntity
  8
0
  6
Continuous
 62
     7
100
AcDbLine
 10
-233.9337768554688
 20
265.5619812011719
 30
0.0
 11
-228.3626403808594
 21
271.1331176757813
 31
0.0
  0
LINE
  5
1EB
330
22
100
AcDbEntity
  8
0
  6
Continuous
 62
     7
100
AcDbLine
 10
-231.7993927001953
 20
264.8679504394531
 30
0.0
 11
-226.5483856201172
 21
270.1189575195313
 31
0.0
  0
LINE
  5
1EC
330
22
100
AcDbEntity
  8
0
  6
Continuous
 62
     7
100
AcDbLine
 10
-229.0212554931641
 20
264.8176574707031
 30
0.0
 11
-225.3002777099609
 21
268.5386352539063
 31
0.0
  0
LINE
  5
1ED
330
22
100
AcDbEntity
  8
0
  6
Continuous
 62
     7
100
AcDbLine
 10
-226.9046630859375
 20
264.1058044433594
 30
0.0
 11
-224.2649993896484
 21
266.7454833984375
 31
0.0
  0
LINE
  5
1EE
330
22
100
AcDbEntity
  8
0
  6
Continuous
 62
     7
100
AcDbLine
 10
-225.4474182128906
 20
262.7346496582031
 30
0.0
 11
-223.2297210693359
 21
264.9523315429688
 31
0.0
  0
LINE
  5
1EF
330
22
100
AcDbEntity
  8
0
  6
Continuous
 62
     7
100
AcDbLine
 10
-224.3905944824219
 20
260.9630432128906
 30
0.0
 11
-222.1944427490234
 21
263.1591796875
 31
0.0
  0
LINE
  5
1F0
330
22
100
AcDbEntity
  8
0
  6
Continuous
 62
     7
100
AcDbLine
 10
-223.3553161621094
 20
259.1698913574219
 30
0.0
 11
-221.1591644287109
 21
261.3660278320313
 31
0.0
  0
LINE
  5
1F1
330
22
100
AcDbEntity
  8
0
  6
Continuous
 62
     7
100
AcDbLine
 10
-222.3200378417969
 20
257.3767395019531
 30
0.0
 11
-220.1238861083984
 21
259.5728759765625
 31
0.0
  0
LINE
  5
1F2
330
22
100
AcDbEntity
  8
0
  6
Continuous
 62
     7
100
AcDbLine
 10
-221.2847747802734
 20
255.5835723876953
 30
0.0
 11
-219.088623046875
 21
257.7797241210938
 31
0.0
  0
LINE
  5
1F3
330
22
100
AcDbEntity
  8
0
  6
Continuous
 62
     7
100
AcDbLine
 10
-220.2494964599609
 20
253.7904205322266
 30
0.0
 11
-218.0533447265625
 21
255.986572265625
 31
0.0
  0
LINE
  5
1F4
330
22
100
AcDbEntity
  8
0
  6
Continuous
 62
     7
100
AcDbLine
 10
-219.2142181396484
 20
251.9972686767578
 30
0.0
 11
-217.01806640625
 21
254.1934356689453
 31
0.0
  0
LINE
  5
1F5
330
22
100
AcDbEntity
  8
0
  6
Continuous
 62
     7
100
AcDbLine
 10
-218.1789398193359
 20
250.2041320800781
 30
0.0
 11
-215.9827880859375
 21
252.4002838134766
 31
0.0
  0
LINE
  5
1F6
330
22
100
AcDbEntity
  8
0
  6
Continuous
 62
     7
100
AcDbLine
 10
-217.1436614990234
 20
248.4109802246094
 30
0.0
 11
-214.947509765625
 21
250.6071319580078
 31
0.0
  0
LINE
  5
1F7
330
22
100
AcDbEntity
  8
0
  6
Continuous
 62
     7
100
AcDbLine
 10
-216.1083831787109
 20
246.6178283691406
 30
0.0
 11
-213.9122314453125
 21
248.8139801025391
 31
0.0
  0
LINE
  5
1F8
330
22
100
AcDbEntity
  8
0
  6
Continuous
 62
     7
100
AcDbLine
 10
-215.0731048583984
 20
244.8246765136719
 30
0.0
 11
-212.876953125
 21
247.0208282470703
 31
0.0
  0
LINE
  5
1F9
330
22
100
AcDbEntity
  8
0
  6
Continuous
 62
     7
100
AcDbLine
 10
-214.037841796875
 20
243.0315246582031
 30
0.0
 11
-211.8416900634766
 21
245.2276763916016
 31
0.0
  0
LINE
  5
1FA
330
22
100
AcDbEntity
  8
0
  6
Continuous
 62
     7
100
AcDbLine
 10
-213.0025634765625
 20
241.2383728027344
 30
0.0
 11
-210.8064117431641
 21
243.4345245361328
 31
0.0
  0
LINE
  5
1FB
330
22
100
AcDbEntity
  8
0
  6
Continuous
 62
     7
100
AcDbLine
 10
-211.96728515625
 20
239.4452209472656
 30
0.0
 11
-209.7711334228516
 21
241.6413726806641
 31
0.0
  0
LINE
  5
1FC
330
22
100
AcDbEntity
  8
0
  6
Continuous
 62
     7
100
AcDbLine
 10
-210.9320068359375
 20
237.6520690917969
 30
0.0
 11
-208.7358551025391
 21
239.8482208251953
 31
0.0
  0
LINE
  5
1FD
330
22
100
AcDbEntity
  8
0
  6
Continuous
 62
     7
100
AcDbLine
 10
-209.896728515625
 20
235.8589172363281
 30
0.0
 11
-207.7005767822266
 21
238.0550689697266
 31
0.0
  0
LINE
  5
1FE
330
22
100
AcDbEntity
  8
0
  6
Continuous
 62
     7
100
AcDbLine
 10
-208.8614501953125
 20
234.0657653808594
 30
0.0
 11
-206.6652984619141
 21
236.2619171142578
 31
0.0
  0
LINE
  5
1FF
330
22
100
AcDbEntity
  8
0
  6
Continuous
 62
     7
100
AcDbLine
 10
-207.826171875
 20
232.2726135253906
 30
0.0
 11
-205.6300201416016
 21
234.4687652587891
 31
0.0
  0
LINE
  5
200
330
22
100
AcDbEntity
  8
0
  6
Continuous
 62
     7
100
AcDbLine
 10
-206.7909088134766
 20
230.4794616699219
 30
0.0
 11
-204.5947570800781
 21
232.6756134033203
 31
0.0
  0
LINE
  5
201
330
22
100
AcDbEntity
  8
0
  6
Continuous
 62
     7
100
AcDbLine
 10
-205.7556304931641
 20
228.6863098144531
 30
0.0
 11
-203.4931945800781
 21
230.9487457275391
 31
0.0
  0
LINE
  5
202
330
22
100
AcDbEntity
  8
0
  6
Continuous
 62
     7
100
AcDbLine
 10
-204.5651245117188
 20
227.0483856201172
 30
0.0
 11
-201.5626983642578
 21
230.0508117675781
 31
0.0
  0
LINE
  5
203
330
22
100
AcDbEntity
  8
0
  6
Continuous
 62
     7
100
AcDbLine
 10
-202.8294372558594
 20
225.9556427001953
 30
0.0
 11
-198.8496246337891
 21
229.9354705810547
 31
0.0
  0
LINE
  5
204
330
22
100
AcDbEntity
  8
0
  6
Continuous
 62
     7
100
AcDbLine
 10
-200.3355712890625
 20
225.6210784912109
 30
0.0
 11
-197.4354095458984
 21
228.5212554931641
 31
0.0
  0
LINE
  5
205
330
22
100
AcDbEntity
  8
0
  6
Continuous
 62
     7
100
AcDbLine
 10
-197.5071411132813
 20
225.6210784912109
 30
0.0
 11
-194.6086120605469
 21
228.5196228027344
 31
0.0
  0
LINE
  5
206
330
22
100
AcDbEntity
  8
0
  6
Continuous
 62
     7
100
AcDbLine
 10
-194.6787261962891
 20
225.6210784912109
 30
0.0
 11
-191.7801818847656
 21
228.5196228027344
 31
0.0
  0
LINE
  5
207
330
22
100
AcDbEntity
  8
0
  6
Continuous
 62
     7
100
AcDbLine
 10
-191.8502960205078
 20
225.6210784912109
 30
0.0
 11
-188.9517517089844
 21
228.5196228027344
 31
0.0
  0
LINE
  5
208
330
22
100
AcDbEntity
  8
0
  6
Continuous
 62
     7
100
AcDbLine
 10
-189.0218658447266
 20
225.6210784912109
 30
0.0
 11
-186.1233367919922
 21
228.5196228027344
 31
0.0
  0
LINE
  5
209
330
22
100
AcDbEntity
  8
0
  6
Continuous
 62
     7
100
AcDbLine
 10
-186.1934356689453
 20
225.6210784912109
 30
0.0
 11
-183.2949066162109
 21
228.5196228027344
 31
0.0
  0
LINE
  5
20A
330
22
100
AcDbEntity
  8
0
  6
Continuous
 62
     7
100
AcDbLine
 10
-183.3650054931641
 20
225.6210784912109
 30
0.0
 11
-180.4664764404297
 21
228.5196228027344
 31
0.0
  0
LINE
  5
20B
330
22
100
AcDbEntity
  8
0
  6
Continuous
 62
     7
100
AcDbLine
 10
-180.5365905761719
 20
225.6210784912109
 30
0.0
 11
-177.6380462646484
 21
228.5196228027344
 31
0.0
  0
LINE
  5
20C
330
22
100
AcDbEntity
  8
0
  6
Continuous
 62
     7
100
AcDbLine
 10
-177.7081604003906
 20
225.6210784912109
 30
0.0
 11
-174.8096160888672
 21
228.5196228027344
 31
0.0
  0
LINE
  5
20D
330
22
100
AcDbEntity
  8
0
  6
Continuous
 62
     7
100
AcDbLine
 10
-174.8797302246094
 20
225.6210784912109
 30
0.0
 11
-171.981201171875
 21
228.5196228027344
 31
0.0
  0
LINE
  5
20E
330
22
100
AcDbEntity
  8
0
  6
Continuous
 62
     7
100
AcDbLine
 10
-172.0513000488281
 20
225.6210784912109
 30
0.0
 11
-169.1527709960938
 21
228.5196228027344
 31
0.0
  0
LINE
  5
20F
330
22
100
AcDbEntity
  8
0
  6
CENTER
 62
     7
100
AcDbLine
 10
-245.6606750488281
 20
213.3679351806641
 30
0.0
 11
-130.7916717529297
 21
213.3679351806641
 31
0.0
  0
LINE
  5
210
330
22
100
AcDbEntity
  8
0
  6
Continuous
 62
     7
100
AcDbLine
 10
-238.9337768554689
 20
219.7445068359375
 30
0.0
 11
-238.9337768554689
 21
224.653076171875
 31
0.0
  0
LINE
  5
211
330
22
100
AcDbEntity
  8
0
  6
Continuous
 62
     7
100
AcDbLine
 10
-168.9337768554688
 20
219.7445068359375
 30
0.0
 11
-168.9337768554688
 21
224.653076171875
 31
0.0
  0
ARC
  5
212
330
22
100
AcDbEntity
  8
0
  6
Continuous
 62
     7
100
AcDbCircle
 10
-201.3348236083984
 20
233.0292663574219
 30
0.0
 40
3.0
100
AcDbArc
 50
209.9999304360001
 51
270.0000000000005
  0
ARC
  5
213
330
22
100
AcDbEntity
  8
0
  6
Continuous
 62
     7
100
AcDbCircle
 10
-201.0991668701172
 20
230.6210784912109
 30
0.0
 40
5.0
100
AcDbArc
 50
210.0000178622848
 51
270.0000000000005
  0
ARC
  5
214
330
22
100
AcDbEntity
  8
0
  6
Continuous
 62
     7
100
AcDbCircle
 10
-187.9337768554688
 20
231.3679351806641
 30
0.0
 40
1.0
100
AcDbArc
 50
90.00000000000019
 51
180.0000000000004
  0
ARC
  5
215
330
22
100
AcDbEntity
  8
0
  6
Continuous
 62
     7
100
AcDbCircle
 10
-233.9337768554688
 20
272.3679504394531
 30
0.0
 40
1.0
100
AcDbArc
 50
180.0000000000004
 51
270.0000000000005
  0
ARC
  5
216
330
22
100
AcDbEntity
  8
0
  6
Continuous
 62
     7
100
AcDbCircle
 10
-229.5318450927734
 20
259.8679504394531
 30
0.0
 40
5.0
100
AcDbArc
 50
30.00001786228407
 51
90.00000000000019
  0
ARC
  5
217
330
22
100
AcDbEntity
  8
0
  6
Continuous
 62
     7
100
AcDbCircle
 10
-229.8205261230469
 20
266.3679504394531
 30
0.0
 40
5.0
100
AcDbArc
 50
30.00001786228407
 51
90.00000000000019
  0
ARC
  5
218
330
22
100
AcDbEntity
  8
0
  6
Continuous
 62
     7
100
AcDbCircle
 10
-225.1483764648438
 20
236.4242706298828
 30
0.0
 40
4.062950611114501
100
AcDbArc
 50
64.60674279633678
 51
89.07920621505075
  0
ARC
  5
219
330
22
100
AcDbEntity
  8
0
  6
Continuous
 62
     7
100
AcDbCircle
 10
-225.1483764648438
 20
234.5491333007813
 30
0.0
 40
4.062950611114501
100
AcDbArc
 50
270.9207903269832
 51
295.3931649287092
  0
ARC
  5
21A
330
22
100
AcDbEntity
  8
0
  6
Continuous
 62
     7
100
AcDbCircle
 10
-228.1192016601564
 20
234.9168090820313
 30
0.0
 40
7.001713752746582
100
AcDbArc
 50
352.1097535884393
 51
47.69011008157986
  0
ARC
  5
21B
330
22
100
AcDbEntity
  8
0
  6
Continuous
 62
     7
100
AcDbCircle
 10
-226.4073181152344
 20
235.3873291015625
 30
0.0
 40
5.416192531585693
100
AcDbArc
 50
303.6504917909427
 51
344.6725804901056
  0
ARC
  5
21C
330
22
100
AcDbEntity
  8
0
  6
Continuous
 62
     7
100
AcDbCircle
 10
-156.9337768554688
 20
280.3679504394531
 30
0.0
 40
2.0
100
AcDbArc
 50
90.00000000000019
 51
180.0000000000004
  0
ARC
  5
21D
330
22
100
AcDbEntity
  8
0
  6
Continuous
 62
     7
100
AcDbCircle
 10
-155.9337768554688
 20
281.8679504394531
 30
0.0
 40
0.5
100
AcDbArc
 50
0.0
 51
90.00000000000019
  0
ARC
  5
21E
330
22
100
AcDbEntity
  8
0
  6
Continuous
 62
     7
100
AcDbCircle
 10
-134.9337768554688
 20
232.3679351806641
 30
0.0
 40
1.0
100
AcDbArc
 50
0.0
 51
90.00000000000019
  0
ARC
  5
21F
330
22
100
AcDbEntity
  8
0
  6
Continuous
 62
     7
100
AcDbCircle
 10
-169.4337768554688
 20
226.1210784912109
 30
0.0
 40
0.5
100
AcDbArc
 50
270.0000000000005
 51
0.0
  0
ARC
  5
220
330
22
100
AcDbEntity
  8
0
  6
Continuous
 62
     7
100
AcDbCircle
 10
-163.9337768554688
 20
237.3679351806641
 30
0.0
 40
5.0
100
AcDbArc
 50
270.0000000000005
 51
0.0
  0
ARC
  5
221
330
22
100
AcDbEntity
  8
0
  6
Continuous
 62
     7
100
AcDbCircle
 10
-154.4337768554688
 20
234.3679351806641
 30
0.0
 40
1.0
100
AcDbArc
 50
180.0000000000004
 51
270.0000000000005
  0
ARC
  5
222
330
22
100
AcDbEntity
  8
0
  6
Continuous
 62
     7
100
AcDbCircle
 10
-145.4337768554688
 20
191.8810577392578
 30
0.0
 40
2.0
100
AcDbArc
 50
289.6076588895045
 51
0.0
  0
ARC
  5
223
330
22
100
AcDbEntity
  8
0
  6
Continuous
 62
     7
100
AcDbCircle
 10
-134.9337768554688
 20
194.3679351806641
 30
0.0
 40
1.0
100
AcDbArc
 50
270.0000000000005
 51
0.0
  0
ARC
  5
224
330
22
100
AcDbEntity
  8
0
  6
Continuous
 62
     7
100
AcDbCircle
 10
-140.7357330322266
 20
178.69287109375
 30
0.0
 40
12.0
100
AcDbArc
 50
109.6074577125038
 51
160.4922978213932
  0
ARC
  5
225
330
22
100
AcDbEntity
  8
0
  6
Continuous
 62
     7
100
AcDbCircle
 10
-153.9320831298828
 20
183.3679351806641
 30
0.0
 40
2.0
100
AcDbArc
 50
270.0000000000005
 51
340.4924351679499
  0
ARC
  5
226
330
22
100
AcDbEntity
  8
0
  6
Continuous
 62
     7
100
AcDbCircle
 10
-155.9337768554688
 20
144.8679351806641
 30
0.0
 40
0.5
100
AcDbArc
 50
270.0000000000005
 51
0.0
  0
ARC
  5
227
330
22
100
AcDbEntity
  8
0
  6
Continuous
 62
     7
100
AcDbCircle
 10
-202.0171966552734
 20
193.7066192626953
 30
0.0
 40
3.0
100
AcDbArc
 50
90.00000000000019
 51
150.7920089557716
  0
ARC
  5
228
330
22
100
AcDbEntity
  8
0
  6
Continuous
 62
     7
100
AcDbCircle
 10
-187.9337768554688
 20
195.3679351806641
 30
0.0
 40
1.0
100
AcDbArc
 50
180.0000000000004
 51
270.0000000000005
  0
ARC
  5
229
330
22
100
AcDbEntity
  8
0
  6
Continuous
 62
     7
100
AcDbCircle
 10
-229.8205261230469
 20
160.3679351806641
 30
0.0
 40
5.0
100
AcDbArc
 50
270.0000000000005
 51
329.9999821377166
  0
CIRCLE
  5
22A
330
22
100
AcDbEntity
  8
0
  6
Continuous
 62
     7
100
AcDbCircle
 10
-434.4926452636719
 20
237.5179443359375
 30
0.0
 40
4.75
  0
CIRCLE
  5
22B
330
22
100
AcDbEntity
  8
0
  6
Continuous
 62
     7
100
AcDbCircle
 10
-434.4926452636719
 20
237.5179443359375
 30
0.0
 40
4.5
  0
CIRCLE
  5
22C
330
22
100
AcDbEntity
  8
0
  6
Continuous
 62
     7
100
AcDbCircle
 10
-434.4926452636719
 20
237.5179443359375
 30
0.0
 40
4.5
  0
CIRCLE
  5
22D
330
22
100
AcDbEntity
  8
0
  6
Continuous
 62
     7
100
AcDbCircle
 10
-434.4926452636719
 20
237.5179443359375
 30
0.0
 40
4.75
  0
ARC
  5
22E
330
22
100
AcDbEntity
  8
0
  6
Continuous
 62
     7
100
AcDbCircle
 10
-154.4337768554688
 20
192.367935180664
 30
0.0
 40
1.0
100
AcDbArc
 50
90.00000000000019
 51
180.0000000000004
  0
ARC
  5
22F
330
22
100
AcDbEntity
  8
0
  6
Continuous
 62
     7
100
AcDbCircle
 10
-156.9337768554688
 20
146.3679351806641
 30
0.0
 40
2.0
100
AcDbArc
 50
180.0000000000004
 51
270.0000000000005
  0
ARC
  5
230
330
22
100
AcDbEntity
  8
0
  6
Continuous
 62
     7
100
AcDbCircle
 10
-163.9337768554688
 20
189.3679351806641
 30
0.0
 40
5.0
100
AcDbArc
 50
0.0
 51
90.00000000000019
  0
ARC
  5
231
330
22
100
AcDbEntity
  8
0
  6
Continuous
 62
     7
100
AcDbCircle
 10
-392.6636047363281
 20
238.0679321289064
 30
0.0
 40
2.5
100
AcDbArc
 50
180.0000000000004
 51
270.0000000000005
  0
ARC
  5
232
330
22
100
AcDbEntity
  8
0
  6
Continuous
 62
     7
100
AcDbCircle
 10
-392.6636047363281
 20
228.5679321289063
 30
0.0
 40
2.5
100
AcDbArc
 50
90.00000000000019
 51
180.0000000000004
  0
ARC
  5
233
330
22
100
AcDbEntity
  8
0
  6
Continuous
 62
     7
100
AcDbCircle
 10
-392.6636047363281
 20
213.3679351806641
 30
0.0
 40
49.25
100
AcDbArc
 50
75.89764732495712
 51
81.8287689631135
  0
ARC
  5
234
330
22
100
AcDbEntity
  8
0
  6
Continuous
 62
     7
100
AcDbCircle
 10
-383.1636047363281
 20
218.1179351806641
 30
0.0
 40
2.5
100
AcDbArc
 50
180.0000000000004
 51
0.0
  0
CIRCLE
  5
235
330
22
100
AcDbEntity
  8
0
  6
Continuous
 62
     7
100
AcDbCircle
 10
-350.8345947265625
 20
237.5179443359375
 30
0.0
 40
4.75
  0
CIRCLE
  5
236
330
22
100
AcDbEntity
  8
0
  6
Continuous
 62
     7
100
AcDbCircle
 10
-350.8345947265625
 20
237.5179443359375
 30
0.0
 40
4.75
  0
CIRCLE
  5
237
330
22
100
AcDbEntity
  8
0
  6
Continuous
 62
     7
100
AcDbCircle
 10
-350.8345947265625
 20
237.5179443359375
 30
0.0
 40
4.5
  0
CIRCLE
  5
238
330
22
100
AcDbEntity
  8
0
  6
Continuous
 62
     7
100
AcDbCircle
 10
-350.8345947265625
 20
237.5179443359375
 30
0.0
 40
4.5
  0
ARC
  5
239
330
22
100
AcDbEntity
  8
0
  6
Continuous
 62
     7
100
AcDbCircle
 10
-438.6636047363281
 20
227.9653015136719
 30
0.0
 40
1.0
100
AcDbArc
 50
0.0
 51
153.9682520364821
  0
ARC
  5
23A
330
22
100
AcDbEntity
  8
0
  6
Continuous
 62
     7
100
AcDbCircle
 10
-421.1636047363281
 20
218.1179351806641
 30
0.0
 40
2.5
100
AcDbArc
 50
180.0000000000004
 51
0.0
  0
ARC
  5
23B
330
22
100
AcDbEntity
  8
0
  6
Continuous
 62
     7
100
AcDbCircle
 10
-411.6763610839844
 20
224.5054321289063
 30
0.0
 40
2.5
100
AcDbArc
 50
0.0
 51
180.0000000000004
  0
ARC
  5
23C
330
22
100
AcDbEntity
  8
0
  6
Continuous
 62
     7
100
AcDbCircle
 10
-411.6763610839844
 20
233.9926605224609
 30
0.0
 40
2.5
100
AcDbArc
 50
180.0000000000004
 51
0.0
  0
ARC
  5
23D
330
22
100
AcDbEntity
  8
0
  6
Continuous
 62
     7
100
AcDbCircle
 10
-430.6763610839843
 20
230.1083984375
 30
0.0
 40
2.5
100
AcDbArc
 50
0.0
 51
180.0000000000004
  0
ARC
  5
23E
330
22
100
AcDbEntity
  8
0
  6
Continuous
 62
     7
100
AcDbCircle
 10
-402.1636047363281
 20
218.1179351806641
 30
0.0
 40
2.5
100
AcDbArc
 50
180.0000000000004
 51
0.0
  0
ARC
  5
23F
330
22
100
AcDbEntity
  8
0
  6
Continuous
 62
     7
100
AcDbCircle
 10
-354.65087890625
 20
230.1083984375
 30
0.0
 40
2.5
100
AcDbArc
 50
0.0
 51
180.0000000000004
  0
ARC
  5
240
330
22
100
AcDbEntity
  8
0
  6
Continuous
 62
     7
100
AcDbCircle
 10
-373.65087890625
 20
224.5054321289063
 30
0.0
 40
2.5
100
AcDbArc
 50
0.0
 51
180.0000000000004
  0
ARC
  5
241
330
22
100
AcDbEntity
  8
0
  6
Continuous
 62
     7
100
AcDbCircle
 10
-373.6636047363281
 20
233.9926605224609
 30
0.0
 40
2.5
100
AcDbArc
 50
180.0000000000004
 51
0.0
  0
ARC
  5
242
330
22
100
AcDbEntity
  8
0
  6
Continuous
 62
     7
100
AcDbCircle
 10
-364.1636047363281
 20
217.9969329833984
 30
0.0
 40
2.5
100
AcDbArc
 50
180.0000000000004
 51
0.0
  0
ARC
  5
243
330
22
100
AcDbEntity
  8
0
  6
Continuous
 62
     7
100
AcDbCircle
 10
-392.6636047363281
 20
238.0679321289064
 30
0.0
 40
2.5
100
AcDbArc
 50
270.0000000000005
 51
0.0
  0
ARC
  5
244
330
22
100
AcDbEntity
  8
0
  6
Continuous
 62
     7
100
AcDbCircle
 10
-392.6636047363281
 20
228.5679321289063
 30
0.0
 40
2.5
100
AcDbArc
 50
0.0
 51
90.00000000000019
  0
ARC
  5
245
330
22
100
AcDbEntity
  8
0
  6
Continuous
 62
     7
100
AcDbCircle
 10
-392.6636047363281
 20
213.3679351806641
 30
0.0
 40
49.25
100
AcDbArc
 50
278.1712335599505
 51
284.1023526750437
  0
CIRCLE
  5
246
330
22
100
AcDbEntity
  8
0
  6
Continuous
 62
     7
100
AcDbCircle
 10
-392.6636047363281
 20
165.0679321289063
 30
0.0
 40
4.75
  0
CIRCLE
  5
247
330
22
100
AcDbEntity
  8
0
  6
Continuous
 62
     7
100
AcDbCircle
 10
-392.6636047363281
 20
165.0679321289063
 30
0.0
 40
4.5
  0
ARC
  5
248
330
22
100
AcDbEntity
  8
0
  6
CENTER
 62
     7
100
AcDbCircle
 10
-392.6636047363281
 20
225.5679321289064
 30
0.0
 40
60.5
100
AcDbArc
 50
263.3690062345514
 51
276.5790305083545
  0
CIRCLE
  5
249
330
22
100
AcDbEntity
  8
0
  6
Continuous
 62
     7
100
AcDbCircle
 10
-392.6636047363281
 20
165.0679321289063
 30
0.0
 40
4.75
  0
CIRCLE
  5
24A
330
22
100
AcDbEntity
  8
0
  6
Continuous
 62
     7
100
AcDbCircle
 10
-392.6636047363281
 20
165.0679321289063
 30
0.0
 40
4.5
  0
ARC
  5
24B
330
22
100
AcDbEntity
  8
0
  6
CENTER
 62
     7
100
AcDbCircle
 10
-392.6636047363281
 20
225.5679321289064
 30
0.0
 40
60.5
100
AcDbArc
 50
263.3690062345514
 51
276.5790305083545
  0
ARC
  5
24C
330
22
100
AcDbEntity
  8
0
  6
Continuous
 62
     7
100
AcDbCircle
 10
-392.6636047363281
 20
213.3679351806641
 30
0.0
 40
49.25
100
AcDbArc
 50
64.11614830203902
 51
70.4416716493928
  0
ARC
  5
24D
330
22
100
AcDbEntity
  8
0
  6
Continuous
 62
     7
100
AcDbCircle
 10
-392.6636047363281
 20
213.3679351806641
 30
0.0
 40
49.25
100
AcDbArc
 50
50.99106486017674
 51
58.13505848520673
  0
ARC
  5
24E
330
22
100
AcDbEntity
  8
0
  6
Continuous
 62
     7
100
AcDbCircle
 10
-392.6636047363281
 20
213.3679351806641
 30
0.0
 40
49.25
100
AcDbArc
 50
98.17123103688651
 51
104.1023526750429
  0
ARC
  5
24F
330
22
100
AcDbEntity
  8
0
  6
Continuous
 62
     7
100
AcDbCircle
 10
-392.6636047363281
 20
213.3679351806641
 30
0.0
 40
49.25
100
AcDbArc
 50
121.8649415147933
 51
129.0089351398233
  0
ARC
  5
250
330
22
100
AcDbEntity
  8
0
  6
Continuous
 62
     7
100
AcDbCircle
 10
-392.6636047363281
 20
213.3679351806641
 30
0.0
 40
49.25
100
AcDbArc
 50
109.5583618052224
 51
115.883851697961
  0
ARC
  5
251
330
22
100
AcDbEntity
  8
0
  6
Continuous
 62
     7
100
AcDbCircle
 10
-392.6636047363281
 20
213.3679351806641
 30
0.0
 40
49.25
100
AcDbArc
 50
87.09033436837739
 51
90.00000000000019
  0
ARC
  5
252
330
22
100
AcDbEntity
  8
0
  6
Continuous
 62
     7
100
AcDbCircle
 10
-392.6636047363281
 20
213.3679351806641
 30
0.0
 40
49.25
100
AcDbArc
 50
90.00000000000019
 51
92.90966563162262
  0
ARC
  5
253
330
22
100
AcDbEntity
  8
0
  6
Continuous
 62
     7
100
AcDbCircle
 10
-346.6636047363281
 20
227.9653015136719
 30
0.0
 40
1.0
100
AcDbArc
 50
26.03174796351784
 51
180.0000000000004
  0
ARC
  5
254
330
22
100
AcDbEntity
  8
0
  6
Continuous
 62
     7
100
AcDbCircle
 10
-438.6636047363281
 20
198.7705688476563
 30
0.0
 40
1.0
100
AcDbArc
 50
206.0317479635185
 51
0.0
  0
ARC
  5
255
330
22
100
AcDbEntity
  8
0
  6
Continuous
 62
     7
100
AcDbCircle
 10
-392.6636047363281
 20
213.3679351806641
 30
0.0
 40
49.25
100
AcDbArc
 50
214.68076828432
 51
223.8784227651543
  0
ARC
  5
256
330
22
100
AcDbEntity
  8
0
  6
Continuous
 62
     7
100
AcDbCircle
 10
-411.6763610839844
 20
202.2304534912109
 30
0.0
 40
2.5
100
AcDbArc
 50
180.0000000000004
 51
0.0
  0
ARC
  5
257
330
22
100
AcDbEntity
  8
0
  6
Continuous
 62
     7
100
AcDbCircle
 10
-430.6763610839843
 20
198.6083984375
 30
0.0
 40
2.5
100
AcDbArc
 50
0.0
 51
180.0000000000004
  0
ARC
  5
258
330
22
100
AcDbEntity
  8
0
  6
Continuous
 62
     7
100
AcDbCircle
 10
-392.6636047363281
 20
213.3679351806641
 30
0.0
 40
49.25
100
AcDbArc
 50
244.1161483020397
 51
250.4416322521454
  0
ARC
  5
259
330
22
100
AcDbEntity
  8
0
  6
Continuous
 62
     7
100
AcDbCircle
 10
-392.6636047363281
 20
213.3679351806641
 30
0.0
 40
49.25
100
AcDbArc
 50
230.9910648601775
 51
238.1350584852074
  0
ARC
  5
25A
330
22
100
AcDbEntity
  8
0
  6
Continuous
 62
     7
100
AcDbCircle
 10
-430.6763610839843
 20
208.1083984375
 30
0.0
 40
2.5
100
AcDbArc
 50
180.0000000000004
 51
0.0
  0
ARC
  5
25B
330
22
100
AcDbEntity
  8
0
  6
Continuous
 62
     7
100
AcDbCircle
 10
-392.6636047363281
 20
172.9811706542969
 30
0.0
 40
2.5
100
AcDbArc
 50
180.0000000000004
 51
270.0000000000005
  0
ARC
  5
25C
330
22
100
AcDbEntity
  8
0
  6
Continuous
 62
     7
100
AcDbCircle
 10
-392.6636047363281
 20
213.3679351806641
 30
0.0
 40
49.25
100
AcDbArc
 50
255.8976473249578
 51
261.828766440051
  0
ARC
  5
25D
330
22
100
AcDbEntity
  8
0
  6
Continuous
 62
     7
100
AcDbCircle
 10
-392.6636047363281
 20
188.6679382324219
 30
0.0
 40
2.5
100
AcDbArc
 50
90.00000000000019
 51
180.0000000000004
  0
ARC
  5
25E
330
22
100
AcDbEntity
  8
0
  6
Continuous
 62
     7
100
AcDbCircle
 10
-392.6636047363281
 20
198.1679382324219
 30
0.0
 40
2.5
100
AcDbArc
 50
180.0000000000004
 51
270.0000000000005
  0
ARC
  5
25F
330
22
100
AcDbEntity
  8
0
  6
Continuous
 62
     7
100
AcDbCircle
 10
-411.6763610839844
 20
192.7432250976563
 30
0.0
 40
2.5
100
AcDbArc
 50
0.0
 51
180.0000000000004
  0
ARC
  5
260
330
22
100
AcDbEntity
  8
0
  6
Continuous
 62
     7
100
AcDbCircle
 10
-392.6636047363281
 20
172.9811706542969
 30
0.0
 40
2.5
100
AcDbArc
 50
270.0000000000005
 51
0.0
  0
ARC
  5
261
330
22
100
AcDbEntity
  8
0
  6
Continuous
 62
     7
100
AcDbCircle
 10
-392.6636047363281
 20
188.6679382324219
 30
0.0
 40
2.5
100
AcDbArc
 50
0.0
 51
90.00000000000019
  0
ARC
  5
262
330
22
100
AcDbEntity
  8
0
  6
Continuous
 62
     7
100
AcDbCircle
 10
-346.6636047363281
 20
198.7705688476563
 30
0.0
 40
1.0
100
AcDbArc
 50
180.0000000000004
 51
333.9682520364829
  0
ARC
  5
263
330
22
100
AcDbEntity
  8
0
  6
Continuous
 62
     7
100
AcDbCircle
 10
-354.65087890625
 20
208.1083984375
 30
0.0
 40
2.5
100
AcDbArc
 50
180.0000000000004
 51
0.0
  0
ARC
  5
264
330
22
100
AcDbEntity
  8
0
  6
Continuous
 62
     7
100
AcDbCircle
 10
-392.6636047363281
 20
213.3679351806641
 30
0.0
 40
49.25
100
AcDbArc
 50
316.1215772348471
 51
325.3192317156814
  0
ARC
  5
265
330
22
100
AcDbEntity
  8
0
  6
Continuous
 62
     7
100
AcDbCircle
 10
-354.65087890625
 20
198.6083984375
 30
0.0
 40
2.5
100
AcDbArc
 50
0.0
 51
180.0000000000004
  0
ARC
  5
266
330
22
100
AcDbEntity
  8
0
  6
Continuous
 62
     7
100
AcDbCircle
 10
-373.65087890625
 20
202.2304534912109
 30
0.0
 40
2.5
100
AcDbArc
 50
180.0000000000004
 51
0.0
  0
ARC
  5
267
330
22
100
AcDbEntity
  8
0
  6
Continuous
 62
     7
100
AcDbCircle
 10
-373.6636047363281
 20
192.7432250976563
 30
0.0
 40
2.5
100
AcDbArc
 50
0.0
 51
180.0000000000004
  0
ARC
  5
268
330
22
100
AcDbEntity
  8
0
  6
Continuous
 62
     7
100
AcDbCircle
 10
-392.6636047363281
 20
213.3679351806641
 30
0.0
 40
49.25
100
AcDbArc
 50
289.5583342932322
 51
295.8838516979617
  0
ARC
  5
269
330
22
100
AcDbEntity
  8
0
  6
Continuous
 62
     7
100
AcDbCircle
 10
-392.6636047363281
 20
213.3679351806641
 30
0.0
 40
49.25
100
AcDbArc
 50
301.8649415147939
 51
309.008935139824
  0
ARC
  5
26A
330
22
100
AcDbEntity
  8
0
  6
Continuous
 62
     7
100
AcDbCircle
 10
-392.6636047363281
 20
198.1679382324219
 30
0.0
 40
2.5
100
AcDbArc
 50
270.0000000000005
 51
0.0
  0
CIRCLE
  5
26B
330
22
100
AcDbEntity
  8
0
  6
DASHED
 62
     7
100
AcDbCircle
 10
-392.6636047363281
 20
213.3679351806641
 30
0.0
 40
12.25314903259277
  0
CIRCLE
  5
26C
330
22
100
AcDbEntity
  8
0
  6
Continuous
 62
     7
100
AcDbCircle
 10
-392.6636047363281
 20
213.3679351806641
 30
0.0
 40
65.0
  0
CIRCLE
  5
26D
330
22
100
AcDbEntity
  8
0
  6
Continuous
 62
     7
100
AcDbCircle
 10
-392.6636047363281
 20
213.3679351806641
 30
0.0
 40
55.0
  0
CIRCLE
  5
26E
330
22
100
AcDbEntity
  8
0
  6
Continuous
 62
     7
100
AcDbCircle
 10
-392.6636047363281
 20
213.3679351806641
 30
0.0
 40
54.5
  0
CIRCLE
  5
26F
330
22
100
AcDbEntity
  8
0
  6
Continuous
 62
     7
100
AcDbCircle
 10
-392.6636047363281
 20
213.3679351806641
 30
0.0
 40
69.0
  0
ARC
  5
270
330
22
100
AcDbEntity
  8
0
  6
Continuous
 62
     7
100
AcDbCircle
 10
-364.1636047363281
 20
208.4969329833984
 30
0.0
 40
2.5
100
AcDbArc
 50
0.0
 51
180.0000000000004
  0
ARC
  5
271
330
22
100
AcDbEntity
  8
0
  6
Continuous
 62
     7
100
AcDbCircle
 10
-392.6636047363281
 20
213.3679351806641
 30
0.0
 40
49.25
100
AcDbArc
 50
180.0000000000004
 51
197.776472358131
  0
ARC
  5
272
330
22
100
AcDbEntity
  8
0
  6
Continuous
 62
     7
100
AcDbCircle
 10
-421.1636047363281
 20
208.6179351806641
 30
0.0
 40
2.5
100
AcDbArc
 50
0.0
 51
180.0000000000004
  0
ARC
  5
273
330
22
100
AcDbEntity
  8
0
  6
Continuous
 62
     7
100
AcDbCircle
 10
-402.1636047363281
 20
208.6179351806641
 30
0.0
 40
2.5
100
AcDbArc
 50
0.0
 51
180.0000000000004
  0
ARC
  5
274
330
22
100
AcDbEntity
  8
0
  6
Continuous
 62
     7
100
AcDbCircle
 10
-392.6636047363281
 20
213.3679351806641
 30
0.0
 40
49.25
100
AcDbArc
 50
162.2235276418697
 51
180.0000000000004
  0
ARC
  5
275
330
22
100
AcDbEntity
  8
0
  6
Continuous
 62
     7
100
AcDbCircle
 10
-383.1636047363281
 20
208.6179351806641
 30
0.0
 40
2.5
100
AcDbArc
 50
0.0
 51
180.0000000000004
  0
ARC
  5
276
330
22
100
AcDbEntity
  8
0
  6
Continuous
 62
     7
100
AcDbCircle
 10
-235.9337768554688
 20
277.3679504394531
 30
0.0
 40
1.0
100
AcDbArc
 50
0.0
 51
90.00000000000019
  0
ARC
  5
277
330
22
100
AcDbEntity
  8
0
  6
Continuous
 62
     7
100
AcDbCircle
 10
-237.9337768554688
 20
277.3679504394531
 30
0.0
 40
1.0
100
AcDbArc
 50
90.00000000000019
 51
180.0000000000004
  0
ARC
  5
278
330
22
100
AcDbEntity
  8
0
  6
Continuous
 62
     7
100
AcDbCircle
 10
-237.9337768554688
 20
149.3679351806641
 30
0.0
 40
1.0
100
AcDbArc
 50
180.0000000000004
 51
270.0000000000005
  0
ARC
  5
279
330
22
100
AcDbEntity
  8
0
  6
Continuous
 62
     7
100
AcDbCircle
 10
-235.9337768554688
 20
149.3679351806641
 30
0.0
 40
1.0
100
AcDbArc
 50
270.0000000000005
 51
0.0
  0
ARC
  5
27A
330
22
100
AcDbEntity
  8
0
  6
Continuous
 62
     7
100
AcDbCircle
 10
-392.6636047363281
 20
213.3679351806641
 30
0.0
 40
49.25
100
AcDbArc
 50
0.0
 51
17.77647235813035
  0
ARC
  5
27B
330
22
100
AcDbEntity
  8
0
  6
Continuous
 62
     7
100
AcDbCircle
 10
-392.6636047363281
 20
213.3679351806641
 30
0.0
 40
49.25
100
AcDbArc
 50
342.2235276418704
 51
0.0
  0
TEXT
  5
27C
330
22
100
AcDbEntity
  8
0
  6
Continuous
 62
     7
100
AcDbText
 10
-313.029839515686
 20
70.71831512451172
 30
0.0
 40
7.0
  1
DL-CU25
 41
1.007000071661813
100
AcDbText
  0
DIMENSION
  5
27D
330
22
100
AcDbEntity
  8
0
  6
Continuous
 62
     7
100
AcDbDimension
  2
*D1
 10
-158.9337768554688
 20
318.9088439941406
 30
0.0
 11
-198.9337768554688
 21
318.9088439941406
 31
0.0
 71
     5
 42
-1.0
  3
DIMSTYLE1
100
AcDbAlignedDimension
 13
-238.9337768554689
 23
277.3679504394531
 33
0.0
 14
-158.9337768554688
 24
280.3679504394531
 34
0.0
100
AcDbRotatedDimension
  0
DIMENSION
  5
27E
330
22
100
AcDbEntity
  8
0
  6
Continuous
 62
     7
100
AcDbDimension
  2
*D2
 10
-155.4337768554688
 20
318.9088439941406
 30
0.0
 11
-145.2686767578125
 21
318.9088439941406
 31
0.0
 71
     5
 42
-1.0
  3
DIMSTYLE2
100
AcDbAlignedDimension
 13
-158.9337768554688
 23
321.1948547363281
 33
0.0
 14
-155.4337768554688
 24
281.8679504394531
 34
0.0
100
AcDbRotatedDimension
  0
DIMENSION
  5
27F
330
22
100
AcDbEntity
  8
0
  6
Continuous
 62
     7
100
AcDbDimension
  2
*D3
 10
-188.9337768554688
 20
308.0862426757813
 30
0.0
 11
-173.9337768554688
 21
308.0862426757813
 31
0.0
 71
     5
 42
-1.0
  3
DIMSTYLE3
100
AcDbAlignedDimension
 13
-158.9337768554688
 23
321.1948547363281
 33
0.0
 14
-188.9337768554688
 24
231.3679351806641
 34
0.0
100
AcDbRotatedDimension
  0
DIMENSION
  5
280
330
22
100
AcDbEntity
  8
0
  6
Continuous
 62
     7
100
AcDbDimension
  2
*D4
 10
-168.9337768554688
 20
219.6026916503906
 30
0.0
 11
-216.9529571533203
 21
219.6026916503906
 31
0.0
 71
     5
 42
-1.0
  3
DIMSTYLE4
100
AcDbAlignedDimension
 13
-238.9337768554689
 23
213.3679351806641
 33
0.0
 14
-168.9337768554688
 24
213.3679351806641
 34
0.0
100
AcDbRotatedDimension
  0
DIMENSION
  5
281
330
22
100
AcDbEntity
  8
0
  6
Continuous
 62
     7
100
AcDbDimension
  2
*D5
 10
-133.9337768554688
 20
123.5740280151367
 30
0.0
 11
-161.4337768554688
 21
123.5740280151367
 31
0.0
 71
     5
 42
-1.0
  3
DIMSTYLE5
100
AcDbAlignedDimension
 13
-188.9337768554688
 23
195.3679351806641
 33
0.0
 14
-133.9337768554688
 24
194.3679351806641
 34
0.0
100
AcDbRotatedDimension
  0
DIMENSION
  5
282
330
22
100
AcDbEntity
  8
0
  6
Continuous
 62
     7
100
AcDbDimension
  2
*D6
 10
-109.801155090332
 20
233.3679351806641
 30
0.0
 11
-109.801155090332
 21
213.3679351806641
 31
0.0
 71
     5
 42
-1.0
  3
DIMSTYLE6
100
AcDbAlignedDimension
 13
-134.9337768554688
 23
193.3679351806641
 33
0.0
 14
-134.9337768554688
 24
233.3679351806641
 34
0.0
 50
90.0
100
AcDbRotatedDimension
  0
INSERT
  5
283
330
22
100
AcDbEntity
  8
0
  6
Continuous
 62
     7
100
AcDbBlockReference
  2
KOZU0001
 10
-144.6512145996094
 20
229.6575012207031
 30
0.0
  0
DIMENSION
  5
284
330
22
100
AcDbEntity
  8
0
  6
Continuous
 62
     7
100
AcDbDimension
  2
*D7
 10
-137.9324035644531
 20
181.3679351806641
 30
0.0
 11
-137.9324035644531
 21
187.3679351806641
 31
0.0
 71
     5
 42
-1.0
  3
DIMSTYLE7
100
AcDbAlignedDimension
 13
-134.9337768554688
 23
193.3679351806641
 33
0.0
 14
-153.9320831298828
 24
181.3679351806641
 34
0.0
 50
90.0
100
AcDbRotatedDimension
  0
DIMENSION
  5
285
330
22
100
AcDbEntity
  8
0
  6
Continuous
 62
     7
100
AcDbDimension
  2
*D8
 10
-143.4337768554688
 20
171.5690155029297
 30
0.0
 11
-149.4337768554688
 21
171.5690155029297
 31
0.0
 71
     5
 42
-1.0
  3
DIMSTYLE8
100
AcDbAlignedDimension
 13
-155.4337768554688
 23
144.8679351806641
 33
0.0
 14
-143.4337768554688
 24
191.8810577392578
 34
0.0
100
AcDbRotatedDimension
  0
INSERT
  5
286
330
22
100
AcDbEntity
  8
0
  6
Continuous
 62
     7
100
AcDbBlockReference
  2
KOZU0002
 10
-151.182373046875
 20
188.667236328125
 30
0.0
  0
DIMENSION
  5
287
330
22
100
AcDbEntity
  8
0
  6
Continuous
 62
     7
100
AcDbDimension
  2
*D9
 10
-419.8705569274045
 20
149.9583006408523
 30
0.0
 11
-355.7966613769531
 21
299.2915649414063
 31
0.0
 70
     3
 71
     5
 42
-1.0
  3
DIMSTYLE9
100
AcDbDiametricDimension
 15
-365.4566525452519
 25
276.7775697204758
 35
0.0
 40
0.0
  0
DIMENSION
  5
288
330
22
100
AcDbEntity
  8
0
  6
Continuous
 62
     7
100
AcDbDimension
  2
*D10
 10
-432.4624810698436
 20
161.9767935063488
 30
0.0
 11
-336.9273071289063
 21
285.338623046875
 31
0.0
 70
     3
 71
     5
 42
-1.0
  3
DIMSTYLE10
100
AcDbDiametricDimension
 15
-352.8647284028127
 25
264.7590768549793
 35
0.0
 40
0.0
  0
DIMENSION
  5
289
330
22
100
AcDbEntity
  8
0
  6
Continuous
 62
     7
100
AcDbDimension
  2
*D11
 10
-434.5155869903725
 20
178.4586014516002
 30
0.0
 11
-324.2455139160156
 21
270.4364318847656
 31
0.0
 70
     3
 71
     5
 42
-1.0
  3
DIMSTYLE11
100
AcDbDiametricDimension
 15
-350.8116224822838
 25
248.2772689097279
 35
0.0
 40
0.0
  0
ENDSEC
  0
SECTION
  2
OBJECTS
  0
DICTIONARY
  5
C
330
0
100
AcDbDictionary
281
     1
  3
ACAD_COLOR
350
1B
  3
ACAD_GROUP
350
D
  3
ACAD_LAYOUT
350
19
  3
ACAD_MATERIAL
350
1A
  3
ACAD_MLINESTYLE
350
16
  3
ACAD_PLOTSETTINGS
350
18
  3
ACAD_PLOTSTYLENAME
350
E
  3
ACAD_TABLESTYLE
350
1C
  3
AcDbVariableDictionary
350
295
  0
DICTIONARY
  5
1B
102
{ACAD_REACTORS
330
C
102
}
330
C
100
AcDbDictionary
281
     1
  0
DICTIONARY
  5
D
102
{ACAD_REACTORS
330
C
102
}
330
C
100
AcDbDictionary
281
     1
  0
DICTIONARY
  5
19
102
{ACAD_REACTORS
330
C
102
}
330
C
100
AcDbDictionary
281
     1
  3
Model
350
25
  3
レイアウト1
350
21
  0
DICTIONARY
  5
1A
102
{ACAD_REACTORS
330
C
102
}
330
C
100
AcDbDictionary
281
     1
  0
DICTIONARY
  5
16
102
{ACAD_REACTORS
330
C
102
}
330
C
100
AcDbDictionary
281
     1
  3
Standard
350
17
  0
DICTIONARY
  5
18
102
{ACAD_REACTORS
330
C
102
}
330
C
100
AcDbDictionary
281
     1
  0
ACDBDICTIONARYWDFLT
  5
E
102
{ACAD_REACTORS
330
C
102
}
330
C
100
AcDbDictionary
281
     1
  3
Normal
350
F
100
AcDbDictionaryWithDefault
340
F
  0
DICTIONARY
  5
1C
102
{ACAD_REACTORS
330
C
102
}
330
C
100
AcDbDictionary
281
     1
  3
Standard
350
1D
  0
DICTIONARY
  5
295
102
{ACAD_REACTORS
330
C
102
}
330
C
100
AcDbDictionary
281
     1
  3
CTABLESTYLE
350
296
  0
LAYOUT
  5
25
102
{ACAD_REACTORS
330
19
102
}
330
19
100
AcDbPlotSettings
  1

  2
PDF reDirect v2
  4
User66
  6

 40
3.174999952316284
 41
3.174999952316284
 42
3.17498779296875
 43
3.17498779296875
 44
420.0
 45
594.0
 46
0.0
 47
0.0
 48
0.0
 49
0.0
140
0.0
141
0.0
142
1.0
143
1.0
 70
 11952
 72
     1
 73
     1
 74
     2
  7
C:\Users\ck\AppData\Roaming\Autodesk\AutoCAD 2005\R16.1\jpn\Plot Styles\black.ctb
 75
    16
147
1.0
 76
     0
 77
     2
 78
   300
148
592.0
149
0.0
100
AcDbLayout
  1
Model
 70
     1
 71
     0
 10
0.0
 20
0.0
 11
12.0
 21
9.0
 12
0.0
 22
0.0
 32
0.0
 14
0.0
 24
0.0
 34
0.0
 15
0.0
 25
0.0
 35
0.0
146
0.0
 13
0.0
 23
0.0
 33
0.0
 16
1.0
 26
0.0
 36
0.0
 17
0.0
 27
1.0
 37
0.0
 76
     0
330
22
1001
ACAD_PSEXT
1000
PDF reDirect v2
1000
PDF reDirect Pro
1000
PDF_REDIRECT_PORT:
1000
PDF reDirect provided by EXP Systems
1070
     0
  0
LAYOUT
  5
21
102
{ACAD_REACTORS
330
19
102
}
330
19
100
AcDbPlotSettings
  1

  2
PDF reDirect v2
  4

  6

 40
0.0
 41
0.0
 42
0.0
 43
0.0
 44
0.0
 45
0.0
 46
0.0
 47
0.0
 48
0.0
 49
0.0
140
0.0
141
0.0
142
1.0
143
1.0
 70
   688
 72
     0
 73
     0
 74
     5
  7
C:\Users\ck\AppData\Roaming\Autodesk\AutoCAD 2005\R16.1\jpn\Plot Styles\black.ctb
 75
    16
147
1.0
 76
     0
 77
     2
 78
   300
148
0.0
149
0.0
100
AcDbLayout
  1
レイアウト1
 70
     1
 71
     1
 10
-592.0
 20
0.0
 11
0.0
 21
418.0
 12
0.0
 22
0.0
 32
0.0
 14
1.000000000000000E+20
 24
1.000000000000000E+20
 34
1.000000000000000E+20
 15
-1.000000000000000E+20
 25
-1.000000000000000E+20
 35
-1.000000000000000E+20
146
0.0
 13
0.0
 23
0.0
 33
0.0
 16
1.0
 26
0.0
 36
0.0
 17
0.0
 27
1.0
 37
0.0
 76
     0
330
1E
  0
MLINESTYLE
  5
17
102
{ACAD_REACTORS
330
16
102
}
330
16
100
AcDbMlineStyle
  2
STANDARD
 70
     0
  3

 62
   256
 51
90.0
 52
90.0
 71
     2
 49
0.5
 62
   256
  6
BYLAYER
 49
-0.5
 62
   256
  6
BYLAYER
  0
ACDBPLACEHOLDER
  5
F
102
{ACAD_REACTORS
330
E
102
}
330
E
  0
TABLESTYLE
  5
1D
102
{ACAD_REACTORS
330
1C
102
}
330
1C
100
AcDbTableStyle
  3
Standard
 70
     0
 71
     0
 40
0.06
 41
0.06
280
     0
281
     0
  7
STANDARD
140
0.18
170
     2
 62
     0
 63
     7
283
     0
274
    -2
284
     1
 64
     0
275
    -2
285
     1
 65
     0
276
    -2
286
     1
 66
     0
277
    -2
287
     1
 67
     0
278
    -2
288
     1
 68
     0
279
    -2
289
     1
 69
     0
  7
STANDARD
140
0.25
170
     5
 62
     0
 63
     7
283
     0
274
    -2
284
     1
 64
     0
275
    -2
285
     1
 65
     0
276
    -2
286
     1
 66
     0
277
    -2
287
     1
 67
     0
278
    -2
288
     1
 68
     0
279
    -2
289
     1
 69
     0
  7
STANDARD
140
0.18
170
     5
 62
     0
 63
     7
283
     0
274
    -2
284
     1
 64
     0
275
    -2
285
     1
 65
     0
276
    -2
286
     1
 66
     0
277
    -2
287
     1
 67
     0
278
    -2
288
     1
 68
     0
279
    -2
289
     1
 69
     0
  0
DICTIONARYVAR
  5
296
102
{ACAD_REACTORS
330
295
102
}
330
295
100
DictionaryVariables
280
     0
  1
STANDARD
  0
ENDSEC
  0
EOF
