  0
SECTION
  2
HEADER
  9
$ACADVER
  1
AC1018
  9
$ACADMAINTVER
 70
    39
  9
$DWGCODEPAGE
  3
ANSI_932
  9
$INSBASE
 10
0.0
 20
0.0
 30
0.0
  9
$EXTMIN
 10
-556.7434067837234
 20
39.43624979843889
 30
-0.0015258207003583
  9
$EXTMAX
 10
-49.89037953909747
 20
377.2243356425599
 30
0.0000000349246037
  9
$LIMMIN
 10
-592.0
 20
0.0
  9
$LIMMAX
 10
0.0
 20
418.0
  9
$ORTHOMODE
 70
     0
  9
$REGENMODE
 70
     1
  9
$FILLMODE
 70
     1
  9
$QTEXTMODE
 70
     0
  9
$MIRRTEXT
 70
     0
  9
$LTSCALE
 40
1.0
  9
$ATTMODE
 70
     1
  9
$TEXTSIZE
 40
0.2
  9
$TRACEWID
 40
0.05
  9
$TEXTSTYLE
  7
STANDARD
  9
$CLAYER
  8
0
  9
$CELTYPE
  6
CONTINUOUS
  9
$CECOLOR
 62
   256
  9
$CELTSCALE
 40
1.0
  9
$DISPSILH
 70
     0
  9
$DIMSCALE
 40
1.0
  9
$DIMASZ
 40
1.0
  9
$DIMEXO
 40
2.54
  9
$DIMDLI
 40
0.38
  9
$DIMRND
 40
0.0
  9
$DIMDLE
 40
0.0
  9
$DIMEXE
 40
2.54
  9
$DIMTP
 40
0.0
  9
$DIMTM
 40
0.0
  9
$DIMTXT
 40
3.0
  9
$DIMCEN
 40
0.09
  9
$DIMTSZ
 40
0.0
  9
$DIMTOL
 70
     0
  9
$DIMLIM
 70
     0
  9
$DIMTIH
 70
     0
  9
$DIMTOH
 70
     0
  9
$DIMSE1
 70
     0
  9
$DIMSE2
 70
     0
  9
$DIMTAD
 70
     1
  9
$DIMZIN
 70
     0
  9
$DIMBLK
  1

  9
$DIMASO
 70
     1
  9
$DIMSHO
 70
     0
  9
$DIMPOST
  1

  9
$DIMAPOST
  1

  9
$DIMALT
 70
     0
  9
$DIMALTD
 70
     2
  9
$DIMALTF
 40
25.4
  9
$DIMLFAC
 40
1.0
  9
$DIMTOFL
 70
     0
  9
$DIMTVP
 40
1.0
  9
$DIMTIX
 70
     0
  9
$DIMSOXD
 70
     0
  9
$DIMSAH
 70
     1
  9
$DIMBLK1
  1

  9
$DIMBLK2
  1

  9
$DIMSTYLE
  2
DIMSTYLE1
  9
$DIMCLRD
 70
     0
  9
$DIMCLRE
 70
     0
  9
$DIMCLRT
 70
     0
  9
$DIMTFAC
 40
1.0
  9
$DIMGAP
 40
1.5
  9
$DIMJUST
 70
     0
  9
$DIMSD1
 70
     0
  9
$DIMSD2
 70
     0
  9
$DIMTOLJ
 70
     1
  9
$DIMTZIN
 70
     0
  9
$DIMALTZ
 70
     0
  9
$DIMALTTZ
 70
     0
  9
$DIMUPT
 70
     0
  9
$DIMDEC
 70
     4
  9
$DIMTDEC
 70
     4
  9
$DIMALTU
 70
     2
  9
$DIMALTTD
 70
     2
  9
$DIMTXSTY
  7
STANDARD
  9
$DIMAUNIT
 70
     0
  9
$DIMADEC
 70
     0
  9
$DIMALTRND
 40
0.0
  9
$DIMAZIN
 70
     0
  9
$DIMDSEP
 70
    46
  9
$DIMATFIT
 70
     3
  9
$DIMFRAC
 70
     0
  9
$DIMLDRBLK
  1

  9
$DIMLUNIT
 70
     2
  9
$DIMLWD
 70
    -2
  9
$DIMLWE
 70
    -2
  9
$DIMTMOVE
 70
     0
  9
$LUNITS
 70
     2
  9
$LUPREC
 70
     4
  9
$SKETCHINC
 40
0.1
  9
$FILLETRAD
 40
0.0
  9
$AUNITS
 70
     0
  9
$AUPREC
 70
     0
  9
$MENU
  1
.
  9
$ELEVATION
 40
0.0
  9
$PELEVATION
 40
0.0
  9
$THICKNESS
 40
0.0
  9
$LIMCHECK
 70
     0
  9
$CHAMFERA
 40
0.0
  9
$CHAMFERB
 40
0.0
  9
$CHAMFERC
 40
0.0
  9
$CHAMFERD
 40
0.0
  9
$SKPOLY
 70
     0
  9
$TDCREATE
 40
2457701.451789688
  9
$TDUCREATE
 40
2457701.076789688
  9
$TDUPDATE
 40
2457701.452417893
  9
$TDUUPDATE
 40
2457701.077417894
  9
$TDINDWG
 40
0.0006294792
  9
$TDUSRTIMER
 40
0.0006294792
  9
$USRTIMER
 70
     1
  9
$ANGBASE
 50
0.0
  9
$ANGDIR
 70
     0
  9
$PDMODE
 70
     0
  9
$PDSIZE
 40
0.0
  9
$PLINEWID
 40
0.0
  9
$SPLFRAME
 70
     0
  9
$SPLINETYPE
 70
     6
  9
$SPLINESEGS
 70
     8
  9
$HANDSEED
  5
368
  9
$SURFTAB1
 70
     6
  9
$SURFTAB2
 70
     6
  9
$SURFTYPE
 70
     6
  9
$SURFU
 70
     6
  9
$SURFV
 70
     6
  9
$UCSBASE
  2

  9
$UCSNAME
  2

  9
$UCSORG
 10
0.0
 20
0.0
 30
0.0
  9
$UCSXDIR
 10
1.0
 20
0.0
 30
0.0
  9
$UCSYDIR
 10
0.0
 20
1.0
 30
0.0
  9
$UCSORTHOREF
  2

  9
$UCSORTHOVIEW
 70
     0
  9
$UCSORGTOP
 10
0.0
 20
0.0
 30
0.0
  9
$UCSORGBOTTOM
 10
0.0
 20
0.0
 30
0.0
  9
$UCSORGLEFT
 10
0.0
 20
0.0
 30
0.0
  9
$UCSORGRIGHT
 10
0.0
 20
0.0
 30
0.0
  9
$UCSORGFRONT
 10
0.0
 20
0.0
 30
0.0
  9
$UCSORGBACK
 10
0.0
 20
0.0
 30
0.0
  9
$PUCSBASE
  2

  9
$PUCSNAME
  2

  9
$PUCSORG
 10
0.0
 20
0.0
 30
0.0
  9
$PUCSXDIR
 10
1.0
 20
0.0
 30
0.0
  9
$PUCSYDIR
 10
0.0
 20
1.0
 30
0.0
  9
$PUCSORTHOREF
  2

  9
$PUCSORTHOVIEW
 70
     0
  9
$PUCSORGTOP
 10
0.0
 20
0.0
 30
0.0
  9
$PUCSORGBOTTOM
 10
0.0
 20
0.0
 30
0.0
  9
$PUCSORGLEFT
 10
0.0
 20
0.0
 30
0.0
  9
$PUCSORGRIGHT
 10
0.0
 20
0.0
 30
0.0
  9
$PUCSORGFRONT
 10
0.0
 20
0.0
 30
0.0
  9
$PUCSORGBACK
 10
0.0
 20
0.0
 30
0.0
  9
$USERI1
 70
     0
  9
$USERI2
 70
     0
  9
$USERI3
 70
     0
  9
$USERI4
 70
     0
  9
$USERI5
 70
     0
  9
$USERR1
 40
0.0
  9
$USERR2
 40
0.0
  9
$USERR3
 40
0.0
  9
$USERR4
 40
0.0
  9
$USERR5
 40
0.0
  9
$WORLDVIEW
 70
     1
  9
$SHADEDGE
 70
     3
  9
$SHADEDIF
 70
    70
  9
$TILEMODE
 70
     1
  9
$MAXACTVP
 70
    64
  9
$PINSBASE
 10
0.0
 20
0.0
 30
0.0
  9
$PLIMCHECK
 70
     0
  9
$PEXTMIN
 10
1.000000000000000E+20
 20
1.000000000000000E+20
 30
1.000000000000000E+20
  9
$PEXTMAX
 10
-1.000000000000000E+20
 20
-1.000000000000000E+20
 30
-1.000000000000000E+20
  9
$PLIMMIN
 10
-592.0
 20
0.0
  9
$PLIMMAX
 10
0.0
 20
418.0
  9
$UNITMODE
 70
     0
  9
$VISRETAIN
 70
     1
  9
$PLINEGEN
 70
     0
  9
$PSLTSCALE
 70
     1
  9
$TREEDEPTH
 70
  3020
  9
$CMLSTYLE
  2
Standard
  9
$CMLJUST
 70
     0
  9
$CMLSCALE
 40
1.0
  9
$PROXYGRAPHICS
 70
     1
  9
$MEASUREMENT
 70
     0
  9
$CELWEIGHT
370
    -1
  9
$ENDCAPS
280
     0
  9
$JOINSTYLE
280
     0
  9
$LWDISPLAY
290
     0
  9
$INSUNITS
 70
     0
  9
$HYPERLINKBASE
  1

  9
$STYLESHEET
  1

  9
$XEDIT
290
     1
  9
$CEPSNTYPE
380
     0
  9
$PSTYLEMODE
290
     1
  9
$FINGERPRINTGUID
  2
{7C4620F0-4F4B-49FF-8E1E-4321FCF4E88B}
  9
$VERSIONGUID
  2
{1B732485-4F32-46FA-9B65-D2D9F32BA280}
  9
$EXTNAMES
290
     1
  9
$PSVPSCALE
 40
0.0
  9
$OLESTARTUP
290
     0
  9
$SORTENTS
280
   127
  9
$INDEXCTL
280
     0
  9
$HIDETEXT
280
     0
  9
$XCLIPFRAME
290
     0
  9
$HALOGAP
280
     0
  9
$OBSCOLOR
 70
   257
  9
$OBSLTYPE
280
     0
  9
$INTERSECTIONDISPLAY
280
     0
  9
$INTERSECTIONCOLOR
 70
   257
  9
$DIMASSOC
280
     1
  9
$PROJECTNAME
  1

  0
ENDSEC
  0
SECTION
  2
CLASSES
  0
CLASS
  1
ACDBDICTIONARYWDFLT
  2
AcDbDictionaryWithDefault
  3
ObjectDBX Classes
 90
        0
 91
        1
280
     0
281
     0
  0
CLASS
  1
TABLESTYLE
  2
AcDbTableStyle
  3
ObjectDBX Classes
 90
     2047
 91
        1
280
     0
281
     0
  0
CLASS
  1
DICTIONARYVAR
  2
AcDbDictionaryVar
  3
ObjectDBX Classes
 90
        0
 91
        1
280
     0
281
     0
  0
ENDSEC
  0
SECTION
  2
TABLES
  0
TABLE
  2
VPORT
  5
8
330
0
100
AcDbSymbolTable
 70
     2
  0
VPORT
  5
367
330
8
100
AcDbSymbolTableRecord
100
AcDbViewportTableRecord
  2
*Active
 70
     0
 10
0.0
 20
0.0
 11
1.0
 21
1.0
 12
-296.0
 22
209.0
 13
0.0
 23
0.0
 14
1.0
 24
1.0
 15
0.0
 25
0.0
 16
0.0
 26
0.0
 36
1.0
 17
0.0
 27
0.0
 37
0.0
 40
421.2999999999999
 41
1.56258234519104
 42
50.0
 43
0.0
 44
0.0
 50
0.0
 51
0.0
 71
     0
 72
   100
 73
     1
 74
     1
 75
     0
 76
     0
 77
     0
 78
     0
281
     0
 65
     1
110
0.0
120
0.0
130
0.0
111
1.0
121
0.0
131
0.0
112
0.0
122
1.0
132
0.0
 79
     0
146
0.0
  0
ENDTAB
  0
TABLE
  2
LTYPE
  5
5
330
0
100
AcDbSymbolTable
 70
     6
  0
LTYPE
  5
13
330
5
100
AcDbSymbolTableRecord
100
AcDbLinetypeTableRecord
  2
ByBlock
 70
     0
  3

 72
    65
 73
     0
 40
0.0
  0
LTYPE
  5
14
330
5
100
AcDbSymbolTableRecord
100
AcDbLinetypeTableRecord
  2
ByLayer
 70
     0
  3

 72
    65
 73
     0
 40
0.0
  0
LTYPE
  5
15
330
5
100
AcDbSymbolTableRecord
100
AcDbLinetypeTableRecord
  2
CONTINUOUS
 70
     0
  3
Solid line
 72
    65
 73
     0
 40
0.0
  0
LTYPE
  5
26
330
5
100
AcDbSymbolTableRecord
100
AcDbLinetypeTableRecord
  2
DASHED
 70
     0
  3
__ __ __ __ __ __ __ __ __ __ __ __ __ __ __
 72
    65
 73
     2
 40
3.5
 49
2.0
 74
     0
 49
-1.5
 74
     0
  0
LTYPE
  5
27
330
5
100
AcDbSymbolTableRecord
100
AcDbLinetypeTableRecord
  2
CENTER
 70
     0
  3
____ _ ____ _ ____ _ ____ _ ____ _ ____ _ ____
 72
    65
 73
     4
 40
17.5
 49
13.0
 74
     0
 49
-1.5
 74
     0
 49
1.5
 74
     0
 49
-1.5
 74
     0
  0
LTYPE
  5
28
330
5
100
AcDbSymbolTableRecord
100
AcDbLinetypeTableRecord
  2
PHANTOM
 70
     0
  3
_____ _ _ _____ _ _ _____ _ _ _____ _ _ ____  
 72
    65
 73
     6
 40
15.5
 49
8.0
 74
     0
 49
-1.5
 74
     0
 49
1.5
 74
     0
 49
-1.5
 74
     0
 49
1.5
 74
     0
 49
-1.5
 74
     0
  0
LTYPE
  5
29
330
5
100
AcDbSymbolTableRecord
100
AcDbLinetypeTableRecord
  2
DOT
 70
     0
  3
. . . . . . . . . . . . . . . . . . . . . . . .
 72
    65
 73
     2
 40
0.25
 49
0.0
 74
     0
 49
-0.25
 74
     0
  0
LTYPE
  5
2A
330
5
100
AcDbSymbolTableRecord
100
AcDbLinetypeTableRecord
  2
HIDDEN
 70
     0
  3
__ __ __ __ __ __ __ __ __ __ __ __ __ __ __
 72
    65
 73
     2
 40
3.5
 49
2.0
 74
     0
 49
-1.5
 74
     0
  0
ENDTAB
  0
TABLE
  2
LAYER
  5
2
330
0
100
AcDbSymbolTable
 70
     2
  0
LAYER
  5
10
330
2
100
AcDbSymbolTableRecord
100
AcDbLayerTableRecord
  2
0
 70
     0
 62
     7
  6
CONTINUOUS
370
    -3
390
F
  0
LAYER
  5
2B
330
2
100
AcDbSymbolTableRecord
100
AcDbLayerTableRecord
  2
DEFPOINTS
 70
     0
 62
     7
  6
CONTINUOUS
290
     0
370
    -3
390
F
  0
ENDTAB
  0
TABLE
  2
STYLE
  5
3
330
0
100
AcDbSymbolTable
 70
     2
  0
STYLE
  5
11
330
3
100
AcDbSymbolTableRecord
100
AcDbTextStyleTableRecord
  2
STANDARD
 70
     0
 40
0.0
 41
1.0
 50
0.0
 71
     0
 42
0.2
  3

  4

1001
ACAD
1000
MS Gothic
1071
    32817
  0
ENDTAB
  0
TABLE
  2
VIEW
  5
6
330
0
100
AcDbSymbolTable
 70
     0
  0
ENDTAB
  0
TABLE
  2
UCS
  5
7
330
0
100
AcDbSymbolTable
 70
     0
  0
ENDTAB
  0
TABLE
  2
APPID
  5
9
330
0
100
AcDbSymbolTable
 70
     2
  0
APPID
  5
12
330
9
100
AcDbSymbolTableRecord
100
AcDbRegAppTableRecord
  2
ACAD
 70
     0
  0
APPID
  5
35C
330
9
100
AcDbSymbolTableRecord
100
AcDbRegAppTableRecord
  2
ACAD_PSEXT
 70
     0
  0
ENDTAB
  0
TABLE
  2
DIMSTYLE
  5
A
330
0
100
AcDbSymbolTable
 70
    12
100
AcDbDimStyleTable
 71
     1
340
2C
  0
DIMSTYLE
105
2C
102
{ACAD_REACTORS
330
34D
102
}
330
A
100
AcDbSymbolTableRecord
100
AcDbDimStyleTableRecord
  2
DIMSTYLE1
 70
     0
 41
1.0
 42
2.54
 44
2.54
 73
     0
 74
     0
 77
     1
140
3.0
145
1.0
147
1.5
172
     1
173
     1
279
     2
340
11
  0
DIMSTYLE
105
2D
102
{ACAD_REACTORS
330
34E
102
}
330
A
100
AcDbSymbolTableRecord
100
AcDbDimStyleTableRecord
  2
DIMSTYLE2
 70
     0
 41
1.0
 42
2.54
 44
2.54
 73
     0
 74
     0
 77
     1
140
3.0
145
1.0
147
1.5
172
     1
173
     1
279
     2
340
11
  0
DIMSTYLE
105
2E
102
{ACAD_REACTORS
330
34F
102
}
330
A
100
AcDbSymbolTableRecord
100
AcDbDimStyleTableRecord
  2
DIMSTYLE3
 70
     0
 41
1.0
 42
2.54
 44
2.54
 73
     0
 74
     0
 77
     1
140
3.0
145
1.0
147
1.5
172
     1
173
     1
279
     2
340
11
  0
DIMSTYLE
105
2F
102
{ACAD_REACTORS
330
350
102
}
330
A
100
AcDbSymbolTableRecord
100
AcDbDimStyleTableRecord
  2
DIMSTYLE4
 70
     0
 41
1.0
 42
2.54
 44
2.54
 73
     0
 74
     0
 77
     1
140
3.0
145
1.0
147
1.5
172
     1
173
     1
279
     2
340
11
  0
DIMSTYLE
105
30
102
{ACAD_REACTORS
330
352
102
}
330
A
100
AcDbSymbolTableRecord
100
AcDbDimStyleTableRecord
  2
DIMSTYLE5
 70
     0
 41
1.0
 42
2.54
 44
2.54
 73
     0
 74
     0
 77
     1
140
3.0
145
1.0
147
1.5
172
     1
173
     1
279
     2
340
11
  0
DIMSTYLE
105
31
102
{ACAD_REACTORS
330
353
102
}
330
A
100
AcDbSymbolTableRecord
100
AcDbDimStyleTableRecord
  2
DIMSTYLE6
 70
     0
 41
1.0
 42
2.54
 44
2.54
 73
     0
 74
     0
 77
     1
140
3.0
145
1.0
147
1.5
172
     1
173
     1
279
     2
340
11
  0
DIMSTYLE
105
32
102
{ACAD_REACTORS
330
354
102
}
330
A
100
AcDbSymbolTableRecord
100
AcDbDimStyleTableRecord
  2
DIMSTYLE7
 70
     0
 41
1.0
 42
2.54
 44
2.54
 73
     0
 74
     0
 77
     1
140
3.0
145
1.0
147
1.5
172
     1
173
     1
279
     2
340
11
  0
DIMSTYLE
105
33
102
{ACAD_REACTORS
330
356
102
}
330
A
100
AcDbSymbolTableRecord
100
AcDbDimStyleTableRecord
  2
DIMSTYLE8
 70
     0
 41
1.0
 42
2.54
 44
2.54
 73
     0
 74
     0
 77
     1
140
3.0
145
1.0
147
1.5
172
     1
173
     1
279
     2
340
11
  0
DIMSTYLE
105
34
102
{ACAD_REACTORS
330
357
102
}
330
A
100
AcDbSymbolTableRecord
100
AcDbDimStyleTableRecord
  2
DIMSTYLE9
 70
     0
 41
1.0
 42
2.54
 44
2.54
 73
     0
 74
     0
 75
     1
 76
     1
 77
     1
140
3.0
145
1.0
147
1.5
172
     1
173
     1
279
     2
340
11
  0
DIMSTYLE
105
35
102
{ACAD_REACTORS
330
358
102
}
330
A
100
AcDbSymbolTableRecord
100
AcDbDimStyleTableRecord
  2
DIMSTYLE10
 70
     0
 41
1.0
 42
2.54
 44
2.54
 73
     0
 74
     0
 75
     1
 76
     1
 77
     1
140
3.0
145
1.0
147
1.5
172
     1
173
     1
279
     2
340
11
  0
DIMSTYLE
105
36
102
{ACAD_REACTORS
330
359
102
}
330
A
100
AcDbSymbolTableRecord
100
AcDbDimStyleTableRecord
  2
DIMSTYLE11
 70
     0
 41
1.0
 42
2.54
 44
2.54
 73
     0
 74
     0
 75
     1
 76
     1
 77
     1
140
3.0
145
1.0
147
1.5
172
     1
173
     1
279
     2
340
11
  0
ENDTAB
  0
TABLE
  2
BLOCK_RECORD
  5
1
330
0
100
AcDbSymbolTable
 70
    15
  0
BLOCK_RECORD
  5
22
330
1
100
AcDbSymbolTableRecord
100
AcDbBlockTableRecord
  2
*Model_Space
340
25
  0
BLOCK_RECORD
  5
1E
330
1
100
AcDbSymbolTableRecord
100
AcDbBlockTableRecord
  2
*Paper_Space
340
21
  0
BLOCK_RECORD
  5
3A
330
1
100
AcDbSymbolTableRecord
100
AcDbBlockTableRecord
  2
_OPEN30
340
0
102
{BLKREFS
331
44
331
46
331
51
331
52
331
5D
331
5E
331
68
331
69
331
74
331
75
331
80
331
81
331
8B
331
8C
331
96
331
97
331
A1
331
A2
331
AB
331
AC
331
B5
331
B6
102
}
  0
BLOCK_RECORD
  5
40
330
1
100
AcDbSymbolTableRecord
100
AcDbBlockTableRecord
  2
*D1
340
0
  0
BLOCK_RECORD
  5
4E
330
1
100
AcDbSymbolTableRecord
100
AcDbBlockTableRecord
  2
*D2
340
0
  0
BLOCK_RECORD
  5
5A
330
1
100
AcDbSymbolTableRecord
100
AcDbBlockTableRecord
  2
*D3
340
0
  0
BLOCK_RECORD
  5
65
330
1
100
AcDbSymbolTableRecord
100
AcDbBlockTableRecord
  2
*D4
340
0
  0
BLOCK_RECORD
  5
71
330
1
100
AcDbSymbolTableRecord
100
AcDbBlockTableRecord
  2
*D5
340
0
  0
BLOCK_RECORD
  5
7D
330
1
100
AcDbSymbolTableRecord
100
AcDbBlockTableRecord
  2
*D6
340
0
  0
BLOCK_RECORD
  5
88
330
1
100
AcDbSymbolTableRecord
100
AcDbBlockTableRecord
  2
*D7
340
0
  0
BLOCK_RECORD
  5
93
330
1
100
AcDbSymbolTableRecord
100
AcDbBlockTableRecord
  2
*D8
340
0
  0
BLOCK_RECORD
  5
9D
330
1
100
AcDbSymbolTableRecord
100
AcDbBlockTableRecord
  2
*D9
340
0
  0
BLOCK_RECORD
  5
A7
330
1
100
AcDbSymbolTableRecord
100
AcDbBlockTableRecord
  2
*D10
340
0
  0
BLOCK_RECORD
  5
B1
330
1
100
AcDbSymbolTableRecord
100
AcDbBlockTableRecord
  2
*D11
340
0
  0
BLOCK_RECORD
  5
BB
330
1
100
AcDbSymbolTableRecord
100
AcDbBlockTableRecord
  2
KOZU0001
340
0
102
{BLKREFS
331
351
102
}
  0
BLOCK_RECORD
  5
C4
330
1
100
AcDbSymbolTableRecord
100
AcDbBlockTableRecord
  2
KOZU0002
340
0
102
{BLKREFS
331
355
102
}
  0
ENDTAB
  0
ENDSEC
  0
SECTION
  2
BLOCKS
  0
BLOCK
  5
23
330
22
100
AcDbEntity
  8
0
100
AcDbBlockBegin
  2
*Model_Space
 70
     0
 10
0.0
 20
0.0
 30
0.0
  3
*Model_Space
  1

  0
ENDBLK
  5
24
330
22
100
AcDbEntity
  8
0
100
AcDbBlockEnd
  0
BLOCK
  5
1F
330
1E
100
AcDbEntity
 67
     1
  8
0
100
AcDbBlockBegin
  2
*Paper_Space
 70
     0
 10
0.0
 20
0.0
 30
0.0
  3
*Paper_Space
  1

  0
ENDBLK
  5
20
330
1E
100
AcDbEntity
 67
     1
  8
0
100
AcDbBlockEnd
  0
BLOCK
  5
3B
330
3A
100
AcDbEntity
  8
0
100
AcDbBlockBegin
  2
_OPEN30
 70
     0
 10
0.0
 20
0.0
 30
0.0
  3
_OPEN30
  1

  0
LINE
  5
3C
330
3A
100
AcDbEntity
  8
0
  6
ByBlock
 62
     0
100
AcDbLine
 10
0.0
 20
0.0
 30
0.0
 11
-2.999999999999993
 21
-1.000000000000017
 31
0.0
  0
LINE
  5
3D
330
3A
100
AcDbEntity
  8
0
  6
ByBlock
 62
     0
100
AcDbLine
 10
0.0
 20
0.0
 30
0.0
 11
-3.000000000000006
 21
0.9999999999999815
 31
0.0
  0
LINE
  5
3E
330
3A
100
AcDbEntity
  8
0
  6
ByBlock
 62
     0
100
AcDbLine
 10
0.0
 20
0.0
 30
0.0
 11
-3.0
 21
0.0
 31
0.0
  0
ENDBLK
  5
3F
330
3A
100
AcDbEntity
  8
0
100
AcDbBlockEnd
  0
BLOCK
  5
41
330
40
100
AcDbEntity
  8
0
100
AcDbBlockBegin
  2
*D1
 70
     1
 10
0.0
 20
0.0
 30
0.0
  3
*D1
  1

  0
LINE
  5
42
330
40
100
AcDbEntity
  8
0
  6
Continuous
 62
     7
100
AcDbLine
 10
-135.4337768554688
 20
372.1805419921875
 30
0.0
 11
-121.5747909545898
 21
372.1805419921875
 31
0.0
  0
LINE
  5
43
330
40
100
AcDbEntity
  8
0
  6
Continuous
 62
     7
100
AcDbLine
 10
-138.9337768554687
 20
372.1805419921875
 30
0.0
 11
-135.4337768554688
 21
372.1805419921875
 31
0.0
  0
INSERT
  5
44
330
40
100
AcDbEntity
  8
0
  6
Continuous
 62
     7
100
AcDbBlockReference
  2
_OPEN30
 10
-138.9337768554687
 20
372.1805419921875
 30
0.0
 50
0.0000000000003562
  0
LINE
  5
45
330
40
100
AcDbEntity
  8
0
  6
Continuous
 62
     7
100
AcDbLine
 10
-141.9337768554688
 20
372.1805419921875
 30
0.0
 11
-145.2837768554687
 21
372.1805419921873
 31
0.0
  0
INSERT
  5
46
330
40
100
AcDbEntity
  8
0
  6
Continuous
 62
     7
100
AcDbBlockReference
  2
_OPEN30
 10
-135.4337768554688
 20
372.1805419921875
 30
0.0
 50
180.0
  0
LINE
  5
47
330
40
100
AcDbEntity
  8
0
  6
Continuous
 62
     7
100
AcDbLine
 10
-132.4337768554687
 20
372.1805419921875
 30
0.0
 11
-129.0837768554688
 21
372.1805419921875
 31
0.0
  0
LINE
  5
48
330
40
100
AcDbEntity
  8
0
  6
Continuous
 62
     7
100
AcDbLine
 10
-135.4337768554688
 20
332.9079504394532
 30
0.0
 11
-135.4337768554688
 21
374.4665222167969
 31
0.0
  0
TEXT
  5
49
330
40
100
AcDbEntity
  8
0
  6
Continuous
 62
     7
100
AcDbText
 10
-129.7147908210754
 20
372.9305419921875
 30
0.0
 40
3.0
  1
3.5
 41
1.356666684150696
100
AcDbText
  0
POINT
  5
4A
330
40
100
AcDbEntity
  8
DEFPOINTS
  6
Continuous
 62
     7
100
AcDbPoint
 10
-138.9337768554687
 20
374.4665222167969
 30
0.0
  0
POINT
  5
4B
330
40
100
AcDbEntity
  8
DEFPOINTS
  6
Continuous
 62
     7
100
AcDbPoint
 10
-135.4337768554688
 20
330.3679504394531
 30
0.0
  0
POINT
  5
4C
330
40
100
AcDbEntity
  8
DEFPOINTS
  6
Continuous
 62
     7
100
AcDbPoint
 10
-135.4337768554688
 20
372.1805419921875
 30
0.0
  0
ENDBLK
  5
4D
330
40
100
AcDbEntity
  8
0
100
AcDbBlockEnd
  0
BLOCK
  5
4F
330
4E
100
AcDbEntity
  8
0
100
AcDbBlockBegin
  2
*D2
 70
     1
 10
0.0
 20
0.0
 30
0.0
  3
*D2
  1

  0
LINE
  5
50
330
4E
100
AcDbEntity
  8
0
  6
Continuous
 62
     7
100
AcDbLine
 10
-141.9337768554688
 20
372.1805419921875
 30
0.0
 11
-244.9337768554688
 21
372.1805419921875
 31
0.0
  0
INSERT
  5
51
330
4E
100
AcDbEntity
  8
0
  6
Continuous
 62
     7
100
AcDbBlockReference
  2
_OPEN30
 10
-138.9337768554687
 20
372.1805419921875
 30
0.0
  0
INSERT
  5
52
330
4E
100
AcDbEntity
  8
0
  6
Continuous
 62
     7
100
AcDbBlockReference
  2
_OPEN30
 10
-247.9337768554688
 20
372.1805419921875
 30
0.0
 50
180.0000000000004
  0
LINE
  5
53
330
4E
100
AcDbEntity
  8
0
  6
Continuous
 62
     7
100
AcDbLine
 10
-138.9337768554687
 20
344.9079504394532
 30
0.0
 11
-138.9337768554687
 21
374.4665222167969
 31
0.0
  0
LINE
  5
54
330
4E
100
AcDbEntity
  8
0
  6
Continuous
 62
     7
100
AcDbLine
 10
-247.9337768554688
 20
349.9079504394532
 30
0.0
 11
-247.9337768554688
 21
374.4665222167969
 31
0.0
  0
TEXT
  5
55
330
4E
100
AcDbEntity
  8
0
  6
Continuous
 62
     7
100
AcDbText
 10
-212.5037776231766
 20
372.9305419921875
 30
0.0
 40
3.0
  1
１０９　（１０１～１１７）
 41
0.8434321120058422
100
AcDbText
  0
POINT
  5
56
330
4E
100
AcDbEntity
  8
DEFPOINTS
  6
Continuous
 62
     7
100
AcDbPoint
 10
-138.9337768554687
 20
342.3679504394531
 30
0.0
  0
POINT
  5
57
330
4E
100
AcDbEntity
  8
DEFPOINTS
  6
Continuous
 62
     7
100
AcDbPoint
 10
-247.9337768554688
 20
347.3679504394531
 30
0.0
  0
POINT
  5
58
330
4E
100
AcDbEntity
  8
DEFPOINTS
  6
Continuous
 62
     7
100
AcDbPoint
 10
-247.9337768554688
 20
372.1805419921875
 30
0.0
  0
ENDBLK
  5
59
330
4E
100
AcDbEntity
  8
0
100
AcDbBlockEnd
  0
BLOCK
  5
5B
330
5A
100
AcDbEntity
  8
0
100
AcDbBlockBegin
  2
*D3
 70
     1
 10
0.0
 20
0.0
 30
0.0
  3
*D3
  1

  0
LINE
  5
5C
330
5A
100
AcDbEntity
  8
0
  6
Continuous
 62
     7
100
AcDbLine
 10
-141.9337768554688
 20
360.1519165039063
 30
0.0
 11
-175.9337768554688
 21
360.1519165039063
 31
0.0
  0
INSERT
  5
5D
330
5A
100
AcDbEntity
  8
0
  6
Continuous
 62
     7
100
AcDbBlockReference
  2
_OPEN30
 10
-138.9337768554687
 20
360.1519165039063
 30
0.0
  0
INSERT
  5
5E
330
5A
100
AcDbEntity
  8
0
  6
Continuous
 62
     7
100
AcDbBlockReference
  2
_OPEN30
 10
-178.9337768554688
 20
360.1519165039063
 30
0.0
 50
180.0000000000004
  0
LINE
  5
5F
330
5A
100
AcDbEntity
  8
0
  6
Continuous
 62
     7
100
AcDbLine
 10
-178.9337768554688
 20
295.9079504394532
 30
0.0
 11
-178.9337768554688
 21
362.4379272460938
 31
0.0
  0
TEXT
  5
60
330
5A
100
AcDbEntity
  8
0
  6
Continuous
 62
     7
100
AcDbText
 10
-161.5037769675255
 20
360.9019165039063
 30
0.0
 40
3.0
  1
40
 41
1.101428593908038
100
AcDbText
  0
POINT
  5
61
330
5A
100
AcDbEntity
  8
DEFPOINTS
  6
Continuous
 62
     7
100
AcDbPoint
 10
-138.9337768554687
 20
374.4665222167969
 30
0.0
  0
POINT
  5
62
330
5A
100
AcDbEntity
  8
DEFPOINTS
  6
Continuous
 62
     7
100
AcDbPoint
 10
-178.9337768554688
 20
293.3679504394531
 30
0.0
  0
POINT
  5
63
330
5A
100
AcDbEntity
  8
DEFPOINTS
  6
Continuous
 62
     7
100
AcDbPoint
 10
-178.9337768554688
 20
360.1519165039063
 30
0.0
  0
ENDBLK
  5
64
330
5A
100
AcDbEntity
  8
0
100
AcDbBlockEnd
  0
BLOCK
  5
66
330
65
100
AcDbEntity
  8
0
100
AcDbBlockBegin
  2
*D4
 70
     1
 10
0.0
 20
0.0
 30
0.0
  3
*D4
  1

  0
LINE
  5
67
330
65
100
AcDbEntity
  8
0
  6
Continuous
 62
     7
100
AcDbLine
 10
-62.18706893920899
 20
173.8679351806641
 30
0.0
 11
-62.18706893920896
 21
292.8679504394531
 31
0.0
  0
INSERT
  5
68
330
65
100
AcDbEntity
  8
0
  6
Continuous
 62
     7
100
AcDbBlockReference
  2
_OPEN30
 10
-62.18706893920898
 20
170.8679351806641
 30
0.0
 50
270.0000000000005
  0
INSERT
  5
69
330
65
100
AcDbEntity
  8
0
  6
Continuous
 62
     7
100
AcDbBlockReference
  2
_OPEN30
 10
-62.18706893920898
 20
295.8679504394531
 30
0.0
 50
90.00000000000019
  0
LINE
  5
6A
330
65
100
AcDbEntity
  8
0
  6
Continuous
 62
     7
100
AcDbLine
 10
-93.36058135986327
 20
170.8679351806641
 30
0.0
 11
-59.90106964111328
 21
170.8679351806641
 31
0.0
  0
LINE
  5
6B
330
65
100
AcDbEntity
  8
0
  6
Continuous
 62
     7
100
AcDbLine
 10
-92.39376922607419
 20
295.8679504394531
 30
0.0
 11
-59.90106964111328
 21
295.8679504394531
 31
0.0
  0
TEXT
  5
6C
330
65
100
AcDbEntity
  8
0
  6
Continuous
 62
     7
100
AcDbText
 10
-62.93706869573654
 20
227.7979349166145
 30
0.0
 40
3.0
  1
%%C125
 50
90.00000250447815
 41
1.053926216168795
100
AcDbText
  0
POINT
  5
6D
330
65
100
AcDbEntity
  8
DEFPOINTS
  6
Continuous
 62
     7
100
AcDbPoint
 10
-95.90058135986328
 20
170.8679351806641
 30
0.0
  0
POINT
  5
6E
330
65
100
AcDbEntity
  8
DEFPOINTS
  6
Continuous
 62
     7
100
AcDbPoint
 10
-94.93376922607422
 20
295.8679504394531
 30
0.0
  0
POINT
  5
6F
330
65
100
AcDbEntity
  8
DEFPOINTS
  6
Continuous
 62
     7
100
AcDbPoint
 10
-62.18706893920898
 20
295.8679504394531
 30
0.0
  0
ENDBLK
  5
70
330
65
100
AcDbEntity
  8
0
100
AcDbBlockEnd
  0
BLOCK
  5
72
330
71
100
AcDbEntity
  8
0
100
AcDbBlockBegin
  2
*D5
 70
     1
 10
0.0
 20
0.0
 30
0.0
  3
*D5
  1

  0
LINE
  5
73
330
71
100
AcDbEntity
  8
0
  6
Continuous
 62
     7
100
AcDbLine
 10
-175.9337768554688
 20
108.6972732543945
 30
0.0
 11
-96.93376922607422
 21
108.6972732543945
 31
0.0
  0
INSERT
  5
74
330
71
100
AcDbEntity
  8
0
  6
Continuous
 62
     7
100
AcDbBlockReference
  2
_OPEN30
 10
-178.9337768554688
 20
108.6972732543945
 30
0.0
 50
180.0000000000004
  0
INSERT
  5
75
330
71
100
AcDbEntity
  8
0
  6
Continuous
 62
     7
100
AcDbBlockReference
  2
_OPEN30
 10
-93.93376922607421
 20
108.6972732543945
 30
0.0
  0
LINE
  5
76
330
71
100
AcDbEntity
  8
0
  6
Continuous
 62
     7
100
AcDbLine
 10
-178.9337768554687
 20
170.8279351806641
 30
0.0
 11
-178.9337768554688
 21
106.4112701416016
 31
0.0
  0
LINE
  5
77
330
71
100
AcDbEntity
  8
0
  6
Continuous
 62
     7
100
AcDbLine
 10
-93.93376922607421
 20
169.3279351806641
 30
0.0
 11
-93.93376922607421
 21
106.4112701416016
 31
0.0
  0
TEXT
  5
78
330
71
100
AcDbEntity
  8
0
  6
Continuous
 62
     7
100
AcDbText
 10
-139.0037769675255
 20
109.4472732543945
 30
0.0
 40
3.0
  1
85
 41
1.028000020980834
100
AcDbText
  0
POINT
  5
79
330
71
100
AcDbEntity
  8
DEFPOINTS
  6
Continuous
 62
     7
100
AcDbPoint
 10
-178.9337768554688
 20
173.3679351806641
 30
0.0
  0
POINT
  5
7A
330
71
100
AcDbEntity
  8
DEFPOINTS
  6
Continuous
 62
     7
100
AcDbPoint
 10
-93.93376922607421
 20
171.8679351806641
 30
0.0
  0
POINT
  5
7B
330
71
100
AcDbEntity
  8
DEFPOINTS
  6
Continuous
 62
     7
100
AcDbPoint
 10
-93.93376922607421
 20
108.6972732543945
 30
0.0
  0
ENDBLK
  5
7C
330
71
100
AcDbEntity
  8
0
100
AcDbBlockEnd
  0
BLOCK
  5
7E
330
7D
100
AcDbEntity
  8
0
100
AcDbBlockBegin
  2
*D6
 70
     1
 10
0.0
 20
0.0
 30
0.0
  3
*D6
  1

  0
LINE
  5
7F
330
7D
100
AcDbEntity
  8
0
  6
Continuous
 62
     7
100
AcDbLine
 10
-103.5537567138672
 20
167.8679351806641
 30
0.0
 11
-103.5537567138672
 21
155.8679351806641
 31
0.0
  0
INSERT
  5
80
330
7D
100
AcDbEntity
  8
0
  6
Continuous
 62
     7
100
AcDbBlockReference
  2
_OPEN30
 10
-103.5537567138672
 20
170.8679351806641
 30
0.0
 50
90.00000000000019
  0
INSERT
  5
81
330
7D
100
AcDbEntity
  8
0
  6
Continuous
 62
     7
100
AcDbBlockReference
  2
_OPEN30
 10
-103.5537567138672
 20
152.8679351806641
 30
0.0
 50
270.0000000000005
  0
LINE
  5
82
330
7D
100
AcDbEntity
  8
0
  6
Continuous
 62
     7
100
AcDbLine
 10
-131.4389123535155
 20
152.8679351806641
 30
0.0
 11
-101.2677612304688
 21
152.8679351806641
 31
0.0
  0
TEXT
  5
83
330
7D
100
AcDbEntity
  8
0
  6
Continuous
 62
     7
100
AcDbText
 10
-104.3037566015289
 20
159.2979350358238
 30
0.0
 40
3.0
  1
18
 50
90.00000250447815
 41
1.285000026226043
100
AcDbText
  0
POINT
  5
84
330
7D
100
AcDbEntity
  8
DEFPOINTS
  6
Continuous
 62
     7
100
AcDbPoint
 10
-95.90058135986328
 20
170.8679351806641
 30
0.0
  0
POINT
  5
85
330
7D
100
AcDbEntity
  8
DEFPOINTS
  6
Continuous
 62
     7
100
AcDbPoint
 10
-133.9789123535156
 20
152.8679351806641
 30
0.0
  0
POINT
  5
86
330
7D
100
AcDbEntity
  8
DEFPOINTS
  6
Continuous
 62
     7
100
AcDbPoint
 10
-103.5537567138672
 20
152.8679351806641
 30
0.0
  0
ENDBLK
  5
87
330
7D
100
AcDbEntity
  8
0
100
AcDbBlockEnd
  0
BLOCK
  5
89
330
88
100
AcDbEntity
  8
0
100
AcDbBlockBegin
  2
*D7
 70
     1
 10
0.0
 20
0.0
 30
0.0
  3
*D7
  1

  0
LINE
  5
8A
330
88
100
AcDbEntity
  8
0
  6
Continuous
 62
     7
100
AcDbLine
 10
-132.4337768554687
 20
142.0935821533203
 30
0.0
 11
-116.4337692260742
 21
142.0935821533203
 31
0.0
  0
INSERT
  5
8B
330
88
100
AcDbEntity
  8
0
  6
Continuous
 62
     7
100
AcDbBlockReference
  2
_OPEN30
 10
-135.4337768554688
 20
142.0935821533203
 30
0.0
 50
180.0000000000004
  0
INSERT
  5
8C
330
88
100
AcDbEntity
  8
0
  6
Continuous
 62
     7
100
AcDbBlockReference
  2
_OPEN30
 10
-113.4337692260742
 20
142.0935821533203
 30
0.0
  0
LINE
  5
8D
330
88
100
AcDbEntity
  8
0
  6
Continuous
 62
     7
100
AcDbLine
 10
-113.4337692260742
 20
166.3279809570313
 30
0.0
 11
-113.4337692260742
 21
139.8075866699219
 31
0.0
  0
TEXT
  5
8E
330
88
100
AcDbEntity
  8
0
  6
Continuous
 62
     7
100
AcDbText
 10
-127.003769338131
 20
142.8435821533203
 30
0.0
 40
3.0
  1
22
 41
1.028000020980834
100
AcDbText
  0
POINT
  5
8F
330
88
100
AcDbEntity
  8
DEFPOINTS
  6
Continuous
 62
     7
100
AcDbPoint
 10
-135.4337768554688
 20
122.8679351806641
 30
0.0
  0
POINT
  5
90
330
88
100
AcDbEntity
  8
DEFPOINTS
  6
Continuous
 62
     7
100
AcDbPoint
 10
-113.4337692260742
 20
168.8679809570313
 30
0.0
  0
POINT
  5
91
330
88
100
AcDbEntity
  8
DEFPOINTS
  6
Continuous
 62
     7
100
AcDbPoint
 10
-113.4337692260742
 20
142.0935821533203
 30
0.0
  0
ENDBLK
  5
92
330
88
100
AcDbEntity
  8
0
100
AcDbBlockEnd
  0
BLOCK
  5
94
330
93
100
AcDbEntity
  8
0
100
AcDbBlockBegin
  2
*D8
 70
     1
 10
0.0
 20
0.0
 30
0.0
  3
*D8
  1

  0
LINE
  5
95
330
93
100
AcDbEntity
  8
0
  6
Continuous
 62
     7
100
AcDbLine
 10
-244.9337768554688
 20
250.3653717041016
 30
0.0
 11
-161.9337768554688
 21
250.3653717041015
 31
0.0
  0
INSERT
  5
96
330
93
100
AcDbEntity
  8
0
  6
Continuous
 62
     7
100
AcDbBlockReference
  2
_OPEN30
 10
-247.9337768554688
 20
250.3653717041016
 30
0.0
 50
180.0000000000004
  0
INSERT
  5
97
330
93
100
AcDbEntity
  8
0
  6
Continuous
 62
     7
100
AcDbBlockReference
  2
_OPEN30
 10
-158.9337768554688
 20
250.3653717041016
 30
0.0
  0
TEXT
  5
98
330
93
100
AcDbEntity
  8
0
  6
Continuous
 62
     7
100
AcDbText
 10
-200.487541615963
 20
251.1153717041016
 30
0.0
 40
3.0
  1
89
 41
1.028000020980834
100
AcDbText
  0
POINT
  5
99
330
93
100
AcDbEntity
  8
DEFPOINTS
  6
Continuous
 62
     7
100
AcDbPoint
 10
-247.9337768554688
 20
233.3679351806641
 30
0.0
  0
POINT
  5
9A
330
93
100
AcDbEntity
  8
DEFPOINTS
  6
Continuous
 62
     7
100
AcDbPoint
 10
-158.9337768554688
 20
233.3679351806641
 30
0.0
  0
POINT
  5
9B
330
93
100
AcDbEntity
  8
DEFPOINTS
  6
Continuous
 62
     7
100
AcDbPoint
 10
-158.9337768554688
 20
250.3653717041016
 30
0.0
  0
ENDBLK
  5
9C
330
93
100
AcDbEntity
  8
0
100
AcDbBlockEnd
  0
BLOCK
  5
9E
330
9D
100
AcDbEntity
  8
0
100
AcDbBlockBegin
  2
*D9
 70
     1
 10
0.0
 20
0.0
 30
0.0
  3
*D9
  1

  0
LINE
  5
9F
330
9D
100
AcDbEntity
  8
0
  6
Continuous
 62
     7
100
AcDbLine
 10
-385.7598876953125
 20
333.9713134765625
 30
0.0
 11
-367.4211120605469
 21
373.3059692382813
 31
0.0
  0
LINE
  5
A0
330
9D
100
AcDbEntity
  8
0
  6
Continuous
 62
     7
100
AcDbLine
 10
-478.2996838455487
 20
135.4835671279357
 30
0.0
 11
-387.0275561446857
 21
331.2523032333924
 31
0.0
  0
INSERT
  5
A1
330
9D
100
AcDbEntity
  8
0
  6
Continuous
 62
     7
100
AcDbBlockReference
  2
_OPEN30
 10
-479.5673522949218
 20
132.7645568847656
 30
0.0
 50
245.0039265862677
  0
INSERT
  5
A2
330
9D
100
AcDbEntity
  8
0
  6
Continuous
 62
     7
100
AcDbBlockReference
  2
_OPEN30
 10
-385.7598876953125
 20
333.9713134765625
 30
0.0
 50
65.00392658626697
  0
TEXT
  5
A3
330
9D
100
AcDbEntity
  8
0
  6
Continuous
 62
     7
100
AcDbText
 10
-381.6827847829479
 20
344.4937467858096
 30
0.0
 40
3.0
  1
%%C２２２（防水皿外径）
 50
65.00000067042492
 41
0.8440126077968535
100
AcDbText
  0
POINT
  5
A4
330
9D
100
AcDbEntity
  8
DEFPOINTS
  6
Continuous
 62
     7
100
AcDbPoint
 10
-479.5673522949218
 20
132.7645568847656
 30
0.0
  0
POINT
  5
A5
330
9D
100
AcDbEntity
  8
DEFPOINTS
  6
Continuous
 62
     7
100
AcDbPoint
 10
-385.7598876953125
 20
333.9713134765625
 30
0.0
  0
ENDBLK
  5
A6
330
9D
100
AcDbEntity
  8
0
100
AcDbBlockEnd
  0
BLOCK
  5
A8
330
A7
100
AcDbEntity
  8
0
100
AcDbBlockBegin
  2
*D10
 70
     1
 10
0.0
 20
0.0
 30
0.0
  3
*D10
  1

  0
LINE
  5
A9
330
A7
100
AcDbEntity
  8
0
  6
Continuous
 62
     7
100
AcDbLine
 10
-362.3361511230469
 20
324.6375732421875
 30
0.0
 11
-337.188232421875
 21
357.4440002441406
 31
0.0
  0
LINE
  5
AA
330
A7
100
AcDbEntity
  8
0
  6
Continuous
 62
     7
100
AcDbLine
 10
-500.4374761076217
 20
144.4792442108207
 30
0.0
 11
-364.1612787751907
 21
322.2566261505074
 31
0.0
  0
INSERT
  5
AB
330
A7
100
AcDbEntity
  8
0
  6
Continuous
 62
     7
100
AcDbBlockReference
  2
_OPEN30
 10
-502.2626037597656
 20
142.0982971191406
 30
0.0
 50
232.5278387720593
  0
INSERT
  5
AC
330
A7
100
AcDbEntity
  8
0
  6
Continuous
 62
     7
100
AcDbBlockReference
  2
_OPEN30
 10
-362.3361511230469
 20
324.6375732421875
 30
0.0
 50
52.52783877205857
  0
TEXT
  5
AD
330
A7
100
AcDbEntity
  8
0
  6
Continuous
 62
     7
100
AcDbText
 10
-357.3426248494989
 20
332.3974153824385
 30
0.0
 40
3.0
  1
%%C２３０（目皿受外径）
 50
52.49999975339831
 41
0.8440126077968535
100
AcDbText
  0
POINT
  5
AE
330
A7
100
AcDbEntity
  8
DEFPOINTS
  6
Continuous
 62
     7
100
AcDbPoint
 10
-502.2626037597656
 20
142.0982971191406
 30
0.0
  0
POINT
  5
AF
330
A7
100
AcDbEntity
  8
DEFPOINTS
  6
Continuous
 62
     7
100
AcDbPoint
 10
-362.3361511230469
 20
324.6375732421875
 30
0.0
  0
ENDBLK
  5
B0
330
A7
100
AcDbEntity
  8
0
100
AcDbBlockEnd
  0
BLOCK
  5
B2
330
B1
100
AcDbEntity
  8
0
100
AcDbBlockBegin
  2
*D11
 70
     1
 10
0.0
 20
0.0
 30
0.0
  3
*D11
  1

  0
LINE
  5
B3
330
B1
100
AcDbEntity
  8
0
  6
Continuous
 62
     7
100
AcDbLine
 10
-346.7923278808594
 20
293.441162109375
 30
0.0
 11
-307.1095886230469
 21
321.3203735351563
 31
0.0
  0
LINE
  5
B4
330
B1
100
AcDbEntity
  8
0
  6
Continuous
 62
     7
100
AcDbLine
 10
-515.3517093289891
 20
175.0192984412533
 30
0.0
 11
-349.2470760714015
 21
291.7165719200748
 31
0.0
  0
INSERT
  5
B5
330
B1
100
AcDbEntity
  8
0
  6
Continuous
 62
     7
100
AcDbBlockReference
  2
_OPEN30
 10
-517.8064575195313
 20
173.2947082519531
 30
0.0
 50
215.090066325928
  0
INSERT
  5
B6
330
B1
100
AcDbEntity
  8
0
  6
Continuous
 62
     7
100
AcDbBlockReference
  2
_OPEN30
 10
-346.7923278808594
 20
293.441162109375
 30
0.0
 50
35.09006632592725
  0
TEXT
  5
B7
330
B1
100
AcDbEntity
  8
0
  6
Continuous
 62
     7
100
AcDbText
 10
-331.3831593406836
 20
305.1803958859413
 30
0.0
 40
3.0
  1
%%C２０９（目皿外径）
 50
35.10000063523703
 41
0.8443929326254473
100
AcDbText
  0
POINT
  5
B8
330
B1
100
AcDbEntity
  8
DEFPOINTS
  6
Continuous
 62
     7
100
AcDbPoint
 10
-517.8064575195313
 20
173.2947082519531
 30
0.0
  0
POINT
  5
B9
330
B1
100
AcDbEntity
  8
DEFPOINTS
  6
Continuous
 62
     7
100
AcDbPoint
 10
-346.7923278808594
 20
293.441162109375
 30
0.0
  0
ENDBLK
  5
BA
330
B1
100
AcDbEntity
  8
0
100
AcDbBlockEnd
  0
BLOCK
  5
BC
330
BB
100
AcDbEntity
  8
0
100
AcDbBlockBegin
  2
KOZU0001
 70
     0
 10
0.0
 20
0.0
 30
0.0
  3
KOZU0001
  1

  0
LINE
  5
BD
330
BB
100
AcDbEntity
  8
0
  6
Continuous
 62
     7
100
AcDbLine
 10
0.0
 20
0.0
 30
0.0
 11
32.62624359130859
 21
31.11651611328125
 31
0.0
  0
LINE
  5
BE
330
BB
100
AcDbEntity
  8
0
  6
Continuous
 62
     7
100
AcDbLine
 10
32.62624359130859
 20
31.11651611328125
 30
0.0
 11
61.34734344482422
 21
31.11651611328125
 31
0.0
  0
LINE
  5
BF
330
BB
100
AcDbEntity
  8
0
  6
Continuous
 62
     7
100
AcDbLine
 10
0.0
 20
0.0
 30
0.0
 11
1.480788704153991
 21
2.79414831633003
 31
0.0
  0
LINE
  5
C0
330
BB
100
AcDbEntity
  8
0
  6
Continuous
 62
     7
100
AcDbLine
 10
0.0
 20
0.0
 30
0.0
 11
2.861119953121212
 21
1.346845430571629
 31
0.0
  0
TEXT
  5
C1
330
BB
100
AcDbEntity
  8
0
  6
Continuous
 62
     7
100
AcDbText
 10
34.11167073249818
 20
31.86651611328125
 30
0.0
 40
3.0
  1
配管接続口
 41
0.8487395020950888
100
AcDbText
  0
TEXT
  5
C2
330
BB
100
AcDbEntity
  8
0
  6
Continuous
 62
     7
100
AcDbText
 10
34.11167073249818
 20
26.60151611328125
 30
0.0
 40
3.0
  1
Ｒｃ４（１００Ａ）
 41
0.8448610247221777
100
AcDbText
  0
ENDBLK
  5
C3
330
BB
100
AcDbEntity
  8
0
100
AcDbBlockEnd
  0
BLOCK
  5
C5
330
C4
100
AcDbEntity
  8
0
100
AcDbBlockBegin
  2
KOZU0002
 70
     0
 10
0.0
 20
0.0
 30
0.0
  3
KOZU0002
  1

  0
LINE
  5
C6
330
C4
100
AcDbEntity
  8
0
  6
Continuous
 62
     7
100
AcDbLine
 10
0.0
 20
0.0
 30
0.0
 11
41.95135498046875
 21
-40.86774444580078
 31
0.0
  0
LINE
  5
C7
330
C4
100
AcDbEntity
  8
0
  6
Continuous
 62
     7
100
AcDbLine
 10
41.95135498046875
 20
-40.86774444580078
 30
0.0
 11
67.67245483398439
 21
-40.86774444580078
 31
0.0
  0
LINE
  5
C8
330
C4
100
AcDbEntity
  8
0
  6
Continuous
 62
     7
100
AcDbLine
 10
0.0
 20
0.0
 30
0.0
 11
2.846687132145309
 21
-1.377088367418124
 31
0.0
  0
LINE
  5
C9
330
C4
100
AcDbEntity
  8
0
  6
Continuous
 62
     7
100
AcDbLine
 10
0.0
 20
0.0
 30
0.0
 11
1.451096685265373
 21
-2.809682973221685
 31
0.0
  0
TEXT
  5
CA
330
C4
100
AcDbEntity
  8
0
  6
Continuous
 62
     7
100
AcDbText
 10
43.27576375007629
 20
-40.11774444580078
 30
0.0
 40
3.0
  1
共廻り防止用羽根
 41
0.8454512278006642
100
AcDbText
  0
TEXT
  5
CB
330
C4
100
AcDbEntity
  8
0
  6
Continuous
 62
     7
100
AcDbText
 10
43.27576375007629
 20
-45.38274444580078
 30
0.0
 40
3.0
  1
３ヶ所
 41
0.8550420278260688
100
AcDbText
  0
ENDBLK
  5
CC
330
C4
100
AcDbEntity
  8
0
100
AcDbBlockEnd
  0
ENDSEC
  0
SECTION
  2
ENTITIES
  0
POINT
  5
CD
330
22
100
AcDbEntity
  8
0
  6
Continuous
 62
     7
100
AcDbPoint
 10
-135.4337768554688
 20
233.3679351806641
 30
0.0
  0
POINT
  5
CE
330
22
100
AcDbEntity
  8
0
  6
Continuous
 62
     7
100
AcDbPoint
 10
-432.6636047363281
 20
233.3679351806641
 30
0.0
  0
POINT
  5
CF
330
22
100
AcDbEntity
  8
0
  6
Continuous
 62
     7
100
AcDbPoint
 10
-135.4337768554688
 20
233.3679351806641
 30
0.0
  0
POINT
  5
D0
330
22
100
AcDbEntity
  8
0
  6
Continuous
 62
     7
100
AcDbPoint
 10
-432.6636047363281
 20
233.3679351806641
 30
0.0
  0
POINT
  5
D1
330
22
100
AcDbEntity
  8
0
  6
Continuous
 62
     7
100
AcDbPoint
 10
-93.93376922607421
 20
289.8679504394531
 30
0.0
  0
POINT
  5
D2
330
22
100
AcDbEntity
  8
0
  6
Continuous
 62
     7
100
AcDbPoint
 10
-133.3890228271484
 20
288.6348876953125
 30
0.0
  0
POINT
  5
D3
330
22
100
AcDbEntity
  8
0
  6
Continuous
 62
     7
100
AcDbPoint
 10
-113.6613998413086
 20
289.2514038085938
 30
0.0
  0
LINE
  5
D4
330
22
100
AcDbEntity
  8
0
  6
Continuous
 62
     7
100
AcDbLine
 10
-133.3890228271484
 20
288.6348876953125
 30
0.0
 11
-138.9337768554687
 21
288.6348876953125
 31
0.0
  0
LINE
  5
D5
330
22
100
AcDbEntity
  8
0
  6
Continuous
 62
     7
100
AcDbLine
 10
-131.9337768554688
 20
287.1796569824219
 30
0.0
 11
-133.3890228271484
 21
288.6348876953125
 31
0.0
  0
LINE
  5
D6
330
22
100
AcDbEntity
  8
0
  6
Continuous
 62
     7
100
AcDbLine
 10
-140.4337768554688
 20
288.3679504394531
 30
0.0
 11
-138.9337768554687
 21
289.8679504394531
 31
0.0
  0
LINE
  5
D7
330
22
100
AcDbEntity
  8
0
  6
Continuous
 62
     7
100
AcDbLine
 10
-93.93376922607421
 20
289.8679504394531
 30
0.0
 11
-95.48291778564452
 21
288.3187866210938
 31
0.0
  0
LINE
  5
D8
330
22
100
AcDbEntity
  8
0
  6
Continuous
 62
     7
100
AcDbLine
 10
-138.9337768554687
 20
289.8679504394531
 30
0.0
 11
-138.9337768554687
 21
233.3679351806641
 31
0.0
  0
LINE
  5
D9
330
22
100
AcDbEntity
  8
0
  6
Continuous
 62
     7
100
AcDbLine
 10
-140.4337768554688
 20
288.3679504394531
 30
0.0
 11
-140.4337768554688
 21
233.3679351806641
 31
0.0
  0
LINE
  5
DA
330
22
100
AcDbEntity
  8
0
  6
Continuous
 62
     7
100
AcDbLine
 10
-133.3890228271484
 20
288.6348876953125
 30
0.0
 11
-133.3890228271484
 21
233.3679351806641
 31
0.0
  0
LINE
  5
DB
330
22
100
AcDbEntity
  8
0
  6
Continuous
 62
     7
100
AcDbLine
 10
-95.48291778564452
 20
288.3187866210938
 30
0.0
 11
-95.48291778564452
 21
233.3679351806641
 31
0.0
  0
LINE
  5
DC
330
22
100
AcDbEntity
  8
0
  6
Continuous
 62
     7
100
AcDbLine
 10
-131.9337768554688
 20
233.3679351806641
 30
0.0
 11
-131.9337768554688
 21
287.1796569824219
 31
0.0
  0
LINE
  5
DD
330
22
100
AcDbEntity
  8
0
  6
Continuous
 62
     7
100
AcDbLine
 10
-135.9337768554688
 20
344.3679504394531
 30
0.0
 11
-136.9337768554688
 21
344.3679504394531
 31
0.0
  0
LINE
  5
DE
330
22
100
AcDbEntity
  8
0
  6
Continuous
 62
     7
100
AcDbLine
 10
-137.9337768554687
 20
327.6203308105469
 30
0.0
 11
-138.9337768554687
 21
326.6203308105469
 31
0.0
  0
LINE
  5
DF
330
22
100
AcDbEntity
  8
0
  6
Continuous
 62
     7
100
AcDbLine
 10
-137.9337768554687
 20
311.6179504394531
 30
0.0
 11
-138.9337768554687
 21
312.6179504394531
 31
0.0
  0
LINE
  5
E0
330
22
100
AcDbEntity
  8
0
  6
Continuous
 62
     7
100
AcDbLine
 10
-137.9337768554687
 20
311.6179504394531
 30
0.0
 11
-138.9337768554687
 21
310.6179504394531
 31
0.0
  0
LINE
  5
E1
330
22
100
AcDbEntity
  8
0
  6
Continuous
 62
     7
100
AcDbLine
 10
-137.9337768554687
 20
327.6203308105469
 30
0.0
 11
-138.9337768554687
 21
328.6203308105469
 31
0.0
  0
LINE
  5
E2
330
22
100
AcDbEntity
  8
0
  6
Continuous
 62
     7
100
AcDbLine
 10
-204.4970550537109
 20
283.7809448242188
 30
0.0
 11
-204.4970550537109
 21
233.3679351806641
 31
0.0
  0
LINE
  5
E3
330
22
100
AcDbEntity
  8
0
  6
Continuous
 62
     7
100
AcDbLine
 10
-208.2328948974609
 20
285.4552307128906
 30
0.0
 11
-208.2328948974609
 21
233.3679351806641
 31
0.0
  0
LINE
  5
E4
330
22
100
AcDbEntity
  8
0
  6
Continuous
 62
     7
100
AcDbLine
 10
-158.9337768554688
 20
233.3679351806641
 30
0.0
 11
-158.9337768554688
 21
286.9179382324219
 31
0.0
  0
LINE
  5
E5
330
22
100
AcDbEntity
  8
0
  6
Continuous
 62
     7
100
AcDbLine
 10
-231.9233551025391
 20
310.30126953125
 30
0.0
 11
-242.9337768554688
 21
310.30126953125
 31
0.0
  0
LINE
  5
E6
330
22
100
AcDbEntity
  8
0
  6
Continuous
 62
     7
100
AcDbLine
 10
-242.9337768554688
 20
334.8679504394531
 30
0.0
 11
-238.5318450927734
 21
334.8679504394531
 31
0.0
  0
LINE
  5
E7
330
22
100
AcDbEntity
  8
0
  6
Continuous
 62
     7
100
AcDbLine
 10
-242.9337768554688
 20
341.3679504394531
 30
0.0
 11
-238.8205261230469
 21
341.3679504394531
 31
0.0
  0
LINE
  5
E8
330
22
100
AcDbEntity
  8
0
  6
Continuous
 62
     7
100
AcDbLine
 10
-247.9337768554688
 20
337.8679504394531
 30
0.0
 11
-242.9337768554688
 21
337.8679504394531
 31
0.0
  0
LINE
  5
E9
330
22
100
AcDbEntity
  8
0
  6
Continuous
 62
     7
100
AcDbLine
 10
-244.9337768554688
 20
334.8679504394531
 30
0.0
 11
-242.9337768554688
 21
334.8679504394531
 31
0.0
  0
LINE
  5
EA
330
22
100
AcDbEntity
  8
0
  6
Continuous
 62
     7
100
AcDbLine
 10
-247.9337768554688
 20
330.8679504394531
 30
0.0
 11
-244.9337768554688
 21
330.8679504394531
 31
0.0
  0
LINE
  5
EB
330
22
100
AcDbEntity
  8
0
  6
Continuous
 62
     7
100
AcDbLine
 10
-247.9337768554688
 20
303.4679260253906
 30
0.0
 11
-244.9337768554688
 21
303.4679260253906
 31
0.0
  0
LINE
  5
EC
330
22
100
AcDbEntity
  8
0
  6
Continuous
 62
     7
100
AcDbLine
 10
-242.9337768554688
 20
310.30126953125
 30
0.0
 11
-244.9337768554688
 21
310.30126953125
 31
0.0
  0
LINE
  5
ED
330
22
100
AcDbEntity
  8
0
  6
Continuous
 62
     7
100
AcDbLine
 10
-242.9337768554688
 20
338.3679504394531
 30
0.0
 11
-242.9337768554688
 21
334.8679504394531
 31
0.0
  0
LINE
  5
EE
330
22
100
AcDbEntity
  8
0
  6
Continuous
 62
     7
100
AcDbLine
 10
-243.9337768554688
 20
347.3679504394531
 30
0.0
 11
-243.9337768554688
 21
342.3679504394531
 31
0.0
  0
LINE
  5
EF
330
22
100
AcDbEntity
  8
0
  6
Continuous
 62
     7
100
AcDbLine
 10
-246.9337768554688
 20
348.3679504394531
 30
0.0
 11
-244.9337768554688
 21
348.3679504394531
 31
0.0
  0
LINE
  5
F0
330
22
100
AcDbEntity
  8
0
  6
Continuous
 62
     7
100
AcDbLine
 10
-247.9337768554688
 20
338.3679504394531
 30
0.0
 11
-242.9337768554688
 21
338.3679504394531
 31
0.0
  0
LINE
  5
F1
330
22
100
AcDbEntity
  8
0
  6
Continuous
 62
     7
100
AcDbLine
 10
-93.93376922607421
 20
289.8679504394531
 30
0.0
 11
-133.3890228271484
 21
288.6348876953125
 31
0.0
  0
LINE
  5
F2
330
22
100
AcDbEntity
  8
0
  6
Continuous
 62
     7
100
AcDbLine
 10
-94.93376922607422
 20
295.8679504394531
 30
0.0
 11
-134.4337768554688
 21
295.8679504394531
 31
0.0
  0
LINE
  5
F3
330
22
100
AcDbEntity
  8
0
  6
Continuous
 62
     7
100
AcDbLine
 10
-95.43606567382813
 20
288.3202514648438
 30
0.0
 11
-131.9337768554688
 21
287.1796569824219
 31
0.0
  0
LINE
  5
F4
330
22
100
AcDbEntity
  8
0
  6
Continuous
 62
     7
100
AcDbLine
 10
-117.4337692260742
 20
166.8679809570313
 30
0.0
 11
-115.368782043457
 21
166.8679809570313
 31
0.0
  0
LINE
  5
F5
330
22
100
AcDbEntity
  8
0
  6
Continuous
 62
     7
100
AcDbLine
 10
-113.4337692260742
 20
168.8679809570313
 30
0.0
 11
-113.4337692260742
 21
170.8679351806641
 31
0.0
  0
LINE
  5
F6
330
22
100
AcDbEntity
  8
0
  6
Continuous
 62
     7
100
AcDbLine
 10
-158.9337768554688
 20
260.1429443359375
 30
0.0
 11
-158.9337768554688
 21
250.9364318847656
 31
0.0
  0
LINE
  5
F7
330
22
100
AcDbEntity
  8
0
  6
Continuous
 62
     7
100
AcDbLine
 10
-247.9337768554688
 20
250.7490539550781
 30
0.0
 11
-247.9337768554688
 21
258.9364318847656
 31
0.0
  0
LINE
  5
F8
330
22
100
AcDbEntity
  8
0
  6
Continuous
 62
     7
100
AcDbLine
 10
-231.7005462646484
 20
297.30126953125
 30
0.0
 11
-242.9337768554688
 21
297.30126953125
 31
0.0
  0
LINE
  5
F9
330
22
100
AcDbEntity
  8
0
  6
Continuous
 62
     7
100
AcDbLine
 10
-247.9337768554688
 20
266.0179443359375
 30
0.0
 11
-244.9337768554688
 21
266.0179443359375
 31
0.0
  0
LINE
  5
FA
330
22
100
AcDbEntity
  8
0
  6
Continuous
 62
     7
100
AcDbLine
 10
-247.9337768554688
 20
271.0679321289063
 30
0.0
 11
-244.9337768554688
 21
271.0679321289063
 31
0.0
  0
LINE
  5
FB
330
22
100
AcDbEntity
  8
0
  6
Continuous
 62
     7
100
AcDbLine
 10
-242.9337768554688
 20
297.30126953125
 30
0.0
 11
-244.9337768554688
 21
297.30126953125
 31
0.0
  0
LINE
  5
FC
330
22
100
AcDbEntity
  8
0
  6
Continuous
 62
     7
100
AcDbLine
 10
-247.9337768554688
 20
236.3679351806641
 30
0.0
 11
-244.9337768554688
 21
236.3679351806641
 31
0.0
  0
LINE
  5
FD
330
22
100
AcDbEntity
  8
0
  6
Continuous
 62
     7
100
AcDbLine
 10
-178.9337768554688
 20
289.8379516601563
 30
0.0
 11
-178.9337768554688
 21
293.3679504394531
 31
0.0
  0
LINE
  5
FE
330
22
100
AcDbEntity
  8
0
  6
Continuous
 62
     7
100
AcDbLine
 10
-178.9337768554688
 20
289.8679504394531
 30
0.0
 11
-177.4337768554688
 21
288.3679504394531
 31
0.0
  0
LINE
  5
FF
330
22
100
AcDbEntity
  8
0
  6
Continuous
 62
     7
100
AcDbLine
 10
-160.4337768554688
 20
289.8679504394531
 30
0.0
 11
-195.4111175537109
 21
289.8679504394531
 31
0.0
  0
LINE
  5
100
330
22
100
AcDbEntity
  8
0
  6
Continuous
 62
     7
100
AcDbLine
 10
-193.9111175537109
 20
288.3679504394531
 30
0.0
 11
-195.4111175537109
 21
289.8679504394531
 31
0.0
  0
LINE
  5
101
330
22
100
AcDbEntity
  8
0
  6
Continuous
 62
     7
100
AcDbLine
 10
-195.4111175537109
 20
289.8679504394531
 30
0.0
 11
-204.4681854248047
 21
289.8679504394531
 31
0.0
  0
LINE
  5
102
330
22
100
AcDbEntity
  8
0
  6
Continuous
 62
     7
100
AcDbLine
 10
-159.9337768554688
 20
285.9179382324219
 30
0.0
 11
-158.9337768554688
 21
286.9179382324219
 31
0.0
  0
LINE
  5
103
330
22
100
AcDbEntity
  8
0
  6
Continuous
 62
     7
100
AcDbLine
 10
-158.9337768554688
 20
288.3679504394531
 30
0.0
 11
-193.9111175537109
 21
288.3679504394531
 31
0.0
  0
LINE
  5
104
330
22
100
AcDbEntity
  8
0
  6
Continuous
 62
     7
100
AcDbLine
 10
-158.9337768554688
 20
288.3679504394531
 30
0.0
 11
-160.4337768554688
 21
289.8679504394531
 31
0.0
  0
LINE
  5
105
330
22
100
AcDbEntity
  8
0
  6
Continuous
 62
     7
100
AcDbLine
 10
-158.9337768554688
 20
286.9179382324219
 30
0.0
 11
-158.9337768554688
 21
288.3679504394531
 31
0.0
  0
LINE
  5
106
330
22
100
AcDbEntity
  8
0
  6
Continuous
 62
     7
100
AcDbLine
 10
-159.9337768554688
 20
285.9179382324219
 30
0.0
 11
-204.4970550537109
 21
285.9179382324219
 31
0.0
  0
LINE
  5
107
330
22
100
AcDbEntity
  8
0
  6
Continuous
 62
     7
100
AcDbLine
 10
-243.9337768554688
 20
125.3679351806641
 30
0.0
 11
-238.8205261230469
 21
125.3679351806641
 31
0.0
  0
LINE
  5
108
330
22
100
AcDbEntity
  8
0
  6
Continuous
 62
     7
100
AcDbLine
 10
-246.9337768554688
 20
118.3679351806641
 30
0.0
 11
-244.9337768554688
 21
118.3679351806641
 31
0.0
  0
LINE
  5
109
330
22
100
AcDbEntity
  8
0
  6
Continuous
 62
     7
100
AcDbLine
 10
-243.9337768554688
 20
119.3679351806641
 30
0.0
 11
-243.9337768554688
 21
125.3679351806641
 31
0.0
  0
LINE
  5
10A
330
22
100
AcDbEntity
  8
0
  6
Continuous
 62
     7
100
AcDbLine
 10
-178.9337768554688
 20
176.8679351806641
 30
0.0
 11
-193.9111175537109
 21
176.8679351806641
 31
0.0
  0
LINE
  5
10B
330
22
100
AcDbEntity
  8
0
  6
Continuous
 62
     7
100
AcDbLine
 10
-178.9337768554688
 20
178.3679351806641
 30
0.0
 11
-193.9111175537109
 21
178.3679351806641
 31
0.0
  0
LINE
  5
10C
330
22
100
AcDbEntity
  8
0
  6
Continuous
 62
     7
100
AcDbLine
 10
-193.9111175537109
 20
178.3679351806641
 30
0.0
 11
-195.4111175537109
 21
176.8679351806641
 31
0.0
  0
LINE
  5
10D
330
22
100
AcDbEntity
  8
0
  6
Continuous
 62
     7
100
AcDbLine
 10
-193.9111175537109
 20
176.8679351806641
 30
0.0
 11
-204.4681854248047
 21
176.8679351806641
 31
0.0
  0
LINE
  5
10E
330
22
100
AcDbEntity
  8
0
  6
Continuous
 62
     7
100
AcDbLine
 10
-135.9337768554688
 20
122.3679351806641
 30
0.0
 11
-136.9337768554688
 21
122.3679351806641
 31
0.0
  0
LINE
  5
10F
330
22
100
AcDbEntity
  8
0
  6
Continuous
 62
     7
100
AcDbLine
 10
-94.93376922607422
 20
170.8679351806641
 30
0.0
 11
-134.4337768554688
 21
170.8679351806641
 31
0.0
  0
LINE
  5
110
330
22
100
AcDbEntity
  8
0
  6
Continuous
 62
     7
100
AcDbLine
 10
-135.4337768554688
 20
152.8679351806641
 30
0.0
 11
-133.9789123535156
 21
152.8679351806641
 31
0.0
  0
LINE
  5
111
330
22
100
AcDbEntity
  8
0
  6
Continuous
 62
     7
100
AcDbLine
 10
-234.2017211914063
 20
332.3679504394531
 30
0.0
 11
-208.8271789550781
 21
288.4179382324219
 31
0.0
  0
LINE
  5
112
330
22
100
AcDbEntity
  8
0
  6
Continuous
 62
     7
100
AcDbLine
 10
-234.4904022216797
 20
338.8679504394531
 30
0.0
 11
-207.0662536621094
 21
291.3679504394531
 31
0.0
  0
LINE
  5
113
330
22
100
AcDbEntity
  8
0
  6
Continuous
 62
     7
100
AcDbLine
 10
-242.9337768554688
 20
334.8679504394531
 30
0.0
 11
-242.9337768554688
 21
233.3679351806641
 31
0.0
  0
LINE
  5
114
330
22
100
AcDbEntity
  8
0
  6
Continuous
 62
     7
100
AcDbLine
 10
-247.9337768554688
 20
233.3679351806641
 30
0.0
 11
-247.9337768554688
 21
347.3679504394531
 31
0.0
  0
LINE
  5
115
330
22
100
AcDbEntity
  8
0
  6
Continuous
 62
     7
100
AcDbLine
 10
-244.9337768554688
 20
233.3679351806641
 30
0.0
 11
-244.9337768554688
 21
334.8679504394531
 31
0.0
  0
LINE
  5
116
330
22
100
AcDbEntity
  8
0
  6
Continuous
 62
     7
100
AcDbLine
 10
-244.2387847900391
 20
337.8679504394531
 30
0.0
 11
-242.9337768554688
 21
336.5629272460938
 31
0.0
  0
LINE
  5
117
330
22
100
AcDbEntity
  8
0
  6
Continuous
 62
     7
100
AcDbLine
 10
-244.9458923339844
 20
337.8679504394531
 30
0.0
 11
-242.9337768554688
 21
335.8558044433594
 31
0.0
  0
LINE
  5
118
330
22
100
AcDbEntity
  8
0
  6
Continuous
 62
     7
100
AcDbLine
 10
-247.0672149658203
 20
337.8679504394531
 30
0.0
 11
-244.0672149658203
 21
334.8679504394531
 31
0.0
  0
LINE
  5
119
330
22
100
AcDbEntity
  8
0
  6
Continuous
 62
     7
100
AcDbLine
 10
-247.7743225097656
 20
337.8679504394531
 30
0.0
 11
-244.7743225097656
 21
334.8679504394531
 31
0.0
  0
LINE
  5
11A
330
22
100
AcDbEntity
  8
0
  6
Continuous
 62
     7
100
AcDbLine
 10
-247.9337768554688
 20
335.9060668945313
 30
0.0
 11
-244.9337768554688
 21
332.9060668945313
 31
0.0
  0
LINE
  5
11B
330
22
100
AcDbEntity
  8
0
  6
Continuous
 62
     7
100
AcDbLine
 10
-247.9337768554688
 20
335.1989440917969
 30
0.0
 11
-244.9337768554688
 21
332.1989440917969
 31
0.0
  0
LINE
  5
11C
330
22
100
AcDbEntity
  8
0
  6
Continuous
 62
     7
100
AcDbLine
 10
-247.9337768554688
 20
333.07763671875
 30
0.0
 11
-245.7240753173828
 21
330.8679504394531
 31
0.0
  0
LINE
  5
11D
330
22
100
AcDbEntity
  8
0
  6
Continuous
 62
     7
100
AcDbLine
 10
-247.9337768554688
 20
332.3705444335938
 30
0.0
 11
-246.4311828613281
 21
330.8679504394531
 31
0.0
  0
LINE
  5
11E
330
22
100
AcDbEntity
  8
0
  6
Continuous
 62
     7
100
AcDbLine
 10
-246.6083374023438
 20
303.4679260253906
 30
0.0
 11
-244.9337768554688
 21
301.7933654785156
 31
0.0
  0
LINE
  5
11F
330
22
100
AcDbEntity
  8
0
  6
Continuous
 62
     7
100
AcDbLine
 10
-247.3154449462891
 20
303.4679260253906
 30
0.0
 11
-244.9337768554688
 21
301.0862731933594
 31
0.0
  0
LINE
  5
120
330
22
100
AcDbEntity
  8
0
  6
Continuous
 62
     7
100
AcDbLine
 10
-247.9337768554688
 20
301.9649353027344
 30
0.0
 11
-244.9337768554688
 21
298.9649353027344
 31
0.0
  0
LINE
  5
121
330
22
100
AcDbEntity
  8
0
  6
Continuous
 62
     7
100
AcDbLine
 10
-247.9337768554688
 20
301.2578430175781
 30
0.0
 11
-245.1438751220703
 21
298.4679260253906
 31
0.0
  0
LINE
  5
122
330
22
100
AcDbEntity
  8
0
  6
Continuous
 62
     7
100
AcDbLine
 10
-247.9337768554688
 20
299.1365051269531
 30
0.0
 11
-247.2651977539063
 21
298.4679260253906
 31
0.0
  0
LINE
  5
123
330
22
100
AcDbEntity
  8
0
  6
Continuous
 62
     7
100
AcDbLine
 10
-245.321044921875
 20
271.0679321289063
 30
0.0
 11
-244.9337768554688
 21
270.6806640625
 31
0.0
  0
LINE
  5
124
330
22
100
AcDbEntity
  8
0
  6
Continuous
 62
     7
100
AcDbLine
 10
-246.0281524658203
 20
271.0679321289063
 30
0.0
 11
-244.9337768554688
 21
269.9735717773438
 31
0.0
  0
LINE
  5
125
330
22
100
AcDbEntity
  8
0
  6
Continuous
 62
     7
100
AcDbLine
 10
-247.9337768554688
 20
270.8522338867188
 30
0.0
 11
-244.9337768554688
 21
267.8522338867188
 31
0.0
  0
LINE
  5
126
330
22
100
AcDbEntity
  8
0
  6
Continuous
 62
     7
100
AcDbLine
 10
-247.9337768554688
 20
270.1451416015625
 30
0.0
 11
-244.9337768554688
 21
267.1451416015625
 31
0.0
  0
LINE
  5
127
330
22
100
AcDbEntity
  8
0
  6
Continuous
 62
     7
100
AcDbLine
 10
-247.9337768554688
 20
268.0238037109375
 30
0.0
 11
-245.9278869628906
 21
266.0179443359375
 31
0.0
  0
LINE
  5
128
330
22
100
AcDbEntity
  8
0
  6
Continuous
 62
     7
100
AcDbLine
 10
-247.9337768554688
 20
267.3167114257813
 30
0.0
 11
-246.6349945068359
 21
266.0179443359375
 31
0.0
  0
LINE
  5
129
330
22
100
AcDbEntity
  8
0
  6
Continuous
 62
     7
100
AcDbLine
 10
-245.2692718505859
 20
236.3679351806641
 30
0.0
 11
-244.9337768554688
 21
236.0324401855469
 31
0.0
  0
LINE
  5
12A
330
22
100
AcDbEntity
  8
0
  6
Continuous
 62
     7
100
AcDbLine
 10
-247.3905944824219
 20
236.3679351806641
 30
0.0
 11
-244.9337768554688
 21
233.9111175537109
 31
0.0
  0
LINE
  5
12B
330
22
100
AcDbEntity
  8
0
  6
Continuous
 62
     7
100
AcDbLine
 10
-247.9337768554688
 20
236.2040100097656
 30
0.0
 11
-245.0977020263672
 21
233.3679351806641
 31
0.0
  0
LINE
  5
12C
330
22
100
AcDbEntity
  8
0
  6
Continuous
 62
     7
100
AcDbLine
 10
-247.9337768554688
 20
234.0826873779297
 30
0.0
 11
-247.2190246582031
 21
233.3679351806641
 31
0.0
  0
LINE
  5
12D
330
22
100
AcDbEntity
  8
0
  6
Continuous
 62
     7
100
AcDbLine
 10
-247.9337768554688
 20
233.3755798339844
 30
0.0
 11
-247.9261322021484
 21
233.3679351806641
 31
0.0
  0
LINE
  5
12E
330
22
100
AcDbEntity
  8
0
  6
Continuous
 62
     7
100
AcDbLine
 10
-135.4337768554688
 20
296.8679504394531
 30
0.0
 11
-135.4337768554688
 21
343.8679504394531
 31
0.0
  0
LINE
  5
12F
330
22
100
AcDbEntity
  8
0
  6
Continuous
 62
     7
100
AcDbLine
 10
-138.9337768554687
 20
299.3679504394531
 30
0.0
 11
-138.9337768554687
 21
342.3679504394531
 31
0.0
  0
LINE
  5
130
330
22
100
AcDbEntity
  8
0
  6
Continuous
 62
     7
100
AcDbLine
 10
-234.4904022216797
 20
127.8679351806641
 30
0.0
 11
-207.0662536621094
 21
175.3679351806641
 31
0.0
  0
LINE
  5
131
330
22
100
AcDbEntity
  8
0
  6
Continuous
 62
     7
100
AcDbLine
 10
-113.368782043457
 20
170.8679351806641
 30
0.0
 11
-95.90058135986328
 21
170.8679351806641
 31
0.0
  0
LINE
  5
132
330
22
100
AcDbEntity
  8
0
  6
Continuous
 62
     7
100
AcDbLine
 10
-138.9337768554687
 20
124.3679351806641
 30
0.0
 11
-138.9337768554687
 21
233.3679351806641
 31
0.0
  0
LINE
  5
133
330
22
100
AcDbEntity
  8
0
  6
Continuous
 62
     7
100
AcDbLine
 10
-247.9337768554688
 20
344.9947509765625
 30
0.0
 11
-244.6224975585938
 21
348.3060302734375
 31
0.0
  0
LINE
  5
134
330
22
100
AcDbEntity
  8
0
  6
Continuous
 62
     7
100
AcDbLine
 10
-247.9337768554688
 20
342.1663208007813
 30
0.0
 11
-243.9337768554688
 21
346.1663208007813
 31
0.0
  0
LINE
  5
135
330
22
100
AcDbEntity
  8
0
  6
Continuous
 62
     7
100
AcDbLine
 10
-247.9337768554688
 20
339.337890625
 30
0.0
 11
-243.9337768554688
 21
343.337890625
 31
0.0
  0
LINE
  5
136
330
22
100
AcDbEntity
  8
0
  6
Continuous
 62
     7
100
AcDbLine
 10
-246.0753021240234
 20
338.3679504394531
 30
0.0
 11
-243.0518188476563
 21
341.3914184570313
 31
0.0
  0
LINE
  5
137
330
22
100
AcDbEntity
  8
0
  6
Continuous
 62
     7
100
AcDbLine
 10
-243.2468719482422
 20
338.3679504394531
 30
0.0
 11
-240.2468719482422
 21
341.3679504394531
 31
0.0
  0
LINE
  5
138
330
22
100
AcDbEntity
  8
0
  6
Continuous
 62
     7
100
AcDbLine
 10
-242.9337768554688
 20
335.8526000976563
 30
0.0
 11
-237.5765686035156
 21
341.2098083496094
 31
0.0
  0
LINE
  5
139
330
22
100
AcDbEntity
  8
0
  6
Continuous
 62
     7
100
AcDbLine
 10
-241.0900115966797
 20
334.8679504394531
 30
0.0
 11
-235.7004852294922
 21
340.2574768066406
 31
0.0
  0
LINE
  5
13A
330
22
100
AcDbEntity
  8
0
  6
Continuous
 62
     7
100
AcDbLine
 10
-238.2858123779297
 20
334.8437194824219
 30
0.0
 11
-234.4066467285156
 21
338.7228698730469
 31
0.0
  0
LINE
  5
13B
330
22
100
AcDbEntity
  8
0
  6
Continuous
 62
     7
100
AcDbLine
 10
-236.0940551757813
 20
334.2070617675781
 30
0.0
 11
-233.3713684082031
 21
336.9297180175781
 31
0.0
  0
LINE
  5
13C
330
22
100
AcDbEntity
  8
0
  6
Continuous
 62
     7
100
AcDbLine
 10
-234.5784149169922
 20
332.8942565917969
 30
0.0
 11
-232.3360900878906
 21
335.1365661621094
 31
0.0
  0
LINE
  5
13D
330
22
100
AcDbEntity
  8
0
  6
Continuous
 62
     7
100
AcDbLine
 10
-233.4969635009766
 20
331.1472778320313
 30
0.0
 11
-231.3008117675781
 21
333.3434143066406
 31
0.0
  0
LINE
  5
13E
330
22
100
AcDbEntity
  8
0
  6
Continuous
 62
     7
100
AcDbLine
 10
-232.4617004394531
 20
329.3541259765625
 30
0.0
 11
-230.2655487060547
 21
331.5502624511719
 31
0.0
  0
LINE
  5
13F
330
22
100
AcDbEntity
  8
0
  6
Continuous
 62
     7
100
AcDbLine
 10
-231.4264221191406
 20
327.5609741210938
 30
0.0
 11
-229.2302703857422
 21
329.7571105957031
 31
0.0
  0
LINE
  5
140
330
22
100
AcDbEntity
  8
0
  6
Continuous
 62
     7
100
AcDbLine
 10
-230.3911437988281
 20
325.767822265625
 30
0.0
 11
-228.1949920654297
 21
327.9639587402344
 31
0.0
  0
LINE
  5
141
330
22
100
AcDbEntity
  8
0
  6
Continuous
 62
     7
100
AcDbLine
 10
-229.3558654785156
 20
323.9746704101563
 30
0.0
 11
-227.1597137451172
 21
326.1708068847656
 31
0.0
  0
LINE
  5
142
330
22
100
AcDbEntity
  8
0
  6
Continuous
 62
     7
100
AcDbLine
 10
-228.3205871582031
 20
322.1815185546875
 30
0.0
 11
-226.1244354248047
 21
324.377685546875
 31
0.0
  0
LINE
  5
143
330
22
100
AcDbEntity
  8
0
  6
Continuous
 62
     7
100
AcDbLine
 10
-227.2853088378906
 20
320.3883666992188
 30
0.0
 11
-225.0891571044922
 21
322.5845336914063
 31
0.0
  0
LINE
  5
144
330
22
100
AcDbEntity
  8
0
  6
Continuous
 62
     7
100
AcDbLine
 10
-226.2500305175781
 20
318.59521484375
 30
0.0
 11
-224.0538787841797
 21
320.7913818359375
 31
0.0
  0
LINE
  5
145
330
22
100
AcDbEntity
  8
0
  6
Continuous
 62
     7
100
AcDbLine
 10
-225.2147674560547
 20
316.8020629882813
 30
0.0
 11
-223.0186157226563
 21
318.9982299804688
 31
0.0
  0
LINE
  5
146
330
22
100
AcDbEntity
  8
0
  6
Continuous
 62
     7
100
AcDbLine
 10
-224.1794891357422
 20
315.0089111328125
 30
0.0
 11
-221.9833374023438
 21
317.205078125
 31
0.0
  0
LINE
  5
147
330
22
100
AcDbEntity
  8
0
  6
Continuous
 62
     7
100
AcDbLine
 10
-223.1442108154297
 20
313.2157592773438
 30
0.0
 11
-220.9480590820313
 21
315.4119262695313
 31
0.0
  0
LINE
  5
148
330
22
100
AcDbEntity
  8
0
  6
Continuous
 62
     7
100
AcDbLine
 10
-222.1089324951172
 20
311.422607421875
 30
0.0
 11
-219.9127807617188
 21
313.6187744140625
 31
0.0
  0
LINE
  5
149
330
22
100
AcDbEntity
  8
0
  6
Continuous
 62
     7
100
AcDbLine
 10
-221.0736541748047
 20
309.6294555664063
 30
0.0
 11
-218.8775024414063
 21
311.8256225585938
 31
0.0
  0
LINE
  5
14A
330
22
100
AcDbEntity
  8
0
  6
Continuous
 62
     7
100
AcDbLine
 10
-220.0383758544922
 20
307.8363037109375
 30
0.0
 11
-217.8422241210938
 21
310.032470703125
 31
0.0
  0
LINE
  5
14B
330
22
100
AcDbEntity
  8
0
  6
Continuous
 62
     7
100
AcDbLine
 10
-219.0030975341797
 20
306.0431518554688
 30
0.0
 11
-216.8069458007813
 21
308.2393188476563
 31
0.0
  0
LINE
  5
14C
330
22
100
AcDbEntity
  8
0
  6
Continuous
 62
     7
100
AcDbLine
 10
-217.9678344726563
 20
304.25
 30
0.0
 11
-215.7716674804688
 21
306.4461669921875
 31
0.0
  0
LINE
  5
14D
330
22
100
AcDbEntity
  8
0
  6
Continuous
 62
     7
100
AcDbLine
 10
-216.9325561523439
 20
302.4568481445313
 30
0.0
 11
-214.7364044189453
 21
304.6530151367188
 31
0.0
  0
LINE
  5
14E
330
22
100
AcDbEntity
  8
0
  6
Continuous
 62
     7
100
AcDbLine
 10
-215.8972778320313
 20
300.6636962890625
 30
0.0
 11
-213.7011260986328
 21
302.85986328125
 31
0.0
  0
LINE
  5
14F
330
22
100
AcDbEntity
  8
0
  6
Continuous
 62
     7
100
AcDbLine
 10
-214.8619995117188
 20
298.8705444335938
 30
0.0
 11
-212.6658477783203
 21
301.0667114257813
 31
0.0
  0
LINE
  5
150
330
22
100
AcDbEntity
  8
0
  6
Continuous
 62
     7
100
AcDbLine
 10
-213.8267211914063
 20
297.077392578125
 30
0.0
 11
-211.6305694580078
 21
299.2735595703125
 31
0.0
  0
LINE
  5
151
330
22
100
AcDbEntity
  8
0
  6
Continuous
 62
     7
100
AcDbLine
 10
-212.7914428710938
 20
295.2842407226563
 30
0.0
 11
-210.5952911376953
 21
297.4804077148438
 31
0.0
  0
LINE
  5
152
330
22
100
AcDbEntity
  8
0
  6
Continuous
 62
     7
100
AcDbLine
 10
-211.7561645507813
 20
293.4910888671875
 30
0.0
 11
-209.5600128173828
 21
295.687255859375
 31
0.0
  0
LINE
  5
153
330
22
100
AcDbEntity
  8
0
  6
Continuous
 62
     7
100
AcDbLine
 10
-210.7209014892578
 20
291.6979675292969
 30
0.0
 11
-208.5247344970703
 21
293.8941040039063
 31
0.0
  0
LINE
  5
154
330
22
100
AcDbEntity
  8
0
  6
Continuous
 62
     7
100
AcDbLine
 10
-209.6856231689453
 20
289.9048156738281
 30
0.0
 11
-207.4894714355469
 21
292.1009521484375
 31
0.0
  0
LINE
  5
155
330
22
100
AcDbEntity
  8
0
  6
Continuous
 62
     7
100
AcDbLine
 10
-208.6267547607422
 20
288.1352233886719
 30
0.0
 11
-206.2440185546875
 21
290.5179748535156
 31
0.0
  0
LINE
  5
156
330
22
100
AcDbEntity
  8
0
  6
Continuous
 62
     7
100
AcDbLine
 10
-207.1973571777344
 20
286.7362060546875
 30
0.0
 11
-204.0656280517578
 21
289.8679504394531
 31
0.0
  0
LINE
  5
157
330
22
100
AcDbEntity
  8
0
  6
Continuous
 62
     7
100
AcDbLine
 10
-205.1251220703125
 20
285.9800109863281
 30
0.0
 11
-201.2371978759766
 21
289.8679504394531
 31
0.0
  0
LINE
  5
158
330
22
100
AcDbEntity
  8
0
  6
Continuous
 62
     7
100
AcDbLine
 10
-202.3587799072266
 20
285.9179382324219
 30
0.0
 11
-198.4087677001953
 21
289.8679504394531
 31
0.0
  0
LINE
  5
159
330
22
100
AcDbEntity
  8
0
  6
Continuous
 62
     7
100
AcDbLine
 10
-199.5303497314453
 20
285.9179382324219
 30
0.0
 11
-195.5803527832031
 21
289.8679504394531
 31
0.0
  0
LINE
  5
15A
330
22
100
AcDbEntity
  8
0
  6
Continuous
 62
     7
100
AcDbLine
 10
-196.7019195556641
 20
285.9179382324219
 30
0.0
 11
-194.0815124511719
 21
288.538330078125
 31
0.0
  0
LINE
  5
15B
330
22
100
AcDbEntity
  8
0
  6
Continuous
 62
     7
100
AcDbLine
 10
-193.8734893798828
 20
285.9179382324219
 30
0.0
 11
-191.4234924316406
 21
288.3679504394531
 31
0.0
  0
LINE
  5
15C
330
22
100
AcDbEntity
  8
0
  6
Continuous
 62
     7
100
AcDbLine
 10
-191.0450592041016
 20
285.9179382324219
 30
0.0
 11
-188.5950622558594
 21
288.3679504394531
 31
0.0
  0
LINE
  5
15D
330
22
100
AcDbEntity
  8
0
  6
Continuous
 62
     7
100
AcDbLine
 10
-188.2166442871094
 20
285.9179382324219
 30
0.0
 11
-185.7666320800781
 21
288.3679504394531
 31
0.0
  0
LINE
  5
15E
330
22
100
AcDbEntity
  8
0
  6
Continuous
 62
     7
100
AcDbLine
 10
-185.3882141113281
 20
285.9179382324219
 30
0.0
 11
-182.9382171630859
 21
288.3679504394531
 31
0.0
  0
LINE
  5
15F
330
22
100
AcDbEntity
  8
0
  6
Continuous
 62
     7
100
AcDbLine
 10
-182.5597839355469
 20
285.9179382324219
 30
0.0
 11
-180.1097869873047
 21
288.3679504394531
 31
0.0
  0
LINE
  5
160
330
22
100
AcDbEntity
  8
0
  6
Continuous
 62
     7
100
AcDbLine
 10
-179.7313537597656
 20
285.9179382324219
 30
0.0
 11
-177.2813568115234
 21
288.3679504394531
 31
0.0
  0
LINE
  5
161
330
22
100
AcDbEntity
  8
0
  6
Continuous
 62
     7
100
AcDbLine
 10
-176.9029235839844
 20
285.9179382324219
 30
0.0
 11
-174.4529266357422
 21
288.3679504394531
 31
0.0
  0
LINE
  5
162
330
22
100
AcDbEntity
  8
0
  6
Continuous
 62
     7
100
AcDbLine
 10
-174.0745086669922
 20
285.9179382324219
 30
0.0
 11
-171.6244964599609
 21
288.3679504394531
 31
0.0
  0
LINE
  5
163
330
22
100
AcDbEntity
  8
0
  6
Continuous
 62
     7
100
AcDbLine
 10
-171.2460784912109
 20
285.9179382324219
 30
0.0
 11
-168.7960815429688
 21
288.3679504394531
 31
0.0
  0
LINE
  5
164
330
22
100
AcDbEntity
  8
0
  6
Continuous
 62
     7
100
AcDbLine
 10
-168.4176483154297
 20
285.9179382324219
 30
0.0
 11
-165.9676513671875
 21
288.3679504394531
 31
0.0
  0
LINE
  5
165
330
22
100
AcDbEntity
  8
0
  6
Continuous
 62
     7
100
AcDbLine
 10
-165.5892181396484
 20
285.9179382324219
 30
0.0
 11
-163.1392211914063
 21
288.3679504394531
 31
0.0
  0
LINE
  5
166
330
22
100
AcDbEntity
  8
0
  6
Continuous
 62
     7
100
AcDbLine
 10
-162.7607879638672
 20
285.9179382324219
 30
0.0
 11
-160.310791015625
 21
288.3679504394531
 31
0.0
  0
LINE
  5
167
330
22
100
AcDbEntity
  8
0
  6
Continuous
 62
     7
100
AcDbLine
 10
-247.9337768554688
 20
298.4679260253906
 30
0.0
 11
-244.9337768554688
 21
298.4679260253906
 31
0.0
  0
LINE
  5
168
330
22
100
AcDbEntity
  8
0
  6
Continuous
 62
     7
100
AcDbLine
 10
-143.9337768554688
 20
172.3679351806641
 30
0.0
 11
-177.9337768554688
 21
172.3679351806641
 31
0.0
  0
LINE
  5
169
330
22
100
AcDbEntity
  8
0
  6
Continuous
 62
     7
100
AcDbLine
 10
-138.9161682128906
 20
342.4564208984375
 30
0.0
 11
-137.0222473144531
 21
344.350341796875
 31
0.0
  0
LINE
  5
16A
330
22
100
AcDbEntity
  8
0
  6
Continuous
 62
     7
100
AcDbLine
 10
-138.9337768554687
 20
338.1961669921875
 30
0.0
 11
-135.4337768554688
 21
341.6961669921875
 31
0.0
  0
LINE
  5
16B
330
22
100
AcDbEntity
  8
0
  6
Continuous
 62
     7
100
AcDbLine
 10
-138.9337768554687
 20
333.9535217285156
 30
0.0
 11
-135.4337768554688
 21
337.4535217285156
 31
0.0
  0
LINE
  5
16C
330
22
100
AcDbEntity
  8
0
  6
Continuous
 62
     7
100
AcDbLine
 10
-138.9337768554687
 20
329.7109069824219
 30
0.0
 11
-135.4337768554688
 21
333.2109069824219
 31
0.0
  0
LINE
  5
16D
330
22
100
AcDbEntity
  8
0
  6
Continuous
 62
     7
100
AcDbLine
 10
-178.7767333984375
 20
289.8679504394531
 30
0.0
 11
-174.2767333984375
 21
294.3679504394531
 31
0.0
  0
LINE
  5
16E
330
22
100
AcDbEntity
  8
0
  6
Continuous
 62
     7
100
AcDbLine
 10
-138.9337768554687
 20
325.46826171875
 30
0.0
 11
-135.4337768554688
 21
328.96826171875
 31
0.0
  0
LINE
  5
16F
330
22
100
AcDbEntity
  8
0
  6
Continuous
 62
     7
100
AcDbLine
 10
-174.5340881347656
 20
289.8679504394531
 30
0.0
 11
-170.0340881347656
 21
294.3679504394531
 31
0.0
  0
LINE
  5
170
330
22
100
AcDbEntity
  8
0
  6
Continuous
 62
     7
100
AcDbLine
 10
-138.9337768554687
 20
321.2256164550781
 30
0.0
 11
-135.4337768554688
 21
324.7256164550781
 31
0.0
  0
LINE
  5
171
330
22
100
AcDbEntity
  8
0
  6
Continuous
 62
     7
100
AcDbLine
 10
-170.2914428710938
 20
289.8679504394531
 30
0.0
 11
-165.7914428710938
 21
294.3679504394531
 31
0.0
  0
LINE
  5
172
330
22
100
AcDbEntity
  8
0
  6
Continuous
 62
     7
100
AcDbLine
 10
-138.9337768554687
 20
316.9829711914063
 30
0.0
 11
-135.4337768554688
 21
320.4829711914063
 31
0.0
  0
LINE
  5
173
330
22
100
AcDbEntity
  8
0
  6
Continuous
 62
     7
100
AcDbLine
 10
-166.0488128662109
 20
289.8679504394531
 30
0.0
 11
-161.5488128662109
 21
294.3679504394531
 31
0.0
  0
LINE
  5
174
330
22
100
AcDbEntity
  8
0
  6
Continuous
 62
     7
100
AcDbLine
 10
-138.9337768554687
 20
312.7403259277344
 30
0.0
 11
-135.4337768554688
 21
316.2403259277344
 31
0.0
  0
LINE
  5
175
330
22
100
AcDbEntity
  8
0
  6
Continuous
 62
     7
100
AcDbLine
 10
-161.8061676025391
 20
289.8679504394531
 30
0.0
 11
-157.3061676025391
 21
294.3679504394531
 31
0.0
  0
LINE
  5
176
330
22
100
AcDbEntity
  8
0
  6
Continuous
 62
     7
100
AcDbLine
 10
-138.9337768554687
 20
308.4976806640625
 30
0.0
 11
-135.4337768554688
 21
311.9976806640625
 31
0.0
  0
LINE
  5
177
330
22
100
AcDbEntity
  8
0
  6
Continuous
 62
     7
100
AcDbLine
 10
-157.5635223388672
 20
289.8679504394531
 30
0.0
 11
-153.0635223388672
 21
294.3679504394531
 31
0.0
  0
LINE
  5
178
330
22
100
AcDbEntity
  8
0
  6
Continuous
 62
     7
100
AcDbLine
 10
-138.9337768554687
 20
304.2550354003906
 30
0.0
 11
-135.4337768554688
 21
307.7550354003906
 31
0.0
  0
LINE
  5
179
330
22
100
AcDbEntity
  8
0
  6
Continuous
 62
     7
100
AcDbLine
 10
-153.3208770751953
 20
289.8679504394531
 30
0.0
 11
-148.8208770751953
 21
294.3679504394531
 31
0.0
  0
LINE
  5
17A
330
22
100
AcDbEntity
  8
0
  6
Continuous
 62
     7
100
AcDbLine
 10
-138.9337768554687
 20
300.0124206542969
 30
0.0
 11
-135.4337768554688
 21
303.5124206542969
 31
0.0
  0
LINE
  5
17B
330
22
100
AcDbEntity
  8
0
  6
Continuous
 62
     7
100
AcDbLine
 10
-149.0782470703125
 20
289.8679504394531
 30
0.0
 11
-144.5782470703125
 21
294.3679504394531
 31
0.0
  0
LINE
  5
17C
330
22
100
AcDbEntity
  8
0
  6
Continuous
 62
     7
100
AcDbLine
 10
-144.8356018066406
 20
289.8679504394531
 30
0.0
 11
-135.4337768554688
 21
299.269775390625
 31
0.0
  0
LINE
  5
17D
330
22
100
AcDbEntity
  8
0
  6
Continuous
 62
     7
100
AcDbLine
 10
-140.5929565429687
 20
289.8679504394531
 30
0.0
 11
-134.5665435791016
 21
295.8943481445313
 31
0.0
  0
LINE
  5
17E
330
22
100
AcDbEntity
  8
0
  6
Continuous
 62
     7
100
AcDbLine
 10
-136.8203125
 20
289.39794921875
 30
0.0
 11
-130.3503265380859
 21
295.8679504394531
 31
0.0
  0
LINE
  5
17F
330
22
100
AcDbEntity
  8
0
  6
Continuous
 62
     7
100
AcDbLine
 10
-133.3391571044922
 20
288.6364440917969
 30
0.0
 11
-126.1076812744141
 21
295.8679504394531
 31
0.0
  0
LINE
  5
180
330
22
100
AcDbEntity
  8
0
  6
Continuous
 62
     7
100
AcDbLine
 10
-128.9596557617187
 20
288.7733154296875
 30
0.0
 11
-121.8650436401367
 21
295.8679504394531
 31
0.0
  0
LINE
  5
181
330
22
100
AcDbEntity
  8
0
  6
Continuous
 62
     7
100
AcDbLine
 10
-124.5801467895508
 20
288.9101867675781
 30
0.0
 11
-117.6223983764648
 21
295.8679504394531
 31
0.0
  0
LINE
  5
182
330
22
100
AcDbEntity
  8
0
  6
Continuous
 62
     7
100
AcDbLine
 10
-120.2006378173828
 20
289.0470581054688
 30
0.0
 11
-113.3797607421875
 21
295.8679504394531
 31
0.0
  0
LINE
  5
183
330
22
100
AcDbEntity
  8
0
  6
Continuous
 62
     7
100
AcDbLine
 10
-115.8211364746094
 20
289.1839294433594
 30
0.0
 11
-109.1371154785156
 21
295.8679504394531
 31
0.0
  0
LINE
  5
184
330
22
100
AcDbEntity
  8
0
  6
Continuous
 62
     7
100
AcDbLine
 10
-111.4416275024414
 20
289.32080078125
 30
0.0
 11
-104.8944778442383
 21
295.8679504394531
 31
0.0
  0
LINE
  5
185
330
22
100
AcDbEntity
  8
0
  6
Continuous
 62
     7
100
AcDbLine
 10
-107.0621185302734
 20
289.4576416015625
 30
0.0
 11
-100.6518402099609
 21
295.8679504394531
 31
0.0
  0
LINE
  5
186
330
22
100
AcDbEntity
  8
0
  6
Continuous
 62
     7
100
AcDbLine
 10
-102.6826095581055
 20
289.5945129394531
 30
0.0
 11
-96.40919494628906
 21
295.8679504394531
 31
0.0
  0
LINE
  5
187
330
22
100
AcDbEntity
  8
0
  6
Continuous
 62
     7
100
AcDbLine
 10
-98.30310058593751
 20
289.7313842773438
 30
0.0
 11
-93.93376922607421
 21
294.1007080078125
 31
0.0
  0
LINE
  5
188
330
22
100
AcDbEntity
  8
0
  6
Continuous
 62
     7
100
AcDbLine
 10
-178.9337768554688
 20
289.8679504394531
 30
0.0
 11
-138.9337768554687
 21
289.8679504394531
 31
0.0
  0
LINE
  5
189
330
22
100
AcDbEntity
  8
0
  6
Continuous
 62
     7
100
AcDbLine
 10
-138.9337768554687
 20
342.3679504394531
 30
0.0
 11
-138.9337768554687
 21
313.8026733398438
 31
0.0
  0
LINE
  5
18A
330
22
100
AcDbEntity
  8
0
  6
Continuous
 62
     7
100
AcDbLine
 10
-177.4337768554688
 20
288.3679504394531
 30
0.0
 11
-140.4337768554688
 21
288.3679504394531
 31
0.0
  0
LINE
  5
18B
330
22
100
AcDbEntity
  8
0
  6
Continuous
 62
     7
100
AcDbLine
 10
-143.9337768554688
 20
294.3679504394531
 30
0.0
 11
-177.9337768554688
 21
294.3679504394531
 31
0.0
  0
LINE
  5
18C
330
22
100
AcDbEntity
  8
0
  6
CENTER
 62
     7
100
AcDbLine
 10
-86.89299774169922
 20
233.3679351806641
 30
0.0
 11
-257.7371520996095
 21
233.3679351806641
 31
0.0
  0
LINE
  5
18D
330
22
100
AcDbEntity
  8
0
  6
Continuous
 62
     7
100
AcDbLine
 10
-235.9337768554688
 20
130.3679351806641
 30
0.0
 11
-235.9337768554688
 21
233.3679351806641
 31
0.0
  0
LINE
  5
18E
330
22
100
AcDbEntity
  8
0
  6
Continuous
 62
     7
100
AcDbLine
 10
-243.9337768554688
 20
125.3679351806641
 30
0.0
 11
-243.9337768554688
 21
233.3679351806641
 31
0.0
  0
LINE
  5
18F
330
22
100
AcDbEntity
  8
0
  6
Continuous
 62
     7
100
AcDbLine
 10
-247.9337768554688
 20
119.3679351806641
 30
0.0
 11
-247.9337768554688
 21
233.3679351806641
 31
0.0
  0
LINE
  5
190
330
22
100
AcDbEntity
  8
0
  6
Continuous
 62
     7
100
AcDbLine
 10
-93.93376922607421
 20
171.8679351806641
 30
0.0
 11
-93.93376922607421
 21
294.8679504394531
 31
0.0
  0
LINE
  5
191
330
22
100
AcDbEntity
  8
0
  6
Continuous
 62
     7
100
AcDbLine
 10
-193.9111175537109
 20
178.3679351806641
 30
0.0
 11
-193.9111175537109
 21
233.3679351806641
 31
0.0
  0
LINE
  5
192
330
22
100
AcDbEntity
  8
0
  6
Continuous
 62
     7
100
AcDbLine
 10
-205.7364196777344
 20
179.0181274414063
 30
0.0
 11
-205.7364196777344
 21
233.3679351806641
 31
0.0
  0
LINE
  5
193
330
22
100
AcDbEntity
  8
0
  6
Continuous
 62
     7
100
AcDbLine
 10
-178.9337768554688
 20
173.3679351806641
 30
0.0
 11
-178.9337768554688
 21
233.3679351806641
 31
0.0
  0
LINE
  5
194
330
22
100
AcDbEntity
  8
0
  6
Continuous
 62
     7
100
AcDbLine
 10
-135.4337768554688
 20
233.3679351806641
 30
0.0
 11
-135.4337768554688
 21
122.8679351806641
 31
0.0
  0
LINE
  5
195
330
22
100
AcDbEntity
  8
0
  6
Continuous
 62
     7
100
AcDbLine
 10
-367.2018127441406
 20
303.2044982910156
 30
0.0
 11
-363.8589477539063
 21
303.661865234375
 31
0.0
  0
LINE
  5
196
330
22
100
AcDbEntity
  8
0
  6
Continuous
 62
     7
100
AcDbLine
 10
-367.2018127441406
 20
302.7414855957031
 30
0.0
 11
-367.2018127441406
 21
303.2044982910156
 31
0.0
  0
LINE
  5
197
330
22
100
AcDbEntity
  8
0
  6
Continuous
 62
     7
100
AcDbLine
 10
-363.4012145996094
 20
306.9795532226563
 30
0.0
 11
-362.9385681152344
 21
306.9795532226563
 31
0.0
  0
LINE
  5
198
330
22
100
AcDbEntity
  8
0
  6
Continuous
 62
     7
100
AcDbLine
 10
-363.4012145996094
 20
306.9795532226563
 30
0.0
 11
-363.8589477539063
 21
303.661865234375
 31
0.0
  0
LINE
  5
199
330
22
100
AcDbEntity
  8
0
  6
Continuous
 62
     7
100
AcDbLine
 10
-358.6753234863281
 20
303.2044982910156
 30
0.0
 11
-362.0181884765625
 21
303.661865234375
 31
0.0
  0
LINE
  5
19A
330
22
100
AcDbEntity
  8
0
  6
Continuous
 62
     7
100
AcDbLine
 10
-417.5493774414062
 20
257.4012756347656
 30
0.0
 11
-417.5493774414062
 21
239.1846008300781
 31
0.0
  0
LINE
  5
19B
330
22
100
AcDbEntity
  8
0
  6
Continuous
 62
     7
100
AcDbLine
 10
-424.0493774414063
 20
257.4012756347656
 30
0.0
 11
-424.0493774414063
 21
239.1846008300781
 31
0.0
  0
LINE
  5
19C
330
22
100
AcDbEntity
  8
0
  6
Continuous
 62
     7
100
AcDbLine
 10
-394.5493774414063
 20
253.55126953125
 30
0.0
 11
-394.5493774414063
 21
239.1846008300781
 31
0.0
  0
LINE
  5
19D
330
22
100
AcDbEntity
  8
0
  6
Continuous
 62
     7
100
AcDbLine
 10
-337.0493774414063
 20
254.1930999755859
 30
0.0
 11
-337.0493774414063
 21
239.1846008300781
 31
0.0
  0
LINE
  5
19E
330
22
100
AcDbEntity
  8
0
  6
Continuous
 62
     7
100
AcDbLine
 10
-355.0493774414063
 20
248.55126953125
 30
0.0
 11
-355.0493774414063
 21
239.1846008300781
 31
0.0
  0
LINE
  5
19F
330
22
100
AcDbEntity
  8
0
  6
Continuous
 62
     7
100
AcDbLine
 10
-348.5493774414063
 20
248.55126953125
 30
0.0
 11
-348.5493774414063
 21
239.1846008300781
 31
0.0
  0
LINE
  5
1A0
330
22
100
AcDbEntity
  8
0
  6
Continuous
 62
     7
100
AcDbLine
 10
-401.0493774414062
 20
321.5074768066406
 30
0.0
 11
-401.0493774414062
 21
307.1408081054688
 31
0.0
  0
LINE
  5
1A1
330
22
100
AcDbEntity
  8
0
  6
Continuous
 62
     7
100
AcDbLine
 10
-417.5493774414062
 20
327.3706970214844
 30
0.0
 11
-417.5493774414062
 21
309.067626953125
 31
0.0
  0
LINE
  5
1A2
330
22
100
AcDbEntity
  8
0
  6
Continuous
 62
     7
100
AcDbLine
 10
-424.0493774414063
 20
327.3706970214844
 30
0.0
 11
-424.0493774414063
 21
309.067626953125
 31
0.0
  0
LINE
  5
1A3
330
22
100
AcDbEntity
  8
0
  6
Continuous
 62
     7
100
AcDbLine
 10
-394.5493774414063
 20
321.5074768066406
 30
0.0
 11
-394.5493774414063
 21
307.1408081054688
 31
0.0
  0
LINE
  5
1A4
330
22
100
AcDbEntity
  8
0
  6
Continuous
 62
     7
100
AcDbLine
 10
-362.4759216308594
 20
306.9795532226563
 30
0.0
 11
-362.0181884765625
 21
303.661865234375
 31
0.0
  0
LINE
  5
1A5
330
22
100
AcDbEntity
  8
0
  6
Continuous
 62
     7
100
AcDbLine
 10
-362.4759216308594
 20
306.9795532226563
 30
0.0
 11
-362.9385681152344
 21
306.9795532226563
 31
0.0
  0
LINE
  5
1A6
330
22
100
AcDbEntity
  8
0
  6
Continuous
 62
     7
100
AcDbLine
 10
-358.6753234863281
 20
302.7414855957031
 30
0.0
 11
-358.6753234863281
 21
303.2044982910156
 31
0.0
  0
LINE
  5
1A7
330
22
100
AcDbEntity
  8
0
  6
Continuous
 62
     7
100
AcDbLine
 10
-406.0493774414062
 20
286.8512573242188
 30
0.0
 11
-406.0493774414062
 21
277.4845886230469
 31
0.0
  0
LINE
  5
1A8
330
22
100
AcDbEntity
  8
0
  6
Continuous
 62
     7
100
AcDbLine
 10
-412.5493774414063
 20
286.8512573242188
 30
0.0
 11
-412.5493774414063
 21
277.4845886230469
 31
0.0
  0
LINE
  5
1A9
330
22
100
AcDbEntity
  8
0
  6
Continuous
 62
     7
100
AcDbLine
 10
-389.5493774414063
 20
282.3512573242188
 30
0.0
 11
-389.5493774414063
 21
272.9845886230469
 31
0.0
  0
LINE
  5
1AA
330
22
100
AcDbEntity
  8
0
  6
Continuous
 62
     7
100
AcDbLine
 10
-360.0493774414063
 20
293.05126953125
 30
0.0
 11
-360.0493774414063
 21
274.1846008300781
 31
0.0
  0
LINE
  5
1AB
330
22
100
AcDbEntity
  8
0
  6
Continuous
 62
     7
100
AcDbLine
 10
-366.5493774414063
 20
293.05126953125
 30
0.0
 11
-366.5493774414063
 21
274.1846008300781
 31
0.0
  0
LINE
  5
1AC
330
22
100
AcDbEntity
  8
0
  6
Continuous
 62
     7
100
AcDbLine
 10
-366.5493774414063
 20
263.55126953125
 30
0.0
 11
-366.5493774414063
 21
239.1846008300781
 31
0.0
  0
LINE
  5
1AD
330
22
100
AcDbEntity
  8
0
  6
Continuous
 62
     7
100
AcDbLine
 10
-383.0493774414063
 20
262.3512573242188
 30
0.0
 11
-383.0493774414063
 21
239.1846008300781
 31
0.0
  0
LINE
  5
1AE
330
22
100
AcDbEntity
  8
0
  6
Continuous
 62
     7
100
AcDbLine
 10
-389.5493774414063
 20
262.3512573242188
 30
0.0
 11
-389.5493774414063
 21
239.1846008300781
 31
0.0
  0
LINE
  5
1AF
330
22
100
AcDbEntity
  8
0
  6
Continuous
 62
     7
100
AcDbLine
 10
-360.0493774414063
 20
263.55126953125
 30
0.0
 11
-360.0493774414063
 21
239.1846008300781
 31
0.0
  0
LINE
  5
1B0
330
22
100
AcDbEntity
  8
0
  6
Continuous
 62
     7
100
AcDbLine
 10
-371.5493774414063
 20
268.55126953125
 30
0.0
 11
-371.5493774414063
 21
239.1846008300781
 31
0.0
  0
LINE
  5
1B1
330
22
100
AcDbEntity
  8
0
  6
Continuous
 62
     7
100
AcDbLine
 10
-406.0493774414062
 20
266.8512573242188
 30
0.0
 11
-406.0493774414062
 21
239.1846008300781
 31
0.0
  0
LINE
  5
1B2
330
22
100
AcDbEntity
  8
0
  6
Continuous
 62
     7
100
AcDbLine
 10
-412.5493774414063
 20
266.8512573242188
 30
0.0
 11
-412.5493774414063
 21
239.1846008300781
 31
0.0
  0
LINE
  5
1B3
330
22
100
AcDbEntity
  8
0
  6
Continuous
 62
     7
100
AcDbLine
 10
-343.5493774414063
 20
263.1116333007813
 30
0.0
 11
-343.5493774414063
 21
239.1846008300781
 31
0.0
  0
LINE
  5
1B4
330
22
100
AcDbEntity
  8
0
  6
Continuous
 62
     7
100
AcDbLine
 10
-378.0493774414063
 20
268.55126953125
 30
0.0
 11
-378.0493774414063
 21
239.1846008300781
 31
0.0
  0
LINE
  5
1B5
330
22
100
AcDbEntity
  8
0
  6
Continuous
 62
     7
100
AcDbLine
 10
-401.0493774414062
 20
253.55126953125
 30
0.0
 11
-401.0493774414062
 21
239.1846008300781
 31
0.0
  0
LINE
  5
1B6
330
22
100
AcDbEntity
  8
0
  6
Continuous
 62
     7
100
AcDbLine
 10
-447.0493774414062
 20
327.3706970214844
 30
0.0
 11
-447.0493774414062
 21
309.067626953125
 31
0.0
  0
LINE
  5
1B7
330
22
100
AcDbEntity
  8
0
  6
Continuous
 62
     7
100
AcDbLine
 10
-394.5493774414063
 20
296.5044250488281
 30
0.0
 11
-394.5493774414063
 21
264.1846008300781
 31
0.0
  0
LINE
  5
1B8
330
22
100
AcDbEntity
  8
0
  6
Continuous
 62
     7
100
AcDbLine
 10
-401.0493774414062
 20
296.5044250488281
 30
0.0
 11
-401.0493774414062
 21
264.1846008300781
 31
0.0
  0
LINE
  5
1B9
330
22
100
AcDbEntity
  8
0
  6
Continuous
 62
     7
100
AcDbLine
 10
-424.0493774414063
 20
298.4342956542969
 30
0.0
 11
-424.0493774414063
 21
268.067626953125
 31
0.0
  0
LINE
  5
1BA
330
22
100
AcDbEntity
  8
0
  6
Continuous
 62
     7
100
AcDbLine
 10
-417.5493774414062
 20
298.4342956542969
 30
0.0
 11
-417.5493774414062
 21
268.067626953125
 31
0.0
  0
LINE
  5
1BB
330
22
100
AcDbEntity
  8
0
  6
Continuous
 62
     7
100
AcDbLine
 10
-348.5493774414063
 20
282.8779907226563
 30
0.0
 11
-348.5493774414063
 21
259.1846008300781
 31
0.0
  0
LINE
  5
1BC
330
22
100
AcDbEntity
  8
0
  6
Continuous
 62
     7
100
AcDbLine
 10
-355.0493774414063
 20
282.8779907226563
 30
0.0
 11
-355.0493774414063
 21
259.1846008300781
 31
0.0
  0
LINE
  5
1BD
330
22
100
AcDbEntity
  8
0
  6
Continuous
 62
     7
100
AcDbLine
 10
-383.0493774414063
 20
282.3512573242188
 30
0.0
 11
-383.0493774414063
 21
272.9845886230469
 31
0.0
  0
LINE
  5
1BE
330
22
100
AcDbEntity
  8
0
  6
Continuous
 62
     7
100
AcDbLine
 10
-470.0493774414063
 20
253.55126953125
 30
0.0
 11
-470.0493774414063
 21
239.1846008300781
 31
0.0
  0
LINE
  5
1BF
330
22
100
AcDbEntity
  8
0
  6
Continuous
 62
     7
100
AcDbLine
 10
-505.91064453125
 20
303.1910095214844
 30
0.0
 11
-502.5929260253906
 21
303.6487426757813
 31
0.0
  0
LINE
  5
1C0
330
22
100
AcDbEntity
  8
0
  6
Continuous
 62
     7
100
AcDbLine
 10
-505.91064453125
 20
303.1910095214844
 30
0.0
 11
-505.91064453125
 21
302.7283630371094
 31
0.0
  0
LINE
  5
1C1
330
22
100
AcDbEntity
  8
0
  6
Continuous
 62
     7
100
AcDbLine
 10
-497.4344787597656
 20
303.1910095214844
 30
0.0
 11
-500.752197265625
 21
303.6487426757813
 31
0.0
  0
LINE
  5
1C2
330
22
100
AcDbEntity
  8
0
  6
Continuous
 62
     7
100
AcDbLine
 10
-501.2095642089843
 20
306.9916381835938
 30
0.0
 11
-500.752197265625
 21
303.6487426757813
 31
0.0
  0
LINE
  5
1C3
330
22
100
AcDbEntity
  8
0
  6
Continuous
 62
     7
100
AcDbLine
 10
-501.6725463867188
 20
306.9916381835938
 30
0.0
 11
-501.2095642089843
 21
306.9916381835938
 31
0.0
  0
LINE
  5
1C4
330
22
100
AcDbEntity
  8
0
  6
Continuous
 62
     7
100
AcDbLine
 10
-502.1355590820313
 20
306.9916381835938
 30
0.0
 11
-502.5929260253906
 21
303.6487426757813
 31
0.0
  0
LINE
  5
1C5
330
22
100
AcDbEntity
  8
0
  6
Continuous
 62
     7
100
AcDbLine
 10
-501.6725463867188
 20
306.9916381835938
 30
0.0
 11
-502.1355590820313
 21
306.9916381835938
 31
0.0
  0
LINE
  5
1C6
330
22
100
AcDbEntity
  8
0
  6
Continuous
 62
     7
100
AcDbLine
 10
-440.5493774414063
 20
327.3706970214844
 30
0.0
 11
-440.5493774414063
 21
309.067626953125
 31
0.0
  0
LINE
  5
1C7
330
22
100
AcDbEntity
  8
0
  6
Continuous
 62
     7
100
AcDbLine
 10
-470.0493774414063
 20
321.3340148925781
 30
0.0
 11
-470.0493774414063
 21
307.1408081054688
 31
0.0
  0
LINE
  5
1C8
330
22
100
AcDbEntity
  8
0
  6
Continuous
 62
     7
100
AcDbLine
 10
-463.5493774414062
 20
321.3340148925781
 30
0.0
 11
-463.5493774414062
 21
307.1408081054688
 31
0.0
  0
LINE
  5
1C9
330
22
100
AcDbEntity
  8
0
  6
Continuous
 62
     7
100
AcDbLine
 10
-435.5493774414063
 20
328.05126953125
 30
0.0
 11
-435.5493774414063
 21
306.2846069335938
 31
0.0
  0
LINE
  5
1CA
330
22
100
AcDbEntity
  8
0
  6
Continuous
 62
     7
100
AcDbLine
 10
-429.0493774414063
 20
328.05126953125
 30
0.0
 11
-429.0493774414063
 21
306.2846069335938
 31
0.0
  0
LINE
  5
1CB
330
22
100
AcDbEntity
  8
0
  6
Continuous
 62
     7
100
AcDbLine
 10
-497.4344787597656
 20
303.1910095214844
 30
0.0
 11
-497.4344787597656
 21
302.7283630371094
 31
0.0
  0
LINE
  5
1CC
330
22
100
AcDbEntity
  8
0
  6
Continuous
 62
     7
100
AcDbLine
 10
-475.0493774414063
 20
282.3512573242188
 30
0.0
 11
-475.0493774414063
 21
272.9845886230469
 31
0.0
  0
LINE
  5
1CD
330
22
100
AcDbEntity
  8
0
  6
Continuous
 62
     7
100
AcDbLine
 10
-481.5493774414063
 20
282.3512573242188
 30
0.0
 11
-481.5493774414063
 21
272.9845886230469
 31
0.0
  0
LINE
  5
1CE
330
22
100
AcDbEntity
  8
0
  6
Continuous
 62
     7
100
AcDbLine
 10
-435.5493774414063
 20
294.7179260253906
 30
0.0
 11
-435.5493774414063
 21
274.8179321289063
 31
0.0
  0
LINE
  5
1CF
330
22
100
AcDbEntity
  8
0
  6
Continuous
 62
     7
100
AcDbLine
 10
-429.0493774414063
 20
294.7179260253906
 30
0.0
 11
-429.0493774414063
 21
274.8179321289063
 31
0.0
  0
LINE
  5
1D0
330
22
100
AcDbEntity
  8
0
  6
Continuous
 62
     7
100
AcDbLine
 10
-458.5493774414063
 20
286.7512817382813
 30
0.0
 11
-458.5493774414063
 21
277.2846069335938
 31
0.0
  0
LINE
  5
1D1
330
22
100
AcDbEntity
  8
0
  6
Continuous
 62
     7
100
AcDbLine
 10
-452.0493774414062
 20
286.7512817382813
 30
0.0
 11
-452.0493774414062
 21
277.2846069335938
 31
0.0
  0
LINE
  5
1D2
330
22
100
AcDbEntity
  8
0
  6
Continuous
 62
     7
100
AcDbLine
 10
-498.0493774414063
 20
293.05126953125
 30
0.0
 11
-498.0493774414063
 21
274.1846008300781
 31
0.0
  0
LINE
  5
1D3
330
22
100
AcDbEntity
  8
0
  6
Continuous
 62
     7
100
AcDbLine
 10
-435.5493774414063
 20
262.2679443359375
 30
0.0
 11
-435.5493774414063
 21
240.1179351806641
 31
0.0
  0
LINE
  5
1D4
330
22
100
AcDbEntity
  8
0
  6
Continuous
 62
     7
100
AcDbLine
 10
-493.0493774414062
 20
268.55126953125
 30
0.0
 11
-493.0493774414062
 21
239.1846008300781
 31
0.0
  0
LINE
  5
1D5
330
22
100
AcDbEntity
  8
0
  6
Continuous
 62
     7
100
AcDbLine
 10
-429.0493774414063
 20
262.2679443359375
 30
0.0
 11
-429.0493774414063
 21
240.1179351806641
 31
0.0
  0
LINE
  5
1D6
330
22
100
AcDbEntity
  8
0
  6
Continuous
 62
     7
100
AcDbLine
 10
-498.0493774414063
 20
263.55126953125
 30
0.0
 11
-498.0493774414063
 21
239.1846008300781
 31
0.0
  0
LINE
  5
1D7
330
22
100
AcDbEntity
  8
0
  6
Continuous
 62
     7
100
AcDbLine
 10
-486.5493774414063
 20
268.55126953125
 30
0.0
 11
-486.5493774414063
 21
239.1846008300781
 31
0.0
  0
LINE
  5
1D8
330
22
100
AcDbEntity
  8
0
  6
Continuous
 62
     7
100
AcDbLine
 10
-475.0493774414063
 20
262.3512573242188
 30
0.0
 11
-475.0493774414063
 21
239.1846008300781
 31
0.0
  0
LINE
  5
1D9
330
22
100
AcDbEntity
  8
0
  6
Continuous
 62
     7
100
AcDbLine
 10
-452.0493774414062
 20
266.6512756347656
 30
0.0
 11
-452.0493774414062
 21
239.1846008300781
 31
0.0
  0
LINE
  5
1DA
330
22
100
AcDbEntity
  8
0
  6
Continuous
 62
     7
100
AcDbLine
 10
-458.5493774414063
 20
266.6512756347656
 30
0.0
 11
-458.5493774414063
 21
239.1846008300781
 31
0.0
  0
LINE
  5
1DB
330
22
100
AcDbEntity
  8
0
  6
Continuous
 62
     7
100
AcDbLine
 10
-481.5493774414063
 20
262.3512573242188
 30
0.0
 11
-481.5493774414063
 21
239.1846008300781
 31
0.0
  0
LINE
  5
1DC
330
22
100
AcDbEntity
  8
0
  6
Continuous
 62
     7
100
AcDbLine
 10
-447.0493774414062
 20
257.4012756347656
 30
0.0
 11
-447.0493774414062
 21
239.1846008300781
 31
0.0
  0
LINE
  5
1DD
330
22
100
AcDbEntity
  8
0
  6
Continuous
 62
     7
100
AcDbLine
 10
-440.5493774414063
 20
257.4012756347656
 30
0.0
 11
-440.5493774414063
 21
239.1846008300781
 31
0.0
  0
LINE
  5
1DE
330
22
100
AcDbEntity
  8
0
  6
Continuous
 62
     7
100
AcDbLine
 10
-463.5493774414062
 20
253.55126953125
 30
0.0
 11
-463.5493774414062
 21
239.1846008300781
 31
0.0
  0
LINE
  5
1DF
330
22
100
AcDbEntity
  8
0
  6
Continuous
 62
     7
100
AcDbLine
 10
-509.5493774414062
 20
248.55126953125
 30
0.0
 11
-509.5493774414062
 21
239.1846008300781
 31
0.0
  0
LINE
  5
1E0
330
22
100
AcDbEntity
  8
0
  6
Continuous
 62
     7
100
AcDbLine
 10
-516.0493774414063
 20
248.55126953125
 30
0.0
 11
-516.0493774414063
 21
239.1846008300781
 31
0.0
  0
LINE
  5
1E1
330
22
100
AcDbEntity
  8
0
  6
Continuous
 62
     7
100
AcDbLine
 10
-521.0493774414064
 20
263.1116333007813
 30
0.0
 11
-521.0493774414064
 21
239.1846008300781
 31
0.0
  0
LINE
  5
1E2
330
22
100
AcDbEntity
  8
0
  6
Continuous
 62
     7
100
AcDbLine
 10
-527.5493774414063
 20
254.1930999755859
 30
0.0
 11
-527.5493774414063
 21
239.1846008300781
 31
0.0
  0
LINE
  5
1E3
330
22
100
AcDbEntity
  8
0
  6
Continuous
 62
     7
100
AcDbLine
 10
-470.0493774414063
 20
296.4044494628906
 30
0.0
 11
-470.0493774414063
 21
264.1846008300781
 31
0.0
  0
LINE
  5
1E4
330
22
100
AcDbEntity
  8
0
  6
Continuous
 62
     7
100
AcDbLine
 10
-463.5493774414062
 20
296.4044494628906
 30
0.0
 11
-463.5493774414062
 21
264.1846008300781
 31
0.0
  0
LINE
  5
1E5
330
22
100
AcDbEntity
  8
0
  6
Continuous
 62
     7
100
AcDbLine
 10
-447.0493774414062
 20
298.4342956542969
 30
0.0
 11
-447.0493774414062
 21
268.067626953125
 31
0.0
  0
LINE
  5
1E6
330
22
100
AcDbEntity
  8
0
  6
Continuous
 62
     7
100
AcDbLine
 10
-440.5493774414063
 20
298.4342956542969
 30
0.0
 11
-440.5493774414063
 21
268.067626953125
 31
0.0
  0
LINE
  5
1E7
330
22
100
AcDbEntity
  8
0
  6
Continuous
 62
     7
100
AcDbLine
 10
-363.3884582519531
 20
168.270751953125
 30
0.0
 11
-363.8458251953125
 21
164.9278717041016
 31
0.0
  0
LINE
  5
1E8
330
22
100
AcDbEntity
  8
0
  6
Continuous
 62
     7
100
AcDbLine
 10
-362.9254760742188
 20
168.270751953125
 30
0.0
 11
-363.3884582519531
 21
168.270751953125
 31
0.0
  0
LINE
  5
1E9
330
22
100
AcDbEntity
  8
0
  6
Continuous
 62
     7
100
AcDbLine
 10
-362.9254760742188
 20
168.270751953125
 30
0.0
 11
-362.4624633789063
 21
168.270751953125
 31
0.0
  0
LINE
  5
1EA
330
22
100
AcDbEntity
  8
0
  6
Continuous
 62
     7
100
AcDbLine
 10
-360.0493774414063
 20
173.6846008300781
 30
0.0
 11
-360.0493774414063
 21
192.55126953125
 31
0.0
  0
LINE
  5
1EB
330
22
100
AcDbEntity
  8
0
  6
Continuous
 62
     7
100
AcDbLine
 10
-367.1635437011719
 20
164.4701538085938
 30
0.0
 11
-363.8458251953125
 21
164.9278717041016
 31
0.0
  0
LINE
  5
1EC
330
22
100
AcDbEntity
  8
0
  6
Continuous
 62
     7
100
AcDbLine
 10
-362.4624633789063
 20
168.270751953125
 30
0.0
 11
-362.0050964355469
 21
164.9278717041016
 31
0.0
  0
LINE
  5
1ED
330
22
100
AcDbEntity
  8
0
  6
Continuous
 62
     7
100
AcDbLine
 10
-367.1635437011719
 20
164.4701538085938
 30
0.0
 11
-367.1635437011719
 21
164.0075073242188
 31
0.0
  0
LINE
  5
1EE
330
22
100
AcDbEntity
  8
0
  6
Continuous
 62
     7
100
AcDbLine
 10
-367.1635437011719
 20
163.5448455810547
 30
0.0
 11
-367.1635437011719
 21
164.0075073242188
 31
0.0
  0
LINE
  5
1EF
330
22
100
AcDbEntity
  8
0
  6
Continuous
 62
     7
100
AcDbLine
 10
-362.9254760742188
 20
159.7442474365234
 30
0.0
 11
-362.4624633789063
 21
159.7442474365234
 31
0.0
  0
LINE
  5
1F0
330
22
100
AcDbEntity
  8
0
  6
Continuous
 62
     7
100
AcDbLine
 10
-367.1635437011719
 20
163.5448455810547
 30
0.0
 11
-363.8458251953125
 21
163.0871276855469
 31
0.0
  0
LINE
  5
1F1
330
22
100
AcDbEntity
  8
0
  6
Continuous
 62
     7
100
AcDbLine
 10
-358.6873779296875
 20
163.5448455810547
 30
0.0
 11
-362.0050964355469
 21
163.0871276855469
 31
0.0
  0
LINE
  5
1F2
330
22
100
AcDbEntity
  8
0
  6
Continuous
 62
     7
100
AcDbLine
 10
-358.6873779296875
 20
163.5448455810547
 30
0.0
 11
-358.6873779296875
 21
164.0075073242188
 31
0.0
  0
LINE
  5
1F3
330
22
100
AcDbEntity
  8
0
  6
Continuous
 62
     7
100
AcDbLine
 10
-358.6873779296875
 20
164.4701538085938
 30
0.0
 11
-358.6873779296875
 21
164.0075073242188
 31
0.0
  0
LINE
  5
1F4
330
22
100
AcDbEntity
  8
0
  6
Continuous
 62
     7
100
AcDbLine
 10
-516.0493774414063
 20
282.8779907226563
 30
0.0
 11
-516.0493774414063
 21
259.1846008300781
 31
0.0
  0
LINE
  5
1F5
330
22
100
AcDbEntity
  8
0
  6
Continuous
 62
     7
100
AcDbLine
 10
-509.5493774414062
 20
282.8779907226563
 30
0.0
 11
-509.5493774414062
 21
259.1846008300781
 31
0.0
  0
LINE
  5
1F6
330
22
100
AcDbEntity
  8
0
  6
Continuous
 62
     7
100
AcDbLine
 10
-504.5493774414063
 20
293.05126953125
 30
0.0
 11
-504.5493774414063
 21
274.1846008300781
 31
0.0
  0
LINE
  5
1F7
330
22
100
AcDbEntity
  8
0
  6
Continuous
 62
     7
100
AcDbLine
 10
-504.5493774414063
 20
263.55126953125
 30
0.0
 11
-504.5493774414063
 21
239.1846008300781
 31
0.0
  0
LINE
  5
1F8
330
22
100
AcDbEntity
  8
0
  6
Continuous
 62
     7
100
AcDbLine
 10
-417.5493774414062
 20
168.3015747070313
 30
0.0
 11
-417.5493774414062
 21
198.6682434082031
 31
0.0
  0
LINE
  5
1F9
330
22
100
AcDbEntity
  8
0
  6
Continuous
 62
     7
100
AcDbLine
 10
-412.5493774414063
 20
179.9846038818359
 30
0.0
 11
-412.5493774414063
 21
189.4512634277344
 31
0.0
  0
LINE
  5
1FA
330
22
100
AcDbEntity
  8
0
  6
Continuous
 62
     7
100
AcDbLine
 10
-424.0493774414063
 20
168.3015747070313
 30
0.0
 11
-424.0493774414063
 21
198.6682434082031
 31
0.0
  0
LINE
  5
1FB
330
22
100
AcDbEntity
  8
0
  6
Continuous
 62
     7
100
AcDbLine
 10
-389.5493774414063
 20
184.3845977783203
 30
0.0
 11
-389.5493774414063
 21
193.7512664794922
 31
0.0
  0
LINE
  5
1FC
330
22
100
AcDbEntity
  8
0
  6
Continuous
 62
     7
100
AcDbLine
 10
-394.5493774414063
 20
170.3314361572266
 30
0.0
 11
-394.5493774414063
 21
202.55126953125
 31
0.0
  0
LINE
  5
1FD
330
22
100
AcDbEntity
  8
0
  6
Continuous
 62
     7
100
AcDbLine
 10
-371.5493774414063
 20
158.2643737792969
 30
0.0
 11
-371.5493774414063
 21
187.55126953125
 31
0.0
  0
LINE
  5
1FE
330
22
100
AcDbEntity
  8
0
  6
Continuous
 62
     7
100
AcDbLine
 10
-366.5493774414063
 20
173.6846008300781
 30
0.0
 11
-366.5493774414063
 21
192.55126953125
 31
0.0
  0
LINE
  5
1FF
330
22
100
AcDbEntity
  8
0
  6
Continuous
 62
     7
100
AcDbLine
 10
-358.6873779296875
 20
164.4701538085938
 30
0.0
 11
-362.0050964355469
 21
164.9278717041016
 31
0.0
  0
LINE
  5
200
330
22
100
AcDbEntity
  8
0
  6
Continuous
 62
     7
100
AcDbLine
 10
-362.9254760742188
 20
159.7442474365234
 30
0.0
 11
-363.3884582519531
 21
159.7442474365234
 31
0.0
  0
LINE
  5
201
330
22
100
AcDbEntity
  8
0
  6
Continuous
 62
     7
100
AcDbLine
 10
-363.3884582519531
 20
159.7442474365234
 30
0.0
 11
-363.8458251953125
 21
163.0871276855469
 31
0.0
  0
LINE
  5
202
330
22
100
AcDbEntity
  8
0
  6
Continuous
 62
     7
100
AcDbLine
 10
-362.4624633789063
 20
159.7442474365234
 30
0.0
 11
-362.0050964355469
 21
163.0871276855469
 31
0.0
  0
LINE
  5
203
330
22
100
AcDbEntity
  8
0
  6
Continuous
 62
     7
100
AcDbLine
 10
-355.0493774414063
 20
183.8578796386719
 30
0.0
 11
-355.0493774414063
 21
207.55126953125
 31
0.0
  0
LINE
  5
204
330
22
100
AcDbEntity
  8
0
  6
Continuous
 62
     7
100
AcDbLine
 10
-348.5493774414063
 20
183.8578796386719
 30
0.0
 11
-348.5493774414063
 21
207.55126953125
 31
0.0
  0
LINE
  5
205
330
22
100
AcDbEntity
  8
0
  6
Continuous
 62
     7
100
AcDbLine
 10
-497.3961791992188
 20
163.994384765625
 30
0.0
 11
-497.3961791992188
 21
163.5313873291016
 31
0.0
  0
LINE
  5
206
330
22
100
AcDbEntity
  8
0
  6
Continuous
 62
     7
100
AcDbLine
 10
-475.0493774414063
 20
184.3845977783203
 30
0.0
 11
-475.0493774414063
 21
193.7512664794922
 31
0.0
  0
LINE
  5
207
330
22
100
AcDbEntity
  8
0
  6
Continuous
 62
     7
100
AcDbLine
 10
-378.0493774414063
 20
158.2643737792969
 30
0.0
 11
-378.0493774414063
 21
187.55126953125
 31
0.0
  0
LINE
  5
208
330
22
100
AcDbEntity
  8
0
  6
Continuous
 62
     7
100
AcDbLine
 10
-383.0493774414063
 20
184.3845977783203
 30
0.0
 11
-383.0493774414063
 21
193.7512664794922
 31
0.0
  0
LINE
  5
209
330
22
100
AcDbEntity
  8
0
  6
Continuous
 62
     7
100
AcDbLine
 10
-401.0493774414062
 20
170.3314361572266
 30
0.0
 11
-401.0493774414062
 21
202.55126953125
 31
0.0
  0
LINE
  5
20A
330
22
100
AcDbEntity
  8
0
  6
Continuous
 62
     7
100
AcDbLine
 10
-406.0493774414062
 20
179.9846038818359
 30
0.0
 11
-406.0493774414062
 21
189.4512634277344
 31
0.0
  0
LINE
  5
20B
330
22
100
AcDbEntity
  8
0
  6
Continuous
 62
     7
100
AcDbLine
 10
-493.0493774414062
 20
158.2643737792969
 30
0.0
 11
-493.0493774414062
 21
187.55126953125
 31
0.0
  0
LINE
  5
20C
330
22
100
AcDbEntity
  8
0
  6
Continuous
 62
     7
100
AcDbLine
 10
-486.5493774414063
 20
158.2643737792969
 30
0.0
 11
-486.5493774414063
 21
187.55126953125
 31
0.0
  0
LINE
  5
20D
330
22
100
AcDbEntity
  8
0
  6
Continuous
 62
     7
100
AcDbLine
 10
-463.5493774414062
 20
170.3314361572266
 30
0.0
 11
-463.5493774414062
 21
202.55126953125
 31
0.0
  0
LINE
  5
20E
330
22
100
AcDbEntity
  8
0
  6
Continuous
 62
     7
100
AcDbLine
 10
-452.0493774414062
 20
179.9846038818359
 30
0.0
 11
-452.0493774414062
 21
189.4512634277344
 31
0.0
  0
LINE
  5
20F
330
22
100
AcDbEntity
  8
0
  6
Continuous
 62
     7
100
AcDbLine
 10
-447.0493774414062
 20
168.3015747070313
 30
0.0
 11
-447.0493774414062
 21
198.6682434082031
 31
0.0
  0
LINE
  5
210
330
22
100
AcDbEntity
  8
0
  6
Continuous
 62
     7
100
AcDbLine
 10
-497.3961791992188
 20
163.994384765625
 30
0.0
 11
-497.3961791992188
 21
164.4573974609375
 31
0.0
  0
LINE
  5
211
330
22
100
AcDbEntity
  8
0
  6
Continuous
 62
     7
100
AcDbLine
 10
-429.0493774414063
 20
172.0179443359375
 30
0.0
 11
-429.0493774414063
 21
191.9179382324219
 31
0.0
  0
LINE
  5
212
330
22
100
AcDbEntity
  8
0
  6
Continuous
 62
     7
100
AcDbLine
 10
-481.5493774414063
 20
184.3845977783203
 30
0.0
 11
-481.5493774414063
 21
193.7512664794922
 31
0.0
  0
LINE
  5
213
330
22
100
AcDbEntity
  8
0
  6
Continuous
 62
     7
100
AcDbLine
 10
-440.5493774414063
 20
168.3015747070313
 30
0.0
 11
-440.5493774414063
 21
198.6682434082031
 31
0.0
  0
LINE
  5
214
330
22
100
AcDbEntity
  8
0
  6
Continuous
 62
     7
100
AcDbLine
 10
-509.5493774414062
 20
183.8578796386719
 30
0.0
 11
-509.5493774414062
 21
207.55126953125
 31
0.0
  0
LINE
  5
215
330
22
100
AcDbEntity
  8
0
  6
Continuous
 62
     7
100
AcDbLine
 10
-516.0493774414063
 20
183.8578796386719
 30
0.0
 11
-516.0493774414063
 21
207.55126953125
 31
0.0
  0
LINE
  5
216
330
22
100
AcDbEntity
  8
0
  6
Continuous
 62
     7
100
AcDbLine
 10
-501.1968078613281
 20
168.2324676513672
 30
0.0
 11
-501.659454345703
 21
168.2324676513672
 31
0.0
  0
LINE
  5
217
330
22
100
AcDbEntity
  8
0
  6
Continuous
 62
     7
100
AcDbLine
 10
-497.3961791992188
 20
163.5313873291016
 30
0.0
 11
-500.7390747070313
 21
163.0740203857422
 31
0.0
  0
LINE
  5
218
330
22
100
AcDbEntity
  8
0
  6
Continuous
 62
     7
100
AcDbLine
 10
-502.1221008300781
 20
168.2324676513672
 30
0.0
 11
-502.5798034667968
 21
164.9147644042969
 31
0.0
  0
LINE
  5
219
330
22
100
AcDbEntity
  8
0
  6
Continuous
 62
     7
100
AcDbLine
 10
-502.1221008300781
 20
168.2324676513672
 30
0.0
 11
-501.659454345703
 21
168.2324676513672
 31
0.0
  0
LINE
  5
21A
330
22
100
AcDbEntity
  8
0
  6
Continuous
 62
     7
100
AcDbLine
 10
-497.3961791992188
 20
164.4573974609375
 30
0.0
 11
-500.7390747070313
 21
164.9147644042969
 31
0.0
  0
LINE
  5
21B
330
22
100
AcDbEntity
  8
0
  6
Continuous
 62
     7
100
AcDbLine
 10
-502.1221008300781
 20
159.7563171386719
 30
0.0
 11
-501.659454345703
 21
159.7563171386719
 31
0.0
  0
LINE
  5
21C
330
22
100
AcDbEntity
  8
0
  6
Continuous
 62
     7
100
AcDbLine
 10
-502.1221008300781
 20
159.7563171386719
 30
0.0
 11
-502.5798034667968
 21
163.0740203857422
 31
0.0
  0
LINE
  5
21D
330
22
100
AcDbEntity
  8
0
  6
Continuous
 62
     7
100
AcDbLine
 10
-501.1968078613281
 20
168.2324676513672
 30
0.0
 11
-500.7390747070313
 21
164.9147644042969
 31
0.0
  0
LINE
  5
21E
330
22
100
AcDbEntity
  8
0
  6
Continuous
 62
     7
100
AcDbLine
 10
-501.1968078613281
 20
159.7563171386719
 30
0.0
 11
-500.7390747070313
 21
163.0740203857422
 31
0.0
  0
LINE
  5
21F
330
22
100
AcDbEntity
  8
0
  6
Continuous
 62
     7
100
AcDbLine
 10
-501.1968078613281
 20
159.7563171386719
 30
0.0
 11
-501.659454345703
 21
159.7563171386719
 31
0.0
  0
LINE
  5
220
330
22
100
AcDbEntity
  8
0
  6
Continuous
 62
     7
100
AcDbLine
 10
-435.5493774414063
 20
172.0179443359375
 30
0.0
 11
-435.5493774414063
 21
191.9179382324219
 31
0.0
  0
LINE
  5
221
330
22
100
AcDbEntity
  8
0
  6
Continuous
 62
     7
100
AcDbLine
 10
-470.0493774414063
 20
170.3314361572266
 30
0.0
 11
-470.0493774414063
 21
202.55126953125
 31
0.0
  0
LINE
  5
222
330
22
100
AcDbEntity
  8
0
  6
Continuous
 62
     7
100
AcDbLine
 10
-498.0493774414063
 20
173.6846008300781
 30
0.0
 11
-498.0493774414063
 21
192.55126953125
 31
0.0
  0
LINE
  5
223
330
22
100
AcDbEntity
  8
0
  6
Continuous
 62
     7
100
AcDbLine
 10
-458.5493774414063
 20
179.9846038818359
 30
0.0
 11
-458.5493774414063
 21
189.4512634277344
 31
0.0
  0
LINE
  5
224
330
22
100
AcDbEntity
  8
0
  6
Continuous
 62
     7
100
AcDbLine
 10
-505.9226989746093
 20
163.994384765625
 30
0.0
 11
-505.9226989746093
 21
164.4573974609375
 31
0.0
  0
LINE
  5
225
330
22
100
AcDbEntity
  8
0
  6
Continuous
 62
     7
100
AcDbLine
 10
-504.5493774414063
 20
173.6846008300781
 30
0.0
 11
-504.5493774414063
 21
192.55126953125
 31
0.0
  0
LINE
  5
226
330
22
100
AcDbEntity
  8
0
  6
Continuous
 62
     7
100
AcDbLine
 10
-505.9226989746093
 20
164.4573974609375
 30
0.0
 11
-502.5798034667968
 21
164.9147644042969
 31
0.0
  0
LINE
  5
227
330
22
100
AcDbEntity
  8
0
  6
Continuous
 62
     7
100
AcDbLine
 10
-505.9226989746093
 20
163.5313873291016
 30
0.0
 11
-502.5798034667968
 21
163.0740203857422
 31
0.0
  0
LINE
  5
228
330
22
100
AcDbEntity
  8
0
  6
Continuous
 62
     7
100
AcDbLine
 10
-505.9226989746093
 20
163.994384765625
 30
0.0
 11
-505.9226989746093
 21
163.5313873291016
 31
0.0
  0
LINE
  5
229
330
22
100
AcDbEntity
  8
0
  6
Continuous
 62
     7
100
AcDbLine
 10
-378.0493774414063
 20
308.4714965820313
 30
0.0
 11
-378.0493774414063
 21
279.1846008300781
 31
0.0
  0
LINE
  5
22A
330
22
100
AcDbEntity
  8
0
  6
Continuous
 62
     7
100
AcDbLine
 10
-406.0493774414062
 20
325.240478515625
 30
0.0
 11
-406.0493774414062
 21
297.4876403808594
 31
0.0
  0
LINE
  5
22B
330
22
100
AcDbEntity
  8
0
  6
Continuous
 62
     7
100
AcDbLine
 10
-412.5493774414063
 20
325.240478515625
 30
0.0
 11
-412.5493774414063
 21
297.4876403808594
 31
0.0
  0
LINE
  5
22C
330
22
100
AcDbEntity
  8
0
  6
Continuous
 62
     7
100
AcDbLine
 10
-389.5493774414063
 20
316.0845947265625
 30
0.0
 11
-389.5493774414063
 21
292.9876403808594
 31
0.0
  0
LINE
  5
22D
330
22
100
AcDbEntity
  8
0
  6
Continuous
 62
     7
100
AcDbLine
 10
-371.5493774414063
 20
308.4714965820313
 30
0.0
 11
-371.5493774414063
 21
279.1846008300781
 31
0.0
  0
LINE
  5
22E
330
22
100
AcDbEntity
  8
0
  6
Continuous
 62
     7
100
AcDbLine
 10
-358.6753234863281
 20
302.2784729003906
 30
0.0
 11
-362.0181884765625
 21
301.8211059570313
 31
0.0
  0
LINE
  5
22F
330
22
100
AcDbEntity
  8
0
  6
Continuous
 62
     7
100
AcDbLine
 10
-358.6753234863281
 20
302.7414855957031
 30
0.0
 11
-358.6753234863281
 21
302.2784729003906
 31
0.0
  0
LINE
  5
230
330
22
100
AcDbEntity
  8
0
  6
Continuous
 62
     7
100
AcDbLine
 10
-362.4759216308594
 20
298.50341796875
 30
0.0
 11
-362.9385681152344
 21
298.50341796875
 31
0.0
  0
LINE
  5
231
330
22
100
AcDbEntity
  8
0
  6
Continuous
 62
     7
100
AcDbLine
 10
-362.4759216308594
 20
298.50341796875
 30
0.0
 11
-362.0181884765625
 21
301.8211059570313
 31
0.0
  0
LINE
  5
232
330
22
100
AcDbEntity
  8
0
  6
Continuous
 62
     7
100
AcDbLine
 10
-363.4012145996094
 20
298.50341796875
 30
0.0
 11
-363.8589477539063
 21
301.8211059570313
 31
0.0
  0
LINE
  5
233
330
22
100
AcDbEntity
  8
0
  6
Continuous
 62
     7
100
AcDbLine
 10
-363.4012145996094
 20
298.50341796875
 30
0.0
 11
-362.9385681152344
 21
298.50341796875
 31
0.0
  0
LINE
  5
234
330
22
100
AcDbEntity
  8
0
  6
Continuous
 62
     7
100
AcDbLine
 10
-367.2018127441406
 20
302.7414855957031
 30
0.0
 11
-367.2018127441406
 21
302.2784729003906
 31
0.0
  0
LINE
  5
235
330
22
100
AcDbEntity
  8
0
  6
Continuous
 62
     7
100
AcDbLine
 10
-367.2018127441406
 20
302.2784729003906
 30
0.0
 11
-363.8589477539063
 21
301.8211059570313
 31
0.0
  0
LINE
  5
236
330
22
100
AcDbEntity
  8
0
  6
Continuous
 62
     7
100
AcDbLine
 10
-412.5493774414063
 20
141.6688232421875
 30
0.0
 11
-412.5493774414063
 21
169.2482452392578
 31
0.0
  0
LINE
  5
237
330
22
100
AcDbEntity
  8
0
  6
Continuous
 62
     7
100
AcDbLine
 10
-417.5493774414062
 20
139.3651885986328
 30
0.0
 11
-417.5493774414062
 21
157.6682434082031
 31
0.0
  0
LINE
  5
238
330
22
100
AcDbEntity
  8
0
  6
Continuous
 62
     7
100
AcDbLine
 10
-424.0493774414063
 20
139.3651885986328
 30
0.0
 11
-424.0493774414063
 21
157.6682434082031
 31
0.0
  0
LINE
  5
239
330
22
100
AcDbEntity
  8
0
  6
Continuous
 62
     7
100
AcDbLine
 10
-389.5493774414063
 20
150.8247222900391
 30
0.0
 11
-389.5493774414063
 21
173.6482391357422
 31
0.0
  0
LINE
  5
23A
330
22
100
AcDbEntity
  8
0
  6
Continuous
 62
     7
100
AcDbLine
 10
-394.5493774414063
 20
145.40185546875
 30
0.0
 11
-394.5493774414063
 21
159.5950775146484
 31
0.0
  0
LINE
  5
23B
330
22
100
AcDbEntity
  8
0
  6
Continuous
 62
     7
100
AcDbLine
 10
-505.91064453125
 20
302.2657165527344
 30
0.0
 11
-505.91064453125
 21
302.7283630371094
 31
0.0
  0
LINE
  5
23C
330
22
100
AcDbEntity
  8
0
  6
Continuous
 62
     7
100
AcDbLine
 10
-505.91064453125
 20
302.2657165527344
 30
0.0
 11
-502.5929260253906
 21
301.8080139160156
 31
0.0
  0
LINE
  5
23D
330
22
100
AcDbEntity
  8
0
  6
Continuous
 62
     7
100
AcDbLine
 10
-501.2095642089843
 20
298.4651184082031
 30
0.0
 11
-500.752197265625
 21
301.8080139160156
 31
0.0
  0
LINE
  5
23E
330
22
100
AcDbEntity
  8
0
  6
Continuous
 62
     7
100
AcDbLine
 10
-497.4344787597656
 20
302.2657165527344
 30
0.0
 11
-500.752197265625
 21
301.8080139160156
 31
0.0
  0
LINE
  5
23F
330
22
100
AcDbEntity
  8
0
  6
Continuous
 62
     7
100
AcDbLine
 10
-501.6725463867188
 20
298.4651184082031
 30
0.0
 11
-502.1355590820313
 21
298.4651184082031
 31
0.0
  0
LINE
  5
240
330
22
100
AcDbEntity
  8
0
  6
Continuous
 62
     7
100
AcDbLine
 10
-502.1355590820313
 20
298.4651184082031
 30
0.0
 11
-502.5929260253906
 21
301.8080139160156
 31
0.0
  0
LINE
  5
241
330
22
100
AcDbEntity
  8
0
  6
Continuous
 62
     7
100
AcDbLine
 10
-501.6725463867188
 20
298.4651184082031
 30
0.0
 11
-501.2095642089843
 21
298.4651184082031
 31
0.0
  0
LINE
  5
242
330
22
100
AcDbEntity
  8
0
  6
Continuous
 62
     7
100
AcDbLine
 10
-475.0493774414063
 20
315.9111633300781
 30
0.0
 11
-475.0493774414063
 21
293.087646484375
 31
0.0
  0
LINE
  5
243
330
22
100
AcDbEntity
  8
0
  6
Continuous
 62
     7
100
AcDbLine
 10
-497.4344787597656
 20
302.2657165527344
 30
0.0
 11
-497.4344787597656
 21
302.7283630371094
 31
0.0
  0
LINE
  5
244
330
22
100
AcDbEntity
  8
0
  6
Continuous
 62
     7
100
AcDbLine
 10
-493.0493774414062
 20
308.4714965820313
 30
0.0
 11
-493.0493774414062
 21
279.1846008300781
 31
0.0
  0
LINE
  5
245
330
22
100
AcDbEntity
  8
0
  6
Continuous
 62
     7
100
AcDbLine
 10
-486.5493774414063
 20
308.4714965820313
 30
0.0
 11
-486.5493774414063
 21
279.1846008300781
 31
0.0
  0
LINE
  5
246
330
22
100
AcDbEntity
  8
0
  6
Continuous
 62
     7
100
AcDbLine
 10
-452.0493774414062
 20
325.0670471191406
 30
0.0
 11
-452.0493774414062
 21
297.4876403808594
 31
0.0
  0
LINE
  5
247
330
22
100
AcDbEntity
  8
0
  6
Continuous
 62
     7
100
AcDbLine
 10
-481.5493774414063
 20
315.9111633300781
 30
0.0
 11
-481.5493774414063
 21
293.087646484375
 31
0.0
  0
LINE
  5
248
330
22
100
AcDbEntity
  8
0
  6
Continuous
 62
     7
100
AcDbLine
 10
-458.5493774414063
 20
325.0670471191406
 30
0.0
 11
-458.5493774414063
 21
297.4876403808594
 31
0.0
  0
LINE
  5
249
330
22
100
AcDbEntity
  8
0
  6
Continuous
 62
     7
100
AcDbLine
 10
-383.0493774414063
 20
316.0845947265625
 30
0.0
 11
-383.0493774414063
 21
292.9876403808594
 31
0.0
  0
LINE
  5
24A
330
22
100
AcDbEntity
  8
0
  6
Continuous
 62
     7
100
AcDbLine
 10
-481.5493774414063
 20
150.8247222900391
 30
0.0
 11
-481.5493774414063
 21
173.6482391357422
 31
0.0
  0
LINE
  5
24B
330
22
100
AcDbEntity
  8
0
  6
Continuous
 62
     7
100
AcDbLine
 10
-475.0493774414063
 20
150.8247222900391
 30
0.0
 11
-475.0493774414063
 21
173.6482391357422
 31
0.0
  0
LINE
  5
24C
330
22
100
AcDbEntity
  8
0
  6
Continuous
 62
     7
100
AcDbLine
 10
-452.0493774414062
 20
141.6688232421875
 30
0.0
 11
-452.0493774414062
 21
169.2482452392578
 31
0.0
  0
LINE
  5
24D
330
22
100
AcDbEntity
  8
0
  6
Continuous
 62
     7
100
AcDbLine
 10
-458.5493774414063
 20
141.6688232421875
 30
0.0
 11
-458.5493774414063
 21
169.2482452392578
 31
0.0
  0
LINE
  5
24E
330
22
100
AcDbEntity
  8
0
  6
Continuous
 62
     7
100
AcDbLine
 10
-470.0493774414063
 20
145.40185546875
 30
0.0
 11
-470.0493774414063
 21
159.5950775146484
 31
0.0
  0
LINE
  5
24F
330
22
100
AcDbEntity
  8
0
  6
Continuous
 62
     7
100
AcDbLine
 10
-435.5493774414063
 20
139.6179351806641
 30
0.0
 11
-435.5493774414063
 21
159.5179443359375
 31
0.0
  0
LINE
  5
250
330
22
100
AcDbEntity
  8
0
  6
Continuous
 62
     7
100
AcDbLine
 10
-429.0493774414063
 20
139.6179351806641
 30
0.0
 11
-429.0493774414063
 21
159.5179443359375
 31
0.0
  0
LINE
  5
251
330
22
100
AcDbEntity
  8
0
  6
Continuous
 62
     7
100
AcDbLine
 10
-447.0493774414062
 20
139.3651885986328
 30
0.0
 11
-447.0493774414062
 21
157.6682434082031
 31
0.0
  0
LINE
  5
252
330
22
100
AcDbEntity
  8
0
  6
Continuous
 62
     7
100
AcDbLine
 10
-440.5493774414063
 20
139.3651885986328
 30
0.0
 11
-440.5493774414063
 21
157.6682434082031
 31
0.0
  0
LINE
  5
253
330
22
100
AcDbEntity
  8
0
  6
Continuous
 62
     7
100
AcDbLine
 10
-463.5493774414062
 20
145.40185546875
 30
0.0
 11
-463.5493774414062
 21
159.5950775146484
 31
0.0
  0
LINE
  5
254
330
22
100
AcDbEntity
  8
0
  6
Continuous
 62
     7
100
AcDbLine
 10
-383.0493774414063
 20
150.8247222900391
 30
0.0
 11
-383.0493774414063
 21
173.6482391357422
 31
0.0
  0
LINE
  5
255
330
22
100
AcDbEntity
  8
0
  6
Continuous
 62
     7
100
AcDbLine
 10
-406.0493774414062
 20
141.6688232421875
 30
0.0
 11
-406.0493774414062
 21
169.2482452392578
 31
0.0
  0
LINE
  5
256
330
22
100
AcDbEntity
  8
0
  6
Continuous
 62
     7
100
AcDbLine
 10
-401.0493774414062
 20
145.40185546875
 30
0.0
 11
-401.0493774414062
 21
159.5950775146484
 31
0.0
  0
LINE
  5
257
330
22
100
AcDbEntity
  8
0
  6
CENTER
 62
     7
100
AcDbLine
 10
-432.6636047363281
 20
107.6123657226563
 30
0.0
 11
-432.6636047363281
 21
354.4686279296875
 31
0.0
  0
LINE
  5
258
330
22
100
AcDbEntity
  8
0
  6
CENTER
 62
     7
100
AcDbLine
 10
-556.7199096679688
 20
233.3679351806641
 30
0.0
 11
-307.8788452148438
 21
233.3679351806641
 31
0.0
  0
LINE
  5
259
330
22
100
AcDbEntity
  8
0
  6
Continuous
 62
     7
100
AcDbLine
 10
-412.5493774414063
 20
200.0846099853516
 30
0.0
 11
-412.5493774414063
 21
227.55126953125
 31
0.0
  0
LINE
  5
25A
330
22
100
AcDbEntity
  8
0
  6
Continuous
 62
     7
100
AcDbLine
 10
-389.5493774414063
 20
204.3845977783203
 30
0.0
 11
-389.5493774414063
 21
227.55126953125
 31
0.0
  0
LINE
  5
25B
330
22
100
AcDbEntity
  8
0
  6
Continuous
 62
     7
100
AcDbLine
 10
-394.5493774414063
 20
213.1846008300781
 30
0.0
 11
-394.5493774414063
 21
227.55126953125
 31
0.0
  0
LINE
  5
25C
330
22
100
AcDbEntity
  8
0
  6
Continuous
 62
     7
100
AcDbLine
 10
-371.5493774414063
 20
198.1846008300781
 30
0.0
 11
-371.5493774414063
 21
227.55126953125
 31
0.0
  0
LINE
  5
25D
330
22
100
AcDbEntity
  8
0
  6
Continuous
 62
     7
100
AcDbLine
 10
-360.0493774414063
 20
203.1846008300781
 30
0.0
 11
-360.0493774414063
 21
227.55126953125
 31
0.0
  0
LINE
  5
25E
330
22
100
AcDbEntity
  8
0
  6
Continuous
 62
     7
100
AcDbLine
 10
-366.5493774414063
 20
203.1846008300781
 30
0.0
 11
-366.5493774414063
 21
227.55126953125
 31
0.0
  0
LINE
  5
25F
330
22
100
AcDbEntity
  8
0
  6
Continuous
 62
     7
100
AcDbLine
 10
-337.0493774414063
 20
212.5427703857422
 30
0.0
 11
-337.0493774414063
 21
227.55126953125
 31
0.0
  0
LINE
  5
260
330
22
100
AcDbEntity
  8
0
  6
Continuous
 62
     7
100
AcDbLine
 10
-343.5493774414063
 20
203.6242370605469
 30
0.0
 11
-343.5493774414063
 21
227.55126953125
 31
0.0
  0
LINE
  5
261
330
22
100
AcDbEntity
  8
0
  6
Continuous
 62
     7
100
AcDbLine
 10
-348.5493774414063
 20
218.1846008300781
 30
0.0
 11
-348.5493774414063
 21
227.55126953125
 31
0.0
  0
LINE
  5
262
330
22
100
AcDbEntity
  8
0
  6
Continuous
 62
     7
100
AcDbLine
 10
-355.0493774414063
 20
218.1846008300781
 30
0.0
 11
-355.0493774414063
 21
227.55126953125
 31
0.0
  0
LINE
  5
263
330
22
100
AcDbEntity
  8
0
  6
Continuous
 62
     7
100
AcDbLine
 10
-504.5493774414063
 20
203.1846008300781
 30
0.0
 11
-504.5493774414063
 21
227.55126953125
 31
0.0
  0
LINE
  5
264
330
22
100
AcDbEntity
  8
0
  6
Continuous
 62
     7
100
AcDbLine
 10
-383.0493774414063
 20
204.3845977783203
 30
0.0
 11
-383.0493774414063
 21
227.55126953125
 31
0.0
  0
LINE
  5
265
330
22
100
AcDbEntity
  8
0
  6
Continuous
 62
     7
100
AcDbLine
 10
-378.0493774414063
 20
198.1846008300781
 30
0.0
 11
-378.0493774414063
 21
227.55126953125
 31
0.0
  0
LINE
  5
266
330
22
100
AcDbEntity
  8
0
  6
Continuous
 62
     7
100
AcDbLine
 10
-527.5493774414063
 20
212.5427703857422
 30
0.0
 11
-527.5493774414063
 21
227.55126953125
 31
0.0
  0
LINE
  5
267
330
22
100
AcDbEntity
  8
0
  6
Continuous
 62
     7
100
AcDbLine
 10
-509.5493774414062
 20
218.1846008300781
 30
0.0
 11
-509.5493774414062
 21
227.55126953125
 31
0.0
  0
LINE
  5
268
330
22
100
AcDbEntity
  8
0
  6
Continuous
 62
     7
100
AcDbLine
 10
-516.0493774414063
 20
218.1846008300781
 30
0.0
 11
-516.0493774414063
 21
227.55126953125
 31
0.0
  0
LINE
  5
269
330
22
100
AcDbEntity
  8
0
  6
Continuous
 62
     7
100
AcDbLine
 10
-521.0493774414064
 20
203.6242370605469
 30
0.0
 11
-521.0493774414064
 21
227.55126953125
 31
0.0
  0
LINE
  5
26A
330
22
100
AcDbEntity
  8
0
  6
Continuous
 62
     7
100
AcDbLine
 10
-401.0493774414062
 20
213.1846008300781
 30
0.0
 11
-401.0493774414062
 21
227.55126953125
 31
0.0
  0
LINE
  5
26B
330
22
100
AcDbEntity
  8
0
  6
Continuous
 62
     7
100
AcDbLine
 10
-406.0493774414062
 20
200.0846099853516
 30
0.0
 11
-406.0493774414062
 21
227.55126953125
 31
0.0
  0
LINE
  5
26C
330
22
100
AcDbEntity
  8
0
  6
Continuous
 62
     7
100
AcDbLine
 10
-470.0493774414063
 20
213.1846008300781
 30
0.0
 11
-470.0493774414063
 21
227.55126953125
 31
0.0
  0
LINE
  5
26D
330
22
100
AcDbEntity
  8
0
  6
Continuous
 62
     7
100
AcDbLine
 10
-463.5493774414062
 20
213.1846008300781
 30
0.0
 11
-463.5493774414062
 21
227.55126953125
 31
0.0
  0
LINE
  5
26E
330
22
100
AcDbEntity
  8
0
  6
Continuous
 62
     7
100
AcDbLine
 10
-435.5493774414063
 20
204.4679412841797
 30
0.0
 11
-435.5493774414063
 21
224.3679351806641
 31
0.0
  0
LINE
  5
26F
330
22
100
AcDbEntity
  8
0
  6
Continuous
 62
     7
100
AcDbLine
 10
-440.5493774414063
 20
209.3346099853516
 30
0.0
 11
-440.5493774414063
 21
227.55126953125
 31
0.0
  0
LINE
  5
270
330
22
100
AcDbEntity
  8
0
  6
Continuous
 62
     7
100
AcDbLine
 10
-417.5493774414062
 20
209.3346099853516
 30
0.0
 11
-417.5493774414062
 21
227.55126953125
 31
0.0
  0
LINE
  5
271
330
22
100
AcDbEntity
  8
0
  6
Continuous
 62
     7
100
AcDbLine
 10
-424.0493774414063
 20
209.3346099853516
 30
0.0
 11
-424.0493774414063
 21
227.55126953125
 31
0.0
  0
LINE
  5
272
330
22
100
AcDbEntity
  8
0
  6
Continuous
 62
     7
100
AcDbLine
 10
-493.0493774414062
 20
198.1846008300781
 30
0.0
 11
-493.0493774414062
 21
227.55126953125
 31
0.0
  0
LINE
  5
273
330
22
100
AcDbEntity
  8
0
  6
Continuous
 62
     7
100
AcDbLine
 10
-486.5493774414063
 20
198.1846008300781
 30
0.0
 11
-486.5493774414063
 21
227.55126953125
 31
0.0
  0
LINE
  5
274
330
22
100
AcDbEntity
  8
0
  6
Continuous
 62
     7
100
AcDbLine
 10
-429.0493774414063
 20
204.4679412841797
 30
0.0
 11
-429.0493774414063
 21
224.3679351806641
 31
0.0
  0
LINE
  5
275
330
22
100
AcDbEntity
  8
0
  6
Continuous
 62
     7
100
AcDbLine
 10
-447.0493774414062
 20
209.3346099853516
 30
0.0
 11
-447.0493774414062
 21
227.55126953125
 31
0.0
  0
LINE
  5
276
330
22
100
AcDbEntity
  8
0
  6
Continuous
 62
     7
100
AcDbLine
 10
-452.0493774414062
 20
200.0846099853516
 30
0.0
 11
-452.0493774414062
 21
227.55126953125
 31
0.0
  0
LINE
  5
277
330
22
100
AcDbEntity
  8
0
  6
Continuous
 62
     7
100
AcDbLine
 10
-498.0493774414063
 20
203.1846008300781
 30
0.0
 11
-498.0493774414063
 21
227.55126953125
 31
0.0
  0
LINE
  5
278
330
22
100
AcDbEntity
  8
0
  6
Continuous
 62
     7
100
AcDbLine
 10
-458.5493774414063
 20
200.0846099853516
 30
0.0
 11
-458.5493774414063
 21
227.55126953125
 31
0.0
  0
LINE
  5
279
330
22
100
AcDbEntity
  8
0
  6
Continuous
 62
     7
100
AcDbLine
 10
-481.5493774414063
 20
204.3845977783203
 30
0.0
 11
-481.5493774414063
 21
227.55126953125
 31
0.0
  0
LINE
  5
27A
330
22
100
AcDbEntity
  8
0
  6
Continuous
 62
     7
100
AcDbLine
 10
-475.0493774414063
 20
204.3845977783203
 30
0.0
 11
-475.0493774414063
 21
227.55126953125
 31
0.0
  0
ARC
  5
27B
330
22
100
AcDbEntity
  8
0
  6
Continuous
 62
     7
100
AcDbCircle
 10
-134.4337768554688
 20
296.8679504394531
 30
0.0
 40
1.0
100
AcDbArc
 50
180.0000000000004
 51
270.0000000000005
  0
ARC
  5
27C
330
22
100
AcDbEntity
  8
0
  6
Continuous
 62
     7
100
AcDbCircle
 10
-94.93376922607422
 20
294.8679504394531
 30
0.0
 40
1.0
100
AcDbArc
 50
0.0
 51
90.00000000000019
  0
ARC
  5
27D
330
22
100
AcDbEntity
  8
0
  6
Continuous
 62
     7
100
AcDbCircle
 10
-135.9337768554688
 20
343.8679504394531
 30
0.0
 40
0.5
100
AcDbArc
 50
0.0
 51
90.00000000000019
  0
ARC
  5
27E
330
22
100
AcDbEntity
  8
0
  6
Continuous
 62
     7
100
AcDbCircle
 10
-136.9337768554688
 20
342.3679504394531
 30
0.0
 40
2.0
100
AcDbArc
 50
90.00000000000019
 51
180.0000000000004
  0
ARC
  5
27F
330
22
100
AcDbEntity
  8
0
  6
Continuous
 62
     7
100
AcDbCircle
 10
-238.8205261230469
 20
336.3679504394531
 30
0.0
 40
5.0
100
AcDbArc
 50
30.00001786228407
 51
90.00000000000019
  0
ARC
  5
280
330
22
100
AcDbEntity
  8
0
  6
Continuous
 62
     7
100
AcDbCircle
 10
-238.5318450927734
 20
329.8679504394531
 30
0.0
 40
5.0
100
AcDbArc
 50
30.00001786228407
 51
90.00000000000019
  0
ARC
  5
281
330
22
100
AcDbEntity
  8
0
  6
Continuous
 62
     7
100
AcDbCircle
 10
-246.9337768554688
 20
347.3679504394531
 30
0.0
 40
1.0
100
AcDbArc
 50
90.00000000000019
 51
180.0000000000004
  0
ARC
  5
282
330
22
100
AcDbEntity
  8
0
  6
Continuous
 62
     7
100
AcDbCircle
 10
-244.9337768554688
 20
347.3679504394531
 30
0.0
 40
1.0
100
AcDbArc
 50
0.0
 51
90.00000000000019
  0
ARC
  5
283
330
22
100
AcDbEntity
  8
0
  6
Continuous
 62
     7
100
AcDbCircle
 10
-242.9337768554688
 20
342.3679504394531
 30
0.0
 40
1.0
100
AcDbArc
 50
180.0000000000004
 51
270.0000000000005
  0
ARC
  5
284
330
22
100
AcDbEntity
  8
0
  6
Continuous
 62
     7
100
AcDbCircle
 10
-114.8421401977539
 20
149.0555419921875
 30
0.0
 40
18.0
100
AcDbArc
 50
98.27818856143988
 51
163.104933256804
  0
ARC
  5
285
330
22
100
AcDbEntity
  8
0
  6
Continuous
 62
     7
100
AcDbCircle
 10
-115.4337692260742
 20
168.8679809570313
 30
0.0
 40
2.0
100
AcDbArc
 50
270.0000000000005
 51
0.0
  0
ARC
  5
286
330
22
100
AcDbEntity
  8
0
  6
Continuous
 62
     7
100
AcDbCircle
 10
-94.93376922607422
 20
171.8679351806641
 30
0.0
 40
1.0
100
AcDbArc
 50
270.0000000000005
 51
0.0
  0
ARC
  5
287
330
22
100
AcDbEntity
  8
0
  6
Continuous
 62
     7
100
AcDbCircle
 10
-177.9337768554688
 20
293.3679504394531
 30
0.0
 40
1.0
100
AcDbArc
 50
90.00000000000019
 51
180.0000000000004
  0
ARC
  5
288
330
22
100
AcDbEntity
  8
0
  6
Continuous
 62
     7
100
AcDbCircle
 10
-204.4681854248047
 20
292.8679504394531
 30
0.0
 40
3.0
100
AcDbArc
 50
210.0000761467314
 51
270.0000000000005
  0
ARC
  5
289
330
22
100
AcDbEntity
  8
0
  6
Continuous
 62
     7
100
AcDbCircle
 10
-204.4970550537109
 20
290.9179382324219
 30
0.0
 40
5.0
100
AcDbArc
 50
210.0000178622848
 51
270.0000000000005
  0
ARC
  5
28A
330
22
100
AcDbEntity
  8
0
  6
Continuous
 62
     7
100
AcDbCircle
 10
-238.8205261230469
 20
130.3679351806641
 30
0.0
 40
5.0
100
AcDbArc
 50
270.0000000000005
 51
329.9999821377166
  0
ARC
  5
28B
330
22
100
AcDbEntity
  8
0
  6
Continuous
 62
     7
100
AcDbCircle
 10
-246.9337768554688
 20
119.3679351806641
 30
0.0
 40
1.0
100
AcDbArc
 50
180.0000000000004
 51
270.0000000000005
  0
ARC
  5
28C
330
22
100
AcDbEntity
  8
0
  6
Continuous
 62
     7
100
AcDbCircle
 10
-244.9337768554688
 20
119.3679351806641
 30
0.0
 40
1.0
100
AcDbArc
 50
270.0000000000005
 51
0.0
  0
ARC
  5
28D
330
22
100
AcDbEntity
  8
0
  6
Continuous
 62
     7
100
AcDbCircle
 10
-177.9337768554688
 20
173.3679351806641
 30
0.0
 40
1.0
100
AcDbArc
 50
180.0000000000004
 51
270.0000000000005
  0
ARC
  5
28E
330
22
100
AcDbEntity
  8
0
  6
Continuous
 62
     7
100
AcDbCircle
 10
-204.4681854248047
 20
173.8679351806641
 30
0.0
 40
3.0
100
AcDbArc
 50
90.00000000000019
 51
149.9999238532694
  0
ARC
  5
28F
330
22
100
AcDbEntity
  8
0
  6
Continuous
 62
     7
100
AcDbCircle
 10
-135.9337768554688
 20
122.8679351806641
 30
0.0
 40
0.5
100
AcDbArc
 50
270.0000000000005
 51
0.0
  0
ARC
  5
290
330
22
100
AcDbEntity
  8
0
  6
Continuous
 62
     7
100
AcDbCircle
 10
-136.9337768554688
 20
124.3679351806641
 30
0.0
 40
2.0
100
AcDbArc
 50
180.0000000000004
 51
270.0000000000005
  0
ARC
  5
291
330
22
100
AcDbEntity
  8
0
  6
Continuous
 62
     7
100
AcDbCircle
 10
-134.4337768554688
 20
169.8679351806641
 30
0.0
 40
1.0
100
AcDbArc
 50
90.00000000000019
 51
180.0000000000004
  0
ARC
  5
292
330
22
100
AcDbEntity
  8
0
  6
Continuous
 62
     7
100
AcDbCircle
 10
-133.9789123535156
 20
154.8679351806641
 30
0.0
 40
2.0
100
AcDbArc
 50
270.0000000000005
 51
343.1050150192331
  0
ARC
  5
293
330
22
100
AcDbEntity
  8
0
  6
Continuous
 62
     7
100
AcDbCircle
 10
-234.1288757324219
 20
301.5108947753906
 30
0.0
 40
4.859811782836914
100
AcDbArc
 50
299.9785708329917
 51
9.359874809973236
  0
ARC
  5
294
330
22
100
AcDbEntity
  8
0
  6
Continuous
 62
     7
100
AcDbCircle
 10
-242.2242736816406
 20
302.5477600097656
 30
0.0
 40
12.89286136627197
100
AcDbArc
 50
358.904531247404
 51
36.968805292143
  0
ARC
  5
295
330
22
100
AcDbEntity
  8
0
  6
Continuous
 62
     7
100
AcDbCircle
 10
-143.9337768554688
 20
299.3679504394531
 30
0.0
 40
5.0
100
AcDbArc
 50
270.0000000000005
 51
0.0
  0
ARC
  5
296
330
22
100
AcDbEntity
  8
0
  6
Continuous
 62
     7
100
AcDbCircle
 10
-143.9337768554688
 20
167.3679351806641
 30
0.0
 40
5.0
100
AcDbArc
 50
0.0
 51
90.00000000000019
  0
ARC
  5
297
330
22
100
AcDbEntity
  8
0
  6
Continuous
 62
     7
100
AcDbCircle
 10
-409.2993774414063
 20
239.6512756347656
 30
0.0
 40
3.283333301544189
100
AcDbArc
 50
171.8288894394597
 51
8.171110560540375
  0
ARC
  5
298
330
22
100
AcDbEntity
  8
0
  6
Continuous
 62
     7
100
AcDbCircle
 10
-420.7993774414062
 20
239.6512756347656
 30
0.0
 40
3.283333301544189
100
AcDbArc
 50
171.8288894394597
 51
8.171110560540375
  0
ARC
  5
299
330
22
100
AcDbEntity
  8
0
  6
Continuous
 62
     7
100
AcDbCircle
 10
-351.7993774414063
 20
239.6512756347656
 30
0.0
 40
3.283333301544189
100
AcDbArc
 50
171.8288894394597
 51
8.171110560540375
  0
ARC
  5
29A
330
22
100
AcDbEntity
  8
0
  6
Continuous
 62
     7
100
AcDbCircle
 10
-363.2993774414063
 20
239.6512756347656
 30
0.0
 40
3.283333301544189
100
AcDbArc
 50
171.8288894394597
 51
8.171110560540375
  0
ARC
  5
29B
330
22
100
AcDbEntity
  8
0
  6
Continuous
 62
     7
100
AcDbCircle
 10
-340.2993774414063
 20
239.6512756347656
 30
0.0
 40
3.283333301544189
100
AcDbArc
 50
171.8288894394597
 51
8.171110560540375
  0
ARC
  5
29C
330
22
100
AcDbEntity
  8
0
  6
Continuous
 62
     7
100
AcDbCircle
 10
-374.7993774414063
 20
308.0048217773438
 30
0.0
 40
3.283333301544189
100
AcDbArc
 50
8.171374130610477
 51
171.8286258693895
  0
ARC
  5
29D
330
22
100
AcDbEntity
  8
0
  6
Continuous
 62
     7
100
AcDbCircle
 10
-386.2993774414063
 20
315.6179504394531
 30
0.0
 40
3.283333301544189
100
AcDbArc
 50
8.170846990122083
 51
171.8291530098779
  0
ARC
  5
29E
330
22
100
AcDbEntity
  8
0
  6
Continuous
 62
     7
100
AcDbCircle
 10
-397.7993774414063
 20
321.0408020019531
 30
0.0
 40
3.283333301544189
100
AcDbArc
 50
8.171374130610477
 51
171.8286258693895
  0
ARC
  5
29F
330
22
100
AcDbEntity
  8
0
  6
Continuous
 62
     7
100
AcDbCircle
 10
-397.7993774414063
 20
307.6074523925781
 30
0.0
 40
3.283333301544189
100
AcDbArc
 50
171.8286258693895
 51
8.171374130610477
  0
ARC
  5
2A0
330
22
100
AcDbEntity
  8
0
  6
Continuous
 62
     7
100
AcDbCircle
 10
-409.2993774414063
 20
324.7738342285156
 30
0.0
 40
3.283333301544189
100
AcDbArc
 50
8.170846990122083
 51
171.8291530098779
  0
ARC
  5
2A1
330
22
100
AcDbEntity
  8
0
  6
Continuous
 62
     7
100
AcDbCircle
 10
-420.7993774414062
 20
309.5343017578125
 30
0.0
 40
3.283333301544189
100
AcDbArc
 50
171.8286258693895
 51
8.171374130610477
  0
ARC
  5
2A2
330
22
100
AcDbEntity
  8
0
  6
Continuous
 62
     7
100
AcDbCircle
 10
-420.7993774414062
 20
326.9040222167969
 30
0.0
 40
3.283333301544189
100
AcDbArc
 50
351.8286258693902
 51
171.8286258693895
  0
ARC
  5
2A3
330
22
100
AcDbEntity
  8
0
  6
Continuous
 62
     7
100
AcDbCircle
 10
-351.7993774414063
 20
248.0846099853516
 30
0.0
 40
3.283333301544189
100
AcDbArc
 50
351.8286258693902
 51
188.1713741306112
  0
ARC
  5
2A4
330
22
100
AcDbEntity
  8
0
  6
Continuous
 62
     7
100
AcDbCircle
 10
-409.2993774414063
 20
297.9542846679688
 30
0.0
 40
3.283333301544189
100
AcDbArc
 50
171.8286258693895
 51
8.171374130610477
  0
ARC
  5
2A5
330
22
100
AcDbEntity
  8
0
  6
Continuous
 62
     7
100
AcDbCircle
 10
-409.2993774414063
 20
277.9512634277344
 30
0.0
 40
3.283333301544189
100
AcDbArc
 50
171.8286258693895
 51
8.171374130610477
  0
ARC
  5
2A6
330
22
100
AcDbEntity
  8
0
  6
Continuous
 62
     7
100
AcDbCircle
 10
-409.2993774414063
 20
286.3846130371094
 30
0.0
 40
3.283333301544189
100
AcDbArc
 50
351.8286258693902
 51
188.1713741306112
  0
ARC
  5
2A7
330
22
100
AcDbEntity
  8
0
  6
Continuous
 62
     7
100
AcDbCircle
 10
-363.2993774414063
 20
274.6512756347656
 30
0.0
 40
3.283333301544189
100
AcDbArc
 50
171.8286258693895
 51
8.171374130610477
  0
ARC
  5
2A8
330
22
100
AcDbEntity
  8
0
  6
Continuous
 62
     7
100
AcDbCircle
 10
-363.2993774414063
 20
292.5845947265625
 30
0.0
 40
3.283333301544189
100
AcDbArc
 50
8.171374130610477
 51
171.8286258693895
  0
ARC
  5
2A9
330
22
100
AcDbEntity
  8
0
  6
Continuous
 62
     7
100
AcDbCircle
 10
-351.7993774414063
 20
282.4113159179688
 30
0.0
 40
3.283333301544189
100
AcDbArc
 50
8.171374130610477
 51
171.8286258693895
  0
ARC
  5
2AA
330
22
100
AcDbEntity
  8
0
  6
Continuous
 62
     7
100
AcDbCircle
 10
-374.7993774414063
 20
239.6512756347656
 30
0.0
 40
3.283333301544189
100
AcDbArc
 50
171.8288894394597
 51
8.171110560540375
  0
ARC
  5
2AB
330
22
100
AcDbEntity
  8
0
  6
Continuous
 62
     7
100
AcDbCircle
 10
-386.2993774414063
 20
239.6512756347656
 30
0.0
 40
3.283333301544189
100
AcDbArc
 50
171.8288894394597
 51
8.171110560540375
  0
ARC
  5
2AC
330
22
100
AcDbEntity
  8
0
  6
Continuous
 62
     7
100
AcDbCircle
 10
-397.7993774414063
 20
239.6512756347656
 30
0.0
 40
3.283333301544189
100
AcDbArc
 50
171.8288894394597
 51
8.171110560540375
  0
ARC
  5
2AD
330
22
100
AcDbEntity
  8
0
  6
Continuous
 62
     7
100
AcDbCircle
 10
-489.7993774414063
 20
308.0048217773438
 30
0.0
 40
3.283333301544189
100
AcDbArc
 50
351.8291530098786
 51
188.1708469901228
  0
ARC
  5
2AE
330
22
100
AcDbEntity
  8
0
  6
Continuous
 62
     7
100
AcDbCircle
 10
-455.2993774414063
 20
324.7738342285156
 30
0.0
 40
3.283333301544189
100
AcDbArc
 50
351.8286258693902
 51
188.1713741306112
  0
ARC
  5
2AF
330
22
100
AcDbEntity
  8
0
  6
Continuous
 62
     7
100
AcDbCircle
 10
-363.2993774414063
 20
263.0845947265625
 30
0.0
 40
3.283333301544189
100
AcDbArc
 50
351.8291530098786
 51
188.1708469901228
  0
ARC
  5
2B0
330
22
100
AcDbEntity
  8
0
  6
Continuous
 62
     7
100
AcDbCircle
 10
-386.2993774414063
 20
261.8846130371094
 30
0.0
 40
3.283333301544189
100
AcDbArc
 50
351.8286258693902
 51
188.1713741306112
  0
ARC
  5
2B1
330
22
100
AcDbEntity
  8
0
  6
Continuous
 62
     7
100
AcDbCircle
 10
-341.5493774414063
 20
263.1116333007813
 30
0.0
 40
2.0
100
AcDbArc
 50
18.14659096807063
 51
180.0000000000004
  0
ARC
  5
2B2
330
22
100
AcDbEntity
  8
0
  6
Continuous
 62
     7
100
AcDbCircle
 10
-397.7993774414063
 20
264.6512756347656
 30
0.0
 40
3.283333301544189
100
AcDbArc
 50
171.8286258693895
 51
8.171374130610477
  0
ARC
  5
2B3
330
22
100
AcDbEntity
  8
0
  6
Continuous
 62
     7
100
AcDbCircle
 10
-374.7993774414063
 20
268.0845947265625
 30
0.0
 40
3.283333301544189
100
AcDbArc
 50
351.8291530098786
 51
188.1708469901228
  0
ARC
  5
2B4
330
22
100
AcDbEntity
  8
0
  6
Continuous
 62
     7
100
AcDbCircle
 10
-420.7993774414062
 20
268.5343017578125
 30
0.0
 40
3.283333301544189
100
AcDbArc
 50
171.8286258693895
 51
8.171374130610477
  0
ARC
  5
2B5
330
22
100
AcDbEntity
  8
0
  6
Continuous
 62
     7
100
AcDbCircle
 10
-409.2993774414063
 20
266.3846130371094
 30
0.0
 40
3.283333301544189
100
AcDbArc
 50
351.8286258693902
 51
188.1713741306112
  0
ARC
  5
2B6
330
22
100
AcDbEntity
  8
0
  6
Continuous
 62
     7
100
AcDbCircle
 10
-386.2993774414063
 20
273.4512634277344
 30
0.0
 40
3.283333301544189
100
AcDbArc
 50
171.8286258693895
 51
8.171374130610477
  0
ARC
  5
2B7
330
22
100
AcDbEntity
  8
0
  6
Continuous
 62
     7
100
AcDbCircle
 10
-432.2993774414062
 20
233.3679351806641
 30
0.0
 40
97.5
100
AcDbArc
 50
12.33290294476902
 51
18.14677294297143
  0
ARC
  5
2B8
330
22
100
AcDbEntity
  8
0
  6
Continuous
 62
     7
100
AcDbCircle
 10
-420.7993774414062
 20
256.9346008300781
 30
0.0
 40
3.283333301544189
100
AcDbArc
 50
351.8286258693902
 51
188.1713741306112
  0
ARC
  5
2B9
330
22
100
AcDbEntity
  8
0
  6
Continuous
 62
     7
100
AcDbCircle
 10
-351.7993774414063
 20
259.6512756347656
 30
0.0
 40
3.283333301544189
100
AcDbArc
 50
171.8286258693895
 51
8.171374130610477
  0
ARC
  5
2BA
330
22
100
AcDbEntity
  8
0
  6
Continuous
 62
     7
100
AcDbCircle
 10
-386.2993774414063
 20
293.4542846679688
 30
0.0
 40
3.283333301544189
100
AcDbArc
 50
171.8286258693895
 51
8.171374130610477
  0
ARC
  5
2BB
330
22
100
AcDbEntity
  8
0
  6
Continuous
 62
     7
100
AcDbCircle
 10
-386.2993774414063
 20
281.8846130371094
 30
0.0
 40
3.283333301544189
100
AcDbArc
 50
351.8286258693902
 51
188.1713741306112
  0
ARC
  5
2BC
330
22
100
AcDbEntity
  8
0
  6
Continuous
 62
     7
100
AcDbCircle
 10
-374.7993774414063
 20
279.6512756347656
 30
0.0
 40
3.283333301544189
100
AcDbArc
 50
171.8286258693895
 51
8.171374130610477
  0
ARC
  5
2BD
330
22
100
AcDbEntity
  8
0
  6
Continuous
 62
     7
100
AcDbCircle
 10
-397.7993774414063
 20
253.0846099853516
 30
0.0
 40
3.283333301544189
100
AcDbArc
 50
351.8286258693902
 51
188.1713741306112
  0
ARC
  5
2BE
330
22
100
AcDbEntity
  8
0
  6
Continuous
 62
     7
100
AcDbCircle
 10
-455.2993774414063
 20
239.6512756347656
 30
0.0
 40
3.283333301544189
100
AcDbArc
 50
171.8288894394597
 51
8.171110560540375
  0
ARC
  5
2BF
330
22
100
AcDbEntity
  8
0
  6
Continuous
 62
     7
100
AcDbCircle
 10
-489.7993774414063
 20
239.6512756347656
 30
0.0
 40
3.283333301544189
100
AcDbArc
 50
171.8288894394597
 51
8.171110560540375
  0
ARC
  5
2C0
330
22
100
AcDbEntity
  8
0
  6
Continuous
 62
     7
100
AcDbCircle
 10
-466.7993774414063
 20
239.6512756347656
 30
0.0
 40
3.283333301544189
100
AcDbArc
 50
171.8288894394597
 51
8.171110560540375
  0
ARC
  5
2C1
330
22
100
AcDbEntity
  8
0
  6
Continuous
 62
     7
100
AcDbCircle
 10
-443.7993774414063
 20
239.6512756347656
 30
0.0
 40
3.283333301544189
100
AcDbArc
 50
171.8288894394597
 51
8.171110560540375
  0
ARC
  5
2C2
330
22
100
AcDbEntity
  8
0
  6
Continuous
 62
     7
100
AcDbCircle
 10
-443.7993774414063
 20
309.5343017578125
 30
0.0
 40
3.283333301544189
100
AcDbArc
 50
171.8286258693895
 51
8.171374130610477
  0
ARC
  5
2C3
330
22
100
AcDbEntity
  8
0
  6
Continuous
 62
     7
100
AcDbCircle
 10
-443.7993774414063
 20
326.9040222167969
 30
0.0
 40
3.283333301544189
100
AcDbArc
 50
351.8286258693902
 51
188.1713741306112
  0
ARC
  5
2C4
330
22
100
AcDbEntity
  8
0
  6
Continuous
 62
     7
100
AcDbCircle
 10
-466.7993774414063
 20
307.6074523925781
 30
0.0
 40
3.283333301544189
100
AcDbArc
 50
171.8286258693895
 51
8.171374130610477
  0
ARC
  5
2C5
330
22
100
AcDbEntity
  8
0
  6
Continuous
 62
     7
100
AcDbCircle
 10
-478.2993774414062
 20
315.6179504394531
 30
0.0
 40
3.283333301544189
100
AcDbArc
 50
351.8286258693902
 51
188.1713741306112
  0
ARC
  5
2C6
330
22
100
AcDbEntity
  8
0
  6
Continuous
 62
     7
100
AcDbCircle
 10
-466.7993774414063
 20
321.0408020019531
 30
0.0
 40
3.283333301544189
100
AcDbArc
 50
351.8286258693902
 51
188.1713741306112
  0
ARC
  5
2C7
330
22
100
AcDbEntity
  8
0
  6
Continuous
 62
     7
100
AcDbCircle
 10
-432.2993774414062
 20
306.7512817382813
 30
0.0
 40
3.283333301544189
100
AcDbArc
 50
188.1713741306112
 51
351.8286258693902
  0
ARC
  5
2C8
330
22
100
AcDbEntity
  8
0
  6
Continuous
 62
     7
100
AcDbCircle
 10
-432.2993774414062
 20
327.5845947265625
 30
0.0
 40
3.283333301544189
100
AcDbArc
 50
8.171374130610477
 51
171.8286258693895
  0
ARC
  5
2C9
330
22
100
AcDbEntity
  8
0
  6
Continuous
 62
     7
100
AcDbCircle
 10
-478.2993774414062
 20
293.5542907714843
 30
0.0
 40
3.283333301544189
100
AcDbArc
 50
171.8286258693895
 51
8.171374130610477
  0
ARC
  5
2CA
330
22
100
AcDbEntity
  8
0
  6
Continuous
 62
     7
100
AcDbCircle
 10
-478.2993774414062
 20
281.8846130371094
 30
0.0
 40
3.283333301544189
100
AcDbArc
 50
351.8286258693902
 51
188.1713741306112
  0
ARC
  5
2CB
330
22
100
AcDbEntity
  8
0
  6
Continuous
 62
     7
100
AcDbCircle
 10
-489.7993774414063
 20
279.6512756347656
 30
0.0
 40
3.283333301544189
100
AcDbArc
 50
171.8286258693895
 51
8.171374130610477
  0
ARC
  5
2CC
330
22
100
AcDbEntity
  8
0
  6
Continuous
 62
     7
100
AcDbCircle
 10
-455.2993774414063
 20
286.2846069335938
 30
0.0
 40
3.283333301544189
100
AcDbArc
 50
351.8286258693902
 51
188.1713741306112
  0
ARC
  5
2CD
330
22
100
AcDbEntity
  8
0
  6
Continuous
 62
     7
100
AcDbCircle
 10
-432.2993774414062
 20
239.6512756347656
 30
0.0
 40
3.283333301544189
100
AcDbArc
 50
171.8288894394597
 51
8.171110560540375
  0
ARC
  5
2CE
330
22
100
AcDbEntity
  8
0
  6
Continuous
 62
     7
100
AcDbCircle
 10
-478.2993774414062
 20
239.6512756347656
 30
0.0
 40
3.283333301544189
100
AcDbArc
 50
171.8288894394597
 51
8.171110560540375
  0
ARC
  5
2CF
330
22
100
AcDbEntity
  8
0
  6
Continuous
 62
     7
100
AcDbCircle
 10
-501.2993774414063
 20
239.6512756347656
 30
0.0
 40
3.283333301544189
100
AcDbArc
 50
171.8288894394597
 51
8.171110560540375
  0
ARC
  5
2D0
330
22
100
AcDbEntity
  8
0
  6
Continuous
 62
     7
100
AcDbCircle
 10
-512.7993774414063
 20
239.6512756347656
 30
0.0
 40
3.283333301544189
100
AcDbArc
 50
171.8288894394597
 51
8.171110560540375
  0
ARC
  5
2D1
330
22
100
AcDbEntity
  8
0
  6
Continuous
 62
     7
100
AcDbCircle
 10
-523.0493774414063
 20
263.1116333007813
 30
0.0
 40
2.0
100
AcDbArc
 50
0.0
 51
161.8534090319294
  0
ARC
  5
2D2
330
22
100
AcDbEntity
  8
0
  6
Continuous
 62
     7
100
AcDbCircle
 10
-432.2993774414062
 20
233.3679351806641
 30
0.0
 40
97.5
100
AcDbArc
 50
161.8532270570286
 51
167.667097055231
  0
ARC
  5
2D3
330
22
100
AcDbEntity
  8
0
  6
Continuous
 62
     7
100
AcDbCircle
 10
-524.2993774414063
 20
239.6512756347656
 30
0.0
 40
3.283333301544189
100
AcDbArc
 50
171.8288894394597
 51
8.171110560540375
  0
ARC
  5
2D4
330
22
100
AcDbEntity
  8
0
  6
Continuous
 62
     7
100
AcDbCircle
 10
-432.2993774414062
 20
262.7345886230469
 30
0.0
 40
3.283333301544189
100
AcDbArc
 50
351.8291530098786
 51
188.1708469901228
  0
ARC
  5
2D5
330
22
100
AcDbEntity
  8
0
  6
Continuous
 62
     7
100
AcDbCircle
 10
-466.7993774414063
 20
264.6512756347656
 30
0.0
 40
3.283333301544189
100
AcDbArc
 50
171.8286258693895
 51
8.171374130610477
  0
ARC
  5
2D6
330
22
100
AcDbEntity
  8
0
  6
Continuous
 62
     7
100
AcDbCircle
 10
-478.2993774414062
 20
261.8846130371094
 30
0.0
 40
3.283333301544189
100
AcDbArc
 50
351.8286258693902
 51
188.1713741306112
  0
ARC
  5
2D7
330
22
100
AcDbEntity
  8
0
  6
Continuous
 62
     7
100
AcDbCircle
 10
-489.7993774414063
 20
268.0845947265625
 30
0.0
 40
3.283333301544189
100
AcDbArc
 50
351.8291530098786
 51
188.1708469901228
  0
ARC
  5
2D8
330
22
100
AcDbEntity
  8
0
  6
Continuous
 62
     7
100
AcDbCircle
 10
-455.2993774414063
 20
266.1846008300781
 30
0.0
 40
3.283333301544189
100
AcDbArc
 50
351.8286258693902
 51
188.1713741306112
  0
ARC
  5
2D9
330
22
100
AcDbEntity
  8
0
  6
Continuous
 62
     7
100
AcDbCircle
 10
-443.7993774414063
 20
268.5343017578125
 30
0.0
 40
3.283333301544189
100
AcDbArc
 50
171.8286258693895
 51
8.171374130610477
  0
ARC
  5
2DA
330
22
100
AcDbEntity
  8
0
  6
Continuous
 62
     7
100
AcDbCircle
 10
-478.2993774414062
 20
273.4512634277344
 30
0.0
 40
3.283333301544189
100
AcDbArc
 50
171.8286258693895
 51
8.171374130610477
  0
ARC
  5
2DB
330
22
100
AcDbEntity
  8
0
  6
Continuous
 62
     7
100
AcDbCircle
 10
-443.7993774414063
 20
256.9346008300781
 30
0.0
 40
3.283333301544189
100
AcDbArc
 50
351.8286258693902
 51
188.1713741306112
  0
ARC
  5
2DC
330
22
100
AcDbEntity
  8
0
  6
Continuous
 62
     7
100
AcDbCircle
 10
-466.7993774414063
 20
253.0846099853516
 30
0.0
 40
3.283333301544189
100
AcDbArc
 50
351.8286258693902
 51
188.1713741306112
  0
ARC
  5
2DD
330
22
100
AcDbEntity
  8
0
  6
Continuous
 62
     7
100
AcDbCircle
 10
-432.2993774414062
 20
274.3512573242188
 30
0.0
 40
3.283333301544189
100
AcDbArc
 50
171.8286258693895
 51
8.171374130610477
  0
ARC
  5
2DE
330
22
100
AcDbEntity
  8
0
  6
Continuous
 62
     7
100
AcDbCircle
 10
-455.2993774414063
 20
297.9542846679688
 30
0.0
 40
3.283333301544189
100
AcDbArc
 50
171.8286258693895
 51
8.171374130610477
  0
ARC
  5
2DF
330
22
100
AcDbEntity
  8
0
  6
Continuous
 62
     7
100
AcDbCircle
 10
-455.2993774414063
 20
277.7512817382813
 30
0.0
 40
3.283333301544189
100
AcDbArc
 50
171.8291530098779
 51
8.170846990122083
  0
ARC
  5
2E0
330
22
100
AcDbEntity
  8
0
  6
Continuous
 62
     7
100
AcDbCircle
 10
-363.2993774414063
 20
174.1512756347656
 30
0.0
 40
3.283333301544189
100
AcDbArc
 50
171.8288894394597
 51
8.171110560540375
  0
ARC
  5
2E1
330
22
100
AcDbEntity
  8
0
  6
Continuous
 62
     7
100
AcDbCircle
 10
-351.7993774414063
 20
184.3245391845703
 30
0.0
 40
3.283333301544189
100
AcDbArc
 50
171.8286258693895
 51
8.171374130610477
  0
ARC
  5
2E2
330
22
100
AcDbEntity
  8
0
  6
Continuous
 62
     7
100
AcDbCircle
 10
-501.2993774414063
 20
263.0845947265625
 30
0.0
 40
3.283333301544189
100
AcDbArc
 50
351.8291530098786
 51
188.1708469901228
  0
ARC
  5
2E3
330
22
100
AcDbEntity
  8
0
  6
Continuous
 62
     7
100
AcDbCircle
 10
-512.7993774414063
 20
259.6512756347656
 30
0.0
 40
3.283333301544189
100
AcDbArc
 50
171.8286258693895
 51
8.171374130610477
  0
ARC
  5
2E4
330
22
100
AcDbEntity
  8
0
  6
Continuous
 62
     7
100
AcDbCircle
 10
-501.2993774414063
 20
292.5845947265625
 30
0.0
 40
3.283333301544189
100
AcDbArc
 50
351.8291530098786
 51
188.1708469901228
  0
ARC
  5
2E5
330
22
100
AcDbEntity
  8
0
  6
Continuous
 62
     7
100
AcDbCircle
 10
-501.2993774414063
 20
274.6512756347656
 30
0.0
 40
3.283333301544189
100
AcDbArc
 50
171.8286258693895
 51
8.171374130610477
  0
ARC
  5
2E6
330
22
100
AcDbEntity
  8
0
  6
Continuous
 62
     7
100
AcDbCircle
 10
-512.7993774414063
 20
248.0846099853516
 30
0.0
 40
3.283333301544189
100
AcDbArc
 50
351.8286258693902
 51
188.1713741306112
  0
ARC
  5
2E7
330
22
100
AcDbEntity
  8
0
  6
Continuous
 62
     7
100
AcDbCircle
 10
-512.7993774414063
 20
282.4113159179688
 30
0.0
 40
3.283333301544189
100
AcDbArc
 50
351.8291530098786
 51
188.1708469901228
  0
ARC
  5
2E8
330
22
100
AcDbEntity
  8
0
  6
Continuous
 62
     7
100
AcDbCircle
 10
-420.7993774414062
 20
209.80126953125
 30
0.0
 40
3.283333301544189
100
AcDbArc
 50
171.8286258693895
 51
8.171374130610477
  0
ARC
  5
2E9
330
22
100
AcDbEntity
  8
0
  6
Continuous
 62
     7
100
AcDbCircle
 10
-420.7993774414062
 20
198.2015686035156
 30
0.0
 40
3.283333301544189
100
AcDbArc
 50
351.8288894394603
 51
188.1711105605411
  0
ARC
  5
2EA
330
22
100
AcDbEntity
  8
0
  6
Continuous
 62
     7
100
AcDbCircle
 10
-420.7993774414062
 20
168.7682342529297
 30
0.0
 40
3.283333301544189
100
AcDbArc
 50
171.8286258693895
 51
8.171374130610477
  0
ARC
  5
2EB
330
22
100
AcDbEntity
  8
0
  6
Continuous
 62
     7
100
AcDbCircle
 10
-420.7993774414062
 20
157.2015686035156
 30
0.0
 40
3.283333301544189
100
AcDbArc
 50
351.8288894394603
 51
188.1711105605411
  0
CIRCLE
  5
2EC
330
22
100
AcDbEntity
  8
0
  6
Continuous
 62
     7
100
AcDbCircle
 10
-362.9254760742188
 20
164.0075073242188
 30
0.0
 40
5.5
  0
CIRCLE
  5
2ED
330
22
100
AcDbEntity
  8
0
  6
Continuous
 62
     7
100
AcDbCircle
 10
-362.9254760742188
 20
164.0075073242188
 30
0.0
 40
5.0
  0
ARC
  5
2EE
330
22
100
AcDbEntity
  8
0
  6
Continuous
 62
     7
100
AcDbCircle
 10
-351.7993774414063
 20
207.0846099853516
 30
0.0
 40
3.283333301544189
100
AcDbArc
 50
351.8286258693902
 51
188.1713741306112
  0
ARC
  5
2EF
330
22
100
AcDbEntity
  8
0
  6
Continuous
 62
     7
100
AcDbCircle
 10
-432.2993774414062
 20
233.3679351806641
 30
0.0
 40
97.5
100
AcDbArc
 50
341.8532270570293
 51
347.6670970552317
  0
ARC
  5
2F0
330
22
100
AcDbEntity
  8
0
  6
Continuous
 62
     7
100
AcDbCircle
 10
-351.7993774414063
 20
218.6512756347656
 30
0.0
 40
3.283333301544189
100
AcDbArc
 50
171.8288894394597
 51
8.171110560540375
  0
ARC
  5
2F1
330
22
100
AcDbEntity
  8
0
  6
Continuous
 62
     7
100
AcDbCircle
 10
-363.2993774414063
 20
203.6512756347656
 30
0.0
 40
3.283333301544189
100
AcDbArc
 50
171.8288894394597
 51
8.171110560540375
  0
ARC
  5
2F2
330
22
100
AcDbEntity
  8
0
  6
Continuous
 62
     7
100
AcDbCircle
 10
-363.2993774414063
 20
192.0846099853516
 30
0.0
 40
3.283333301544189
100
AcDbArc
 50
351.8286258693902
 51
188.1713741306112
  0
ARC
  5
2F3
330
22
100
AcDbEntity
  8
0
  6
Continuous
 62
     7
100
AcDbCircle
 10
-341.5493774414063
 20
203.6242370605469
 30
0.0
 40
2.0
100
AcDbArc
 50
180.0000000000004
 51
341.8534090319301
  0
ARC
  5
2F4
330
22
100
AcDbEntity
  8
0
  6
Continuous
 62
     7
100
AcDbCircle
 10
-466.7993774414063
 20
159.1284027099609
 30
0.0
 40
3.283333301544189
100
AcDbArc
 50
351.8288894394603
 51
188.1711105605411
  0
ARC
  5
2F5
330
22
100
AcDbEntity
  8
0
  6
Continuous
 62
     7
100
AcDbCircle
 10
-397.7993774414063
 20
145.695068359375
 30
0.0
 40
3.283333301544189
100
AcDbArc
 50
171.8286258693895
 51
8.171374130610477
  0
ARC
  5
2F6
330
22
100
AcDbEntity
  8
0
  6
Continuous
 62
     7
100
AcDbCircle
 10
-409.2993774414063
 20
141.9620513916016
 30
0.0
 40
3.283333301544189
100
AcDbArc
 50
171.8286258693895
 51
8.171374130610477
  0
ARC
  5
2F7
330
22
100
AcDbEntity
  8
0
  6
Continuous
 62
     7
100
AcDbCircle
 10
-420.7993774414062
 20
139.8318481445313
 30
0.0
 40
3.283333301544189
100
AcDbArc
 50
171.8286258693895
 51
8.171374130610477
  0
ARC
  5
2F8
330
22
100
AcDbEntity
  8
0
  6
Continuous
 62
     7
100
AcDbCircle
 10
-386.2993774414063
 20
193.2846069335938
 30
0.0
 40
3.283333301544189
100
AcDbArc
 50
351.8286258693902
 51
188.1713741306112
  0
ARC
  5
2F9
330
22
100
AcDbEntity
  8
0
  6
Continuous
 62
     7
100
AcDbCircle
 10
-386.2993774414063
 20
173.1815795898438
 30
0.0
 40
3.283333301544189
100
AcDbArc
 50
351.8286258693902
 51
188.1713741306112
  0
ARC
  5
2FA
330
22
100
AcDbEntity
  8
0
  6
Continuous
 62
     7
100
AcDbCircle
 10
-386.2993774414063
 20
204.8512725830078
 30
0.0
 40
3.283333301544189
100
AcDbArc
 50
171.8288894394597
 51
8.171110560540375
  0
ARC
  5
2FB
330
22
100
AcDbEntity
  8
0
  6
Continuous
 62
     7
100
AcDbCircle
 10
-374.7993774414063
 20
187.0846099853516
 30
0.0
 40
3.283333301544189
100
AcDbArc
 50
351.8286258693902
 51
188.1713741306112
  0
ARC
  5
2FC
330
22
100
AcDbEntity
  8
0
  6
Continuous
 62
     7
100
AcDbCircle
 10
-374.7993774414063
 20
198.6512756347656
 30
0.0
 40
3.283333301544189
100
AcDbArc
 50
171.8288894394597
 51
8.171110560540375
  0
ARC
  5
2FD
330
22
100
AcDbEntity
  8
0
  6
Continuous
 62
     7
100
AcDbCircle
 10
-374.7993774414063
 20
158.7310485839844
 30
0.0
 40
3.283333301544189
100
AcDbArc
 50
171.8288894394597
 51
8.171110560540375
  0
ARC
  5
2FE
330
22
100
AcDbEntity
  8
0
  6
Continuous
 62
     7
100
AcDbCircle
 10
-386.2993774414063
 20
184.8512725830078
 30
0.0
 40
3.283333301544189
100
AcDbArc
 50
171.8288894394597
 51
8.171110560540375
  0
ARC
  5
2FF
330
22
100
AcDbEntity
  8
0
  6
Continuous
 62
     7
100
AcDbCircle
 10
-397.7993774414063
 20
202.0846099853516
 30
0.0
 40
3.283333301544189
100
AcDbArc
 50
351.8286258693902
 51
188.1713741306112
  0
ARC
  5
300
330
22
100
AcDbEntity
  8
0
  6
Continuous
 62
     7
100
AcDbCircle
 10
-409.2993774414063
 20
188.9846038818359
 30
0.0
 40
3.283333301544189
100
AcDbArc
 50
351.8288894394603
 51
188.1711105605411
  0
ARC
  5
301
330
22
100
AcDbEntity
  8
0
  6
Continuous
 62
     7
100
AcDbCircle
 10
-409.2993774414063
 20
200.55126953125
 30
0.0
 40
3.283333301544189
100
AcDbArc
 50
171.8286258693895
 51
8.171374130610477
  0
ARC
  5
302
330
22
100
AcDbEntity
  8
0
  6
Continuous
 62
     7
100
AcDbCircle
 10
-409.2993774414063
 20
180.4512634277344
 30
0.0
 40
3.283333301544189
100
AcDbArc
 50
171.8286258693895
 51
8.171374130610477
  0
ARC
  5
303
330
22
100
AcDbEntity
  8
0
  6
Continuous
 62
     7
100
AcDbCircle
 10
-409.2993774414063
 20
168.7815704345703
 30
0.0
 40
3.283333301544189
100
AcDbArc
 50
351.8288894394603
 51
188.1711105605411
  0
ARC
  5
304
330
22
100
AcDbEntity
  8
0
  6
Continuous
 62
     7
100
AcDbCircle
 10
-397.7993774414063
 20
213.6512756347656
 30
0.0
 40
3.283333301544189
100
AcDbArc
 50
171.8288894394597
 51
8.171110560540375
  0
ARC
  5
305
330
22
100
AcDbEntity
  8
0
  6
Continuous
 62
     7
100
AcDbCircle
 10
-397.7993774414063
 20
159.1284027099609
 30
0.0
 40
3.283333301544189
100
AcDbArc
 50
351.8288894394603
 51
188.1711105605411
  0
ARC
  5
306
330
22
100
AcDbEntity
  8
0
  6
Continuous
 62
     7
100
AcDbCircle
 10
-397.7993774414063
 20
170.798095703125
 30
0.0
 40
3.283333301544189
100
AcDbArc
 50
171.8286258693895
 51
8.171374130610477
  0
ARC
  5
307
330
22
100
AcDbEntity
  8
0
  6
Continuous
 62
     7
100
AcDbCircle
 10
-489.7993774414063
 20
158.7310485839844
 30
0.0
 40
3.283333301544189
100
AcDbArc
 50
171.8288894394597
 51
8.171110560540375
  0
ARC
  5
308
330
22
100
AcDbEntity
  8
0
  6
Continuous
 62
     7
100
AcDbCircle
 10
-432.2993774414062
 20
192.3845977783203
 30
0.0
 40
3.283333301544189
100
AcDbArc
 50
351.8288894394603
 51
188.1711105605411
  0
ARC
  5
309
330
22
100
AcDbEntity
  8
0
  6
Continuous
 62
     7
100
AcDbCircle
 10
-432.2993774414062
 20
159.9846038818359
 30
0.0
 40
3.283333301544189
100
AcDbArc
 50
351.8288894394603
 51
188.1711105605411
  0
ARC
  5
30A
330
22
100
AcDbEntity
  8
0
  6
Continuous
 62
     7
100
AcDbCircle
 10
-455.2993774414063
 20
188.9846038818359
 30
0.0
 40
3.283333301544189
100
AcDbArc
 50
351.8288894394603
 51
188.1711105605411
  0
ARC
  5
30B
330
22
100
AcDbEntity
  8
0
  6
Continuous
 62
     7
100
AcDbCircle
 10
-443.7993774414063
 20
157.2015686035156
 30
0.0
 40
3.283333301544189
100
AcDbArc
 50
351.8288894394603
 51
188.1711105605411
  0
ARC
  5
30C
330
22
100
AcDbEntity
  8
0
  6
Continuous
 62
     7
100
AcDbCircle
 10
-455.2993774414063
 20
180.4512634277344
 30
0.0
 40
3.283333301544189
100
AcDbArc
 50
171.8286258693895
 51
8.171374130610477
  0
ARC
  5
30D
330
22
100
AcDbEntity
  8
0
  6
Continuous
 62
     7
100
AcDbCircle
 10
-478.2993774414062
 20
173.1815795898438
 30
0.0
 40
3.283333301544189
100
AcDbArc
 50
351.8286258693902
 51
188.1713741306112
  0
ARC
  5
30E
330
22
100
AcDbEntity
  8
0
  6
Continuous
 62
     7
100
AcDbCircle
 10
-455.2993774414063
 20
200.55126953125
 30
0.0
 40
3.283333301544189
100
AcDbArc
 50
171.8286258693895
 51
8.171374130610477
  0
ARC
  5
30F
330
22
100
AcDbEntity
  8
0
  6
Continuous
 62
     7
100
AcDbCircle
 10
-478.2993774414062
 20
193.2846069335938
 30
0.0
 40
3.283333301544189
100
AcDbArc
 50
351.8286258693902
 51
188.1713741306112
  0
ARC
  5
310
330
22
100
AcDbEntity
  8
0
  6
Continuous
 62
     7
100
AcDbCircle
 10
-466.7993774414063
 20
170.798095703125
 30
0.0
 40
3.283333301544189
100
AcDbArc
 50
171.8286258693895
 51
8.171374130610477
  0
ARC
  5
311
330
22
100
AcDbEntity
  8
0
  6
Continuous
 62
     7
100
AcDbCircle
 10
-443.7993774414063
 20
168.7682342529297
 30
0.0
 40
3.283333301544189
100
AcDbArc
 50
171.8286258693895
 51
8.171374130610477
  0
ARC
  5
312
330
22
100
AcDbEntity
  8
0
  6
Continuous
 62
     7
100
AcDbCircle
 10
-489.7993774414063
 20
198.6512756347656
 30
0.0
 40
3.283333301544189
100
AcDbArc
 50
171.8288894394597
 51
8.171110560540375
  0
ARC
  5
313
330
22
100
AcDbEntity
  8
0
  6
Continuous
 62
     7
100
AcDbCircle
 10
-443.7993774414063
 20
198.2015686035156
 30
0.0
 40
3.283333301544189
100
AcDbArc
 50
351.8288894394603
 51
188.1711105605411
  0
ARC
  5
314
330
22
100
AcDbEntity
  8
0
  6
Continuous
 62
     7
100
AcDbCircle
 10
-489.7993774414063
 20
187.0846099853516
 30
0.0
 40
3.283333301544189
100
AcDbArc
 50
351.8286258693902
 51
188.1713741306112
  0
ARC
  5
315
330
22
100
AcDbEntity
  8
0
  6
Continuous
 62
     7
100
AcDbCircle
 10
-478.2993774414062
 20
184.8512725830078
 30
0.0
 40
3.283333301544189
100
AcDbArc
 50
171.8288894394597
 51
8.171110560540375
  0
ARC
  5
316
330
22
100
AcDbEntity
  8
0
  6
Continuous
 62
     7
100
AcDbCircle
 10
-455.2993774414063
 20
168.7815704345703
 30
0.0
 40
3.283333301544189
100
AcDbArc
 50
351.8288894394603
 51
188.1711105605411
  0
ARC
  5
317
330
22
100
AcDbEntity
  8
0
  6
Continuous
 62
     7
100
AcDbCircle
 10
-512.7993774414063
 20
207.0846099853516
 30
0.0
 40
3.283333301544189
100
AcDbArc
 50
351.8286258693902
 51
188.1713741306112
  0
ARC
  5
318
330
22
100
AcDbEntity
  8
0
  6
Continuous
 62
     7
100
AcDbCircle
 10
-523.0493774414063
 20
203.6242370605469
 30
0.0
 40
2.0
100
AcDbArc
 50
198.1465909680713
 51
0.0
  0
ARC
  5
319
330
22
100
AcDbEntity
  8
0
  6
Continuous
 62
     7
100
AcDbCircle
 10
-432.2993774414062
 20
233.3679351806641
 30
0.0
 40
97.5
100
AcDbArc
 50
192.3329029447696
 51
198.1467729429721
  0
ARC
  5
31A
330
22
100
AcDbEntity
  8
0
  6
Continuous
 62
     7
100
AcDbCircle
 10
-478.2993774414062
 20
204.8512725830078
 30
0.0
 40
3.283333301544189
100
AcDbArc
 50
171.8288894394597
 51
8.171110560540375
  0
ARC
  5
31B
330
22
100
AcDbEntity
  8
0
  6
Continuous
 62
     7
100
AcDbCircle
 10
-466.7993774414063
 20
202.0846099853516
 30
0.0
 40
3.283333301544189
100
AcDbArc
 50
351.8286258693902
 51
188.1713741306112
  0
ARC
  5
31C
330
22
100
AcDbEntity
  8
0
  6
Continuous
 62
     7
100
AcDbCircle
 10
-466.7993774414063
 20
213.6512756347656
 30
0.0
 40
3.283333301544189
100
AcDbArc
 50
171.8288894394597
 51
8.171110560540375
  0
ARC
  5
31D
330
22
100
AcDbEntity
  8
0
  6
Continuous
 62
     7
100
AcDbCircle
 10
-443.7993774414063
 20
209.80126953125
 30
0.0
 40
3.283333301544189
100
AcDbArc
 50
171.8286258693895
 51
8.171374130610477
  0
ARC
  5
31E
330
22
100
AcDbEntity
  8
0
  6
Continuous
 62
     7
100
AcDbCircle
 10
-432.2993774414062
 20
204.0012664794922
 30
0.0
 40
3.283333301544189
100
AcDbArc
 50
171.8286258693895
 51
8.171374130610477
  0
ARC
  5
31F
330
22
100
AcDbEntity
  8
0
  6
Continuous
 62
     7
100
AcDbCircle
 10
-432.2993774414062
 20
171.55126953125
 30
0.0
 40
3.283333301544189
100
AcDbArc
 50
171.8286258693895
 51
8.171374130610477
  0
ARC
  5
320
330
22
100
AcDbEntity
  8
0
  6
Continuous
 62
     7
100
AcDbCircle
 10
-432.2993774414062
 20
139.1512756347656
 30
0.0
 40
3.283333301544189
100
AcDbArc
 50
171.8288894394597
 51
8.171110560540375
  0
ARC
  5
321
330
22
100
AcDbEntity
  8
0
  6
Continuous
 62
     7
100
AcDbCircle
 10
-443.7993774414063
 20
139.8318481445313
 30
0.0
 40
3.283333301544189
100
AcDbArc
 50
171.8286258693895
 51
8.171374130610477
  0
ARC
  5
322
330
22
100
AcDbEntity
  8
0
  6
Continuous
 62
     7
100
AcDbCircle
 10
-455.2993774414063
 20
141.9620513916016
 30
0.0
 40
3.283333301544189
100
AcDbArc
 50
171.8286258693895
 51
8.171374130610477
  0
ARC
  5
323
330
22
100
AcDbEntity
  8
0
  6
Continuous
 62
     7
100
AcDbCircle
 10
-466.7993774414063
 20
145.695068359375
 30
0.0
 40
3.283333301544189
100
AcDbArc
 50
171.8286258693895
 51
8.171374130610477
  0
ARC
  5
324
330
22
100
AcDbEntity
  8
0
  6
Continuous
 62
     7
100
AcDbCircle
 10
-501.2993774414063
 20
174.1512756347656
 30
0.0
 40
3.283333301544189
100
AcDbArc
 50
171.8288894394597
 51
8.171110560540375
  0
CIRCLE
  5
325
330
22
100
AcDbEntity
  8
0
  6
Continuous
 62
     7
100
AcDbCircle
 10
-501.659454345703
 20
163.994384765625
 30
0.0
 40
5.5
  0
CIRCLE
  5
326
330
22
100
AcDbEntity
  8
0
  6
Continuous
 62
     7
100
AcDbCircle
 10
-501.659454345703
 20
163.994384765625
 30
0.0
 40
5.0
  0
ARC
  5
327
330
22
100
AcDbEntity
  8
0
  6
Continuous
 62
     7
100
AcDbCircle
 10
-501.2993774414063
 20
203.6512756347656
 30
0.0
 40
3.283333301544189
100
AcDbArc
 50
171.8288894394597
 51
8.171110560540375
  0
ARC
  5
328
330
22
100
AcDbEntity
  8
0
  6
Continuous
 62
     7
100
AcDbCircle
 10
-501.2993774414063
 20
192.0846099853516
 30
0.0
 40
3.283333301544189
100
AcDbArc
 50
351.8286258693902
 51
188.1713741306112
  0
ARC
  5
329
330
22
100
AcDbEntity
  8
0
  6
Continuous
 62
     7
100
AcDbCircle
 10
-512.7993774414063
 20
218.6512756347656
 30
0.0
 40
3.283333301544189
100
AcDbArc
 50
171.8288894394597
 51
8.171110560540375
  0
ARC
  5
32A
330
22
100
AcDbEntity
  8
0
  6
Continuous
 62
     7
100
AcDbCircle
 10
-512.7993774414063
 20
184.3245391845703
 30
0.0
 40
3.283333301544189
100
AcDbArc
 50
171.8286258693895
 51
8.171374130610477
  0
ARC
  5
32B
330
22
100
AcDbEntity
  8
0
  6
Continuous
 62
     7
100
AcDbCircle
 10
-397.7993774414063
 20
296.0377807617188
 30
0.0
 40
3.283333301544189
100
AcDbArc
 50
351.8286258693902
 51
188.1713741306112
  0
ARC
  5
32C
330
22
100
AcDbEntity
  8
0
  6
Continuous
 62
     7
100
AcDbCircle
 10
-420.7993774414062
 20
297.9676208496094
 30
0.0
 40
3.283333301544189
100
AcDbArc
 50
351.8291530098786
 51
188.1708469901228
  0
CIRCLE
  5
32D
330
22
100
AcDbEntity
  8
0
  6
Continuous
 62
     7
100
AcDbCircle
 10
-362.9385681152344
 20
302.7414855957031
 30
0.0
 40
5.0
  0
CIRCLE
  5
32E
330
22
100
AcDbEntity
  8
0
  6
Continuous
 62
     7
100
AcDbCircle
 10
-362.9385681152344
 20
302.7414855957031
 30
0.0
 40
5.5
  0
CIRCLE
  5
32F
330
22
100
AcDbEntity
  8
0
  6
Continuous
 62
     7
100
AcDbCircle
 10
-501.6725463867188
 20
302.7283630371094
 30
0.0
 40
5.0
  0
CIRCLE
  5
330
330
22
100
AcDbEntity
  8
0
  6
Continuous
 62
     7
100
AcDbCircle
 10
-501.6725463867188
 20
302.7283630371094
 30
0.0
 40
5.5
  0
ARC
  5
331
330
22
100
AcDbEntity
  8
0
  6
Continuous
 62
     7
100
AcDbCircle
 10
-466.7993774414063
 20
295.9377746582031
 30
0.0
 40
3.283333301544189
100
AcDbArc
 50
351.8286258693902
 51
188.1713741306112
  0
ARC
  5
332
330
22
100
AcDbEntity
  8
0
  6
Continuous
 62
     7
100
AcDbCircle
 10
-443.7993774414063
 20
297.9676208496094
 30
0.0
 40
3.283333301544189
100
AcDbArc
 50
351.8291530098786
 51
188.1708469901228
  0
ARC
  5
333
330
22
100
AcDbEntity
  8
0
  6
Continuous
 62
     7
100
AcDbCircle
 10
-432.2993774414062
 20
295.1846008300781
 30
0.0
 40
3.283333301544189
100
AcDbArc
 50
351.8286258693902
 51
188.1713741306112
  0
ARC
  5
334
330
22
100
AcDbEntity
  8
0
  6
Continuous
 62
     7
100
AcDbCircle
 10
-478.2993774414062
 20
151.1179351806641
 30
0.0
 40
3.283333301544189
100
AcDbArc
 50
171.8286258693895
 51
8.171374130610477
  0
ARC
  5
335
330
22
100
AcDbEntity
  8
0
  6
Continuous
 62
     7
100
AcDbCircle
 10
-386.2993774414063
 20
151.1179351806641
 30
0.0
 40
3.283333301544189
100
AcDbArc
 50
171.8286258693895
 51
8.171374130610477
  0
ARC
  5
336
330
22
100
AcDbEntity
  8
0
  6
Continuous
 62
     7
100
AcDbCircle
 10
-363.2993774414063
 20
227.0846099853516
 30
0.0
 40
3.283333301544189
100
AcDbArc
 50
351.8286258693902
 51
188.1713741306112
  0
ARC
  5
337
330
22
100
AcDbEntity
  8
0
  6
Continuous
 62
     7
100
AcDbCircle
 10
-340.2993774414063
 20
227.0846099853516
 30
0.0
 40
3.283333301544189
100
AcDbArc
 50
351.8286258693902
 51
188.1713741306112
  0
CIRCLE
  5
338
330
22
100
AcDbEntity
  8
0
  6
DASHED
 62
     7
100
AcDbCircle
 10
-432.2993774414062
 20
233.3679351806641
 30
0.0
 40
52.5
  0
CIRCLE
  5
339
330
22
100
AcDbEntity
  8
0
  6
Continuous
 62
     7
100
AcDbCircle
 10
-432.2993774414062
 20
233.3679351806641
 30
0.0
 40
115.0
  0
CIRCLE
  5
33A
330
22
100
AcDbEntity
  8
0
  6
Continuous
 62
     7
100
AcDbCircle
 10
-432.2993774414062
 20
233.3679351806641
 30
0.0
 40
104.5
  0
CIRCLE
  5
33B
330
22
100
AcDbEntity
  8
0
  6
Continuous
 62
     7
100
AcDbCircle
 10
-432.2993774414062
 20
233.3679351806641
 30
0.0
 40
105.0
  0
CIRCLE
  5
33C
330
22
100
AcDbEntity
  8
0
  6
DASHED
 62
     7
100
AcDbCircle
 10
-432.6636047363281
 20
233.3679351806641
 30
0.0
 40
111.0
  0
ARC
  5
33D
330
22
100
AcDbEntity
  8
0
  6
Continuous
 62
     7
100
AcDbCircle
 10
-501.2993774414063
 20
227.0846099853516
 30
0.0
 40
3.283333301544189
100
AcDbArc
 50
351.8286258693902
 51
188.1713741306112
  0
ARC
  5
33E
330
22
100
AcDbEntity
  8
0
  6
Continuous
 62
     7
100
AcDbCircle
 10
-374.7993774414063
 20
227.0846099853516
 30
0.0
 40
3.283333301544189
100
AcDbArc
 50
351.8286258693902
 51
188.1713741306112
  0
ARC
  5
33F
330
22
100
AcDbEntity
  8
0
  6
Continuous
 62
     7
100
AcDbCircle
 10
-386.2993774414063
 20
227.0846099853516
 30
0.0
 40
3.283333301544189
100
AcDbArc
 50
351.8286258693902
 51
188.1713741306112
  0
ARC
  5
340
330
22
100
AcDbEntity
  8
0
  6
Continuous
 62
     7
100
AcDbCircle
 10
-524.2993774414063
 20
227.0846099853516
 30
0.0
 40
3.283333301544189
100
AcDbArc
 50
351.8286258693902
 51
188.1713741306112
  0
ARC
  5
341
330
22
100
AcDbEntity
  8
0
  6
Continuous
 62
     7
100
AcDbCircle
 10
-512.7993774414063
 20
227.0846099853516
 30
0.0
 40
3.283333301544189
100
AcDbArc
 50
351.8286258693902
 51
188.1713741306112
  0
ARC
  5
342
330
22
100
AcDbEntity
  8
0
  6
Continuous
 62
     7
100
AcDbCircle
 10
-397.7993774414063
 20
227.0846099853516
 30
0.0
 40
3.283333301544189
100
AcDbArc
 50
351.8286258693902
 51
188.1713741306112
  0
ARC
  5
343
330
22
100
AcDbEntity
  8
0
  6
Continuous
 62
     7
100
AcDbCircle
 10
-409.2993774414063
 20
227.0846099853516
 30
0.0
 40
3.283333301544189
100
AcDbArc
 50
351.8286258693902
 51
188.1713741306112
  0
ARC
  5
344
330
22
100
AcDbEntity
  8
0
  6
Continuous
 62
     7
100
AcDbCircle
 10
-432.2993774414062
 20
224.8346099853516
 30
0.0
 40
3.283333301544189
100
AcDbArc
 50
351.8286258693902
 51
188.1713741306112
  0
ARC
  5
345
330
22
100
AcDbEntity
  8
0
  6
Continuous
 62
     7
100
AcDbCircle
 10
-466.7993774414063
 20
227.0846099853516
 30
0.0
 40
3.283333301544189
100
AcDbArc
 50
351.8286258693902
 51
188.1713741306112
  0
ARC
  5
346
330
22
100
AcDbEntity
  8
0
  6
Continuous
 62
     7
100
AcDbCircle
 10
-478.2993774414062
 20
227.0846099853516
 30
0.0
 40
3.283333301544189
100
AcDbArc
 50
351.8286258693902
 51
188.1713741306112
  0
ARC
  5
347
330
22
100
AcDbEntity
  8
0
  6
Continuous
 62
     7
100
AcDbCircle
 10
-455.2993774414063
 20
227.0846099853516
 30
0.0
 40
3.283333301544189
100
AcDbArc
 50
351.8286258693902
 51
188.1713741306112
  0
ARC
  5
348
330
22
100
AcDbEntity
  8
0
  6
Continuous
 62
     7
100
AcDbCircle
 10
-443.7993774414063
 20
227.0846099853516
 30
0.0
 40
3.283333301544189
100
AcDbArc
 50
351.8286258693902
 51
188.1713741306112
  0
ARC
  5
349
330
22
100
AcDbEntity
  8
0
  6
Continuous
 62
     7
100
AcDbCircle
 10
-489.7993774414063
 20
227.0846099853516
 30
0.0
 40
3.283333301544189
100
AcDbArc
 50
351.8286258693902
 51
188.1713741306112
  0
ARC
  5
34A
330
22
100
AcDbEntity
  8
0
  6
Continuous
 62
     7
100
AcDbCircle
 10
-420.7993774414062
 20
227.0846099853516
 30
0.0
 40
3.283333301544189
100
AcDbArc
 50
351.8286258693902
 51
188.1713741306112
  0
ARC
  5
34B
330
22
100
AcDbEntity
  8
0
  6
Continuous
 62
     7
100
AcDbCircle
 10
-351.7993774414063
 20
227.0846099853516
 30
0.0
 40
3.283333301544189
100
AcDbArc
 50
351.8286258693902
 51
188.1713741306112
  0
TEXT
  5
34C
330
22
100
AcDbEntity
  8
0
  6
Continuous
 62
     7
100
AcDbText
 10
-338.029839515686
 20
40.71831512451171
 30
0.0
 40
7.0
  1
ＤＬ－ＣＵ１００
 41
0.8454512837995997
100
AcDbText
  0
DIMENSION
  5
34D
330
22
100
AcDbEntity
  8
0
  6
Continuous
 62
     7
100
AcDbDimension
  2
*D1
 10
-135.4337768554688
 20
372.1805419921875
 30
0.0
 11
-125.6447906494141
 21
372.1805419921875
 31
0.0
 71
     5
 42
-1.0
  3
DIMSTYLE1
100
AcDbAlignedDimension
 13
-138.9337768554687
 23
374.4665222167969
 33
0.0
 14
-135.4337768554688
 24
330.3679504394531
 34
0.0
100
AcDbRotatedDimension
  0
DIMENSION
  5
34E
330
22
100
AcDbEntity
  8
0
  6
Continuous
 62
     7
100
AcDbDimension
  2
*D2
 10
-247.9337768554688
 20
372.1805419921875
 30
0.0
 11
-193.4337768554688
 21
372.1805419921875
 31
0.0
 71
     5
 42
-1.0
  3
DIMSTYLE2
100
AcDbAlignedDimension
 13
-138.9337768554687
 23
342.3679504394531
 33
0.0
 14
-247.9337768554688
 24
347.3679504394531
 34
0.0
100
AcDbRotatedDimension
  0
DIMENSION
  5
34F
330
22
100
AcDbEntity
  8
0
  6
Continuous
 62
     7
100
AcDbDimension
  2
*D3
 10
-178.9337768554688
 20
360.1519165039063
 30
0.0
 11
-158.9337768554688
 21
360.1519165039063
 31
0.0
 71
     5
 42
-1.0
  3
DIMSTYLE3
100
AcDbAlignedDimension
 13
-138.9337768554687
 23
374.4665222167969
 33
0.0
 14
-178.9337768554688
 24
293.3679504394531
 34
0.0
100
AcDbRotatedDimension
  0
DIMENSION
  5
350
330
22
100
AcDbEntity
  8
0
  6
Continuous
 62
     7
100
AcDbDimension
  2
*D4
 10
-62.18706893920898
 20
295.8679504394531
 30
0.0
 11
-62.18706893920898
 21
233.3679351806641
 31
0.0
 71
     5
 42
-1.0
  3
DIMSTYLE4
100
AcDbAlignedDimension
 13
-95.90058135986328
 23
170.8679351806641
 33
0.0
 14
-94.93376922607422
 24
295.8679504394531
 34
0.0
 50
90.0
100
AcDbRotatedDimension
  0
INSERT
  5
351
330
22
100
AcDbEntity
  8
0
  6
Continuous
 62
     7
100
AcDbBlockReference
  2
KOZU0001
 10
-113.6613998413086
 20
289.2514038085938
 30
0.0
  0
DIMENSION
  5
352
330
22
100
AcDbEntity
  8
0
  6
Continuous
 62
     7
100
AcDbDimension
  2
*D5
 10
-93.93376922607421
 20
108.6972732543945
 30
0.0
 11
-136.4337768554688
 21
108.6972732543945
 31
0.0
 71
     5
 42
-1.0
  3
DIMSTYLE5
100
AcDbAlignedDimension
 13
-178.9337768554688
 23
173.3679351806641
 33
0.0
 14
-93.93376922607421
 24
171.8679351806641
 34
0.0
100
AcDbRotatedDimension
  0
DIMENSION
  5
353
330
22
100
AcDbEntity
  8
0
  6
Continuous
 62
     7
100
AcDbDimension
  2
*D6
 10
-103.5537567138672
 20
152.8679351806641
 30
0.0
 11
-103.5537567138672
 21
161.8679351806641
 31
0.0
 71
     5
 42
-1.0
  3
DIMSTYLE6
100
AcDbAlignedDimension
 13
-95.90058135986328
 23
170.8679351806641
 33
0.0
 14
-133.9789123535156
 24
152.8679351806641
 34
0.0
 50
90.0
100
AcDbRotatedDimension
  0
DIMENSION
  5
354
330
22
100
AcDbEntity
  8
0
  6
Continuous
 62
     7
100
AcDbDimension
  2
*D7
 10
-113.4337692260742
 20
142.0935821533203
 30
0.0
 11
-124.4337692260742
 21
142.0935821533203
 31
0.0
 71
     5
 42
-1.0
  3
DIMSTYLE7
100
AcDbAlignedDimension
 13
-135.4337768554688
 23
122.8679351806641
 33
0.0
 14
-113.4337692260742
 24
168.8679809570313
 34
0.0
100
AcDbRotatedDimension
  0
INSERT
  5
355
330
22
100
AcDbEntity
  8
0
  6
Continuous
 62
     7
100
AcDbBlockReference
  2
KOZU0002
 10
-129.8117980957031
 20
166.2427062988281
 30
0.0
  0
DIMENSION
  5
356
330
22
100
AcDbEntity
  8
0
  6
Continuous
 62
     7
100
AcDbDimension
  2
*D8
 10
-158.9337768554688
 20
250.3653717041016
 30
0.0
 11
-197.9175415039063
 21
250.3653717041016
 31
0.0
 71
     5
 42
-1.0
  3
DIMSTYLE8
100
AcDbAlignedDimension
 13
-247.9337768554688
 23
233.3679351806641
 33
0.0
 14
-158.9337768554688
 24
233.3679351806641
 34
0.0
100
AcDbRotatedDimension
  0
DIMENSION
  5
357
330
22
100
AcDbEntity
  8
0
  6
Continuous
 62
     7
100
AcDbDimension
  2
*D9
 10
-479.5673348295545
 20
132.7645550021543
 30
0.0
 11
-374.2115783691406
 21
358.7411499023438
 31
0.0
 70
     3
 71
     5
 42
-1.0
  3
DIMSTYLE9
100
AcDbDiametricDimension
 15
-385.7598746431017
 25
333.9713153591738
 35
0.0
 40
0.0
  0
DIMENSION
  5
358
330
22
100
AcDbEntity
  8
0
  6
Continuous
 62
     7
100
AcDbDimension
  2
*D10
 10
-502.2626027809511
 20
142.0982956498318
 30
0.0
 11
-346.9648132324219
 21
344.6900329589844
 31
0.0
 70
     3
 71
     5
 42
-1.0
  3
DIMSTYLE10
100
AcDbDiametricDimension
 15
-362.3361521018613
 25
324.6375747114964
 35
0.0
 40
0.0
  0
DIMENSION
  5
359
330
22
100
AcDbEntity
  8
0
  6
Continuous
 62
     7
100
AcDbDimension
  2
*D11
 10
-517.8064432031728
 20
173.2947156497206
 30
0.0
 11
-319.0314636230469
 21
312.9446105957031
 31
0.0
 70
     3
 71
     5
 42
-1.0
  3
DIMSTYLE11
100
AcDbDiametricDimension
 15
-346.7923116796397
 25
293.4411547116076
 35
0.0
 40
0.0
  0
ENDSEC
  0
SECTION
  2
OBJECTS
  0
DICTIONARY
  5
C
330
0
100
AcDbDictionary
281
     1
  3
ACAD_COLOR
350
1B
  3
ACAD_GROUP
350
D
  3
ACAD_LAYOUT
350
19
  3
ACAD_MATERIAL
350
1A
  3
ACAD_MLINESTYLE
350
16
  3
ACAD_PLOTSETTINGS
350
18
  3
ACAD_PLOTSTYLENAME
350
E
  3
ACAD_TABLESTYLE
350
1C
  3
AcDbVariableDictionary
350
365
  0
DICTIONARY
  5
1B
102
{ACAD_REACTORS
330
C
102
}
330
C
100
AcDbDictionary
281
     1
  0
DICTIONARY
  5
D
102
{ACAD_REACTORS
330
C
102
}
330
C
100
AcDbDictionary
281
     1
  0
DICTIONARY
  5
19
102
{ACAD_REACTORS
330
C
102
}
330
C
100
AcDbDictionary
281
     1
  3
Model
350
25
  3
レイアウト1
350
21
  0
DICTIONARY
  5
1A
102
{ACAD_REACTORS
330
C
102
}
330
C
100
AcDbDictionary
281
     1
  0
DICTIONARY
  5
16
102
{ACAD_REACTORS
330
C
102
}
330
C
100
AcDbDictionary
281
     1
  3
Standard
350
17
  0
DICTIONARY
  5
18
102
{ACAD_REACTORS
330
C
102
}
330
C
100
AcDbDictionary
281
     1
  0
ACDBDICTIONARYWDFLT
  5
E
102
{ACAD_REACTORS
330
C
102
}
330
C
100
AcDbDictionary
281
     1
  3
Normal
350
F
100
AcDbDictionaryWithDefault
340
F
  0
DICTIONARY
  5
1C
102
{ACAD_REACTORS
330
C
102
}
330
C
100
AcDbDictionary
281
     1
  3
Standard
350
1D
  0
DICTIONARY
  5
365
102
{ACAD_REACTORS
330
C
102
}
330
C
100
AcDbDictionary
281
     1
  3
CTABLESTYLE
350
366
  0
LAYOUT
  5
25
102
{ACAD_REACTORS
330
19
102
}
330
19
100
AcDbPlotSettings
  1

  2
PDF reDirect v2
  4
User66
  6

 40
3.174999952316284
 41
3.174999952316284
 42
3.17498779296875
 43
3.17498779296875
 44
420.0
 45
594.0
 46
0.0
 47
0.0
 48
0.0
 49
0.0
140
0.0
141
0.0
142
1.0
143
1.0
 70
 11952
 72
     1
 73
     1
 74
     2
  7
C:\Users\ck\AppData\Roaming\Autodesk\AutoCAD 2005\R16.1\jpn\Plot Styles\black.ctb
 75
    16
147
1.0
 76
     0
 77
     2
 78
   300
148
592.0
149
0.0
100
AcDbLayout
  1
Model
 70
     1
 71
     0
 10
0.0
 20
0.0
 11
12.0
 21
9.0
 12
0.0
 22
0.0
 32
0.0
 14
0.0
 24
0.0
 34
0.0
 15
0.0
 25
0.0
 35
0.0
146
0.0
 13
0.0
 23
0.0
 33
0.0
 16
1.0
 26
0.0
 36
0.0
 17
0.0
 27
1.0
 37
0.0
 76
     0
330
22
1001
ACAD_PSEXT
1000
PDF reDirect v2
1000
PDF reDirect Pro
1000
PDF_REDIRECT_PORT:
1000
PDF reDirect provided by EXP Systems
1070
     0
  0
LAYOUT
  5
21
102
{ACAD_REACTORS
330
19
102
}
330
19
100
AcDbPlotSettings
  1

  2
PDF reDirect v2
  4

  6

 40
0.0
 41
0.0
 42
0.0
 43
0.0
 44
0.0
 45
0.0
 46
0.0
 47
0.0
 48
0.0
 49
0.0
140
0.0
141
0.0
142
1.0
143
1.0
 70
   688
 72
     0
 73
     0
 74
     5
  7
C:\Users\ck\AppData\Roaming\Autodesk\AutoCAD 2005\R16.1\jpn\Plot Styles\black.ctb
 75
    16
147
1.0
 76
     0
 77
     2
 78
   300
148
0.0
149
0.0
100
AcDbLayout
  1
レイアウト1
 70
     1
 71
     1
 10
-592.0
 20
0.0
 11
0.0
 21
418.0
 12
0.0
 22
0.0
 32
0.0
 14
1.000000000000000E+20
 24
1.000000000000000E+20
 34
1.000000000000000E+20
 15
-1.000000000000000E+20
 25
-1.000000000000000E+20
 35
-1.000000000000000E+20
146
0.0
 13
0.0
 23
0.0
 33
0.0
 16
1.0
 26
0.0
 36
0.0
 17
0.0
 27
1.0
 37
0.0
 76
     0
330
1E
  0
MLINESTYLE
  5
17
102
{ACAD_REACTORS
330
16
102
}
330
16
100
AcDbMlineStyle
  2
STANDARD
 70
     0
  3

 62
   256
 51
90.0
 52
90.0
 71
     2
 49
0.5
 62
   256
  6
BYLAYER
 49
-0.5
 62
   256
  6
BYLAYER
  0
ACDBPLACEHOLDER
  5
F
102
{ACAD_REACTORS
330
E
102
}
330
E
  0
TABLESTYLE
  5
1D
102
{ACAD_REACTORS
330
1C
102
}
330
1C
100
AcDbTableStyle
  3
Standard
 70
     0
 71
     0
 40
0.06
 41
0.06
280
     0
281
     0
  7
STANDARD
140
0.18
170
     2
 62
     0
 63
     7
283
     0
274
    -2
284
     1
 64
     0
275
    -2
285
     1
 65
     0
276
    -2
286
     1
 66
     0
277
    -2
287
     1
 67
     0
278
    -2
288
     1
 68
     0
279
    -2
289
     1
 69
     0
  7
STANDARD
140
0.25
170
     5
 62
     0
 63
     7
283
     0
274
    -2
284
     1
 64
     0
275
    -2
285
     1
 65
     0
276
    -2
286
     1
 66
     0
277
    -2
287
     1
 67
     0
278
    -2
288
     1
 68
     0
279
    -2
289
     1
 69
     0
  7
STANDARD
140
0.18
170
     5
 62
     0
 63
     7
283
     0
274
    -2
284
     1
 64
     0
275
    -2
285
     1
 65
     0
276
    -2
286
     1
 66
     0
277
    -2
287
     1
 67
     0
278
    -2
288
     1
 68
     0
279
    -2
289
     1
 69
     0
  0
DICTIONARYVAR
  5
366
102
{ACAD_REACTORS
330
365
102
}
330
365
100
DictionaryVariables
280
     0
  1
STANDARD
  0
ENDSEC
  0
EOF
