  0
SECTION
  2
HEADER
  9
$ACADVER
  1
AC1018
  9
$ACADMAINTVER
 70
    39
  9
$DWGCODEPAGE
  3
ANSI_932
  9
$INSBASE
 10
0.0
 20
0.0
 30
0.0
  9
$EXTMIN
 10
-270.6700733123231
 20
52.50225905108061
 30
-0.0015258207003583
  9
$EXTMAX
 10
-137.1111136825186
 20
267.5539099589851
 30
0.0000000349246037
  9
$LIMMIN
 10
-423.0
 20
-2.0
  9
$LIMMAX
 10
-5.0
 20
293.0
  9
$ORTHOMODE
 70
     0
  9
$REGENMODE
 70
     1
  9
$FILLMODE
 70
     1
  9
$QTEXTMODE
 70
     0
  9
$MIRRTEXT
 70
     0
  9
$LTSCALE
 40
1.0
  9
$ATTMODE
 70
     1
  9
$TEXTSIZE
 40
0.2
  9
$TRACEWID
 40
0.05
  9
$TEXTSTYLE
  7
STANDARD
  9
$CLAYER
  8
0
  9
$CELTYPE
  6
CONTINUOUS
  9
$CECOLOR
 62
   256
  9
$CELTSCALE
 40
1.0
  9
$DISPSILH
 70
     0
  9
$DIMSCALE
 40
1.0
  9
$DIMASZ
 40
1.0
  9
$DIMEXO
 40
2.54
  9
$DIMDLI
 40
0.38
  9
$DIMRND
 40
0.0
  9
$DIMDLE
 40
0.0
  9
$DIMEXE
 40
2.54
  9
$DIMTP
 40
0.0
  9
$DIMTM
 40
0.0
  9
$DIMTXT
 40
3.0
  9
$DIMCEN
 40
0.09
  9
$DIMTSZ
 40
0.0
  9
$DIMTOL
 70
     0
  9
$DIMLIM
 70
     0
  9
$DIMTIH
 70
     0
  9
$DIMTOH
 70
     0
  9
$DIMSE1
 70
     0
  9
$DIMSE2
 70
     0
  9
$DIMTAD
 70
     1
  9
$DIMZIN
 70
     0
  9
$DIMBLK
  1

  9
$DIMASO
 70
     1
  9
$DIMSHO
 70
     0
  9
$DIMPOST
  1

  9
$DIMAPOST
  1

  9
$DIMALT
 70
     0
  9
$DIMALTD
 70
     2
  9
$DIMALTF
 40
25.4
  9
$DIMLFAC
 40
1.0
  9
$DIMTOFL
 70
     0
  9
$DIMTVP
 40
1.0
  9
$DIMTIX
 70
     0
  9
$DIMSOXD
 70
     0
  9
$DIMSAH
 70
     1
  9
$DIMBLK1
  1

  9
$DIMBLK2
  1

  9
$DIMSTYLE
  2
DIMSTYLE1
  9
$DIMCLRD
 70
     0
  9
$DIMCLRE
 70
     0
  9
$DIMCLRT
 70
     0
  9
$DIMTFAC
 40
1.0
  9
$DIMGAP
 40
1.5
  9
$DIMJUST
 70
     0
  9
$DIMSD1
 70
     0
  9
$DIMSD2
 70
     0
  9
$DIMTOLJ
 70
     1
  9
$DIMTZIN
 70
     0
  9
$DIMALTZ
 70
     0
  9
$DIMALTTZ
 70
     0
  9
$DIMUPT
 70
     0
  9
$DIMDEC
 70
     4
  9
$DIMTDEC
 70
     4
  9
$DIMALTU
 70
     2
  9
$DIMALTTD
 70
     2
  9
$DIMTXSTY
  7
STANDARD
  9
$DIMAUNIT
 70
     0
  9
$DIMADEC
 70
     0
  9
$DIMALTRND
 40
0.0
  9
$DIMAZIN
 70
     0
  9
$DIMDSEP
 70
    46
  9
$DIMATFIT
 70
     3
  9
$DIMFRAC
 70
     0
  9
$DIMLDRBLK
  1

  9
$DIMLUNIT
 70
     2
  9
$DIMLWD
 70
    -2
  9
$DIMLWE
 70
    -2
  9
$DIMTMOVE
 70
     0
  9
$LUNITS
 70
     2
  9
$LUPREC
 70
     4
  9
$SKETCHINC
 40
0.1
  9
$FILLETRAD
 40
0.0
  9
$AUNITS
 70
     0
  9
$AUPREC
 70
     0
  9
$MENU
  1
.
  9
$ELEVATION
 40
0.0
  9
$PELEVATION
 40
0.0
  9
$THICKNESS
 40
0.0
  9
$LIMCHECK
 70
     0
  9
$CHAMFERA
 40
0.0
  9
$CHAMFERB
 40
0.0
  9
$CHAMFERC
 40
0.0
  9
$CHAMFERD
 40
0.0
  9
$SKPOLY
 70
     0
  9
$TDCREATE
 40
2457842.796458808
  9
$TDUCREATE
 40
2457842.421458808
  9
$TDUPDATE
 40
2457842.797023727
  9
$TDUUPDATE
 40
2457842.422023727
  9
$TDINDWG
 40
0.0005664236
  9
$TDUSRTIMER
 40
0.0005664236
  9
$USRTIMER
 70
     1
  9
$ANGBASE
 50
0.0
  9
$ANGDIR
 70
     0
  9
$PDMODE
 70
     0
  9
$PDSIZE
 40
0.0
  9
$PLINEWID
 40
0.0
  9
$SPLFRAME
 70
     0
  9
$SPLINETYPE
 70
     6
  9
$SPLINESEGS
 70
     8
  9
$HANDSEED
  5
1F4
  9
$SURFTAB1
 70
     6
  9
$SURFTAB2
 70
     6
  9
$SURFTYPE
 70
     6
  9
$SURFU
 70
     6
  9
$SURFV
 70
     6
  9
$UCSBASE
  2

  9
$UCSNAME
  2

  9
$UCSORG
 10
0.0
 20
0.0
 30
0.0
  9
$UCSXDIR
 10
1.0
 20
0.0
 30
0.0
  9
$UCSYDIR
 10
0.0
 20
1.0
 30
0.0
  9
$UCSORTHOREF
  2

  9
$UCSORTHOVIEW
 70
     0
  9
$UCSORGTOP
 10
0.0
 20
0.0
 30
0.0
  9
$UCSORGBOTTOM
 10
0.0
 20
0.0
 30
0.0
  9
$UCSORGLEFT
 10
0.0
 20
0.0
 30
0.0
  9
$UCSORGRIGHT
 10
0.0
 20
0.0
 30
0.0
  9
$UCSORGFRONT
 10
0.0
 20
0.0
 30
0.0
  9
$UCSORGBACK
 10
0.0
 20
0.0
 30
0.0
  9
$PUCSBASE
  2

  9
$PUCSNAME
  2

  9
$PUCSORG
 10
0.0
 20
0.0
 30
0.0
  9
$PUCSXDIR
 10
1.0
 20
0.0
 30
0.0
  9
$PUCSYDIR
 10
0.0
 20
1.0
 30
0.0
  9
$PUCSORTHOREF
  2

  9
$PUCSORTHOVIEW
 70
     0
  9
$PUCSORGTOP
 10
0.0
 20
0.0
 30
0.0
  9
$PUCSORGBOTTOM
 10
0.0
 20
0.0
 30
0.0
  9
$PUCSORGLEFT
 10
0.0
 20
0.0
 30
0.0
  9
$PUCSORGRIGHT
 10
0.0
 20
0.0
 30
0.0
  9
$PUCSORGFRONT
 10
0.0
 20
0.0
 30
0.0
  9
$PUCSORGBACK
 10
0.0
 20
0.0
 30
0.0
  9
$USERI1
 70
     0
  9
$USERI2
 70
     0
  9
$USERI3
 70
     0
  9
$USERI4
 70
     0
  9
$USERI5
 70
     0
  9
$USERR1
 40
0.0
  9
$USERR2
 40
0.0
  9
$USERR3
 40
0.0
  9
$USERR4
 40
0.0
  9
$USERR5
 40
0.0
  9
$WORLDVIEW
 70
     1
  9
$SHADEDGE
 70
     3
  9
$SHADEDIF
 70
    70
  9
$TILEMODE
 70
     1
  9
$MAXACTVP
 70
    64
  9
$PINSBASE
 10
0.0
 20
0.0
 30
0.0
  9
$PLIMCHECK
 70
     0
  9
$PEXTMIN
 10
1.000000000000000E+20
 20
1.000000000000000E+20
 30
1.000000000000000E+20
  9
$PEXTMAX
 10
-1.000000000000000E+20
 20
-1.000000000000000E+20
 30
-1.000000000000000E+20
  9
$PLIMMIN
 10
-423.0
 20
-2.0
  9
$PLIMMAX
 10
-5.0
 20
293.0
  9
$UNITMODE
 70
     0
  9
$VISRETAIN
 70
     1
  9
$PLINEGEN
 70
     0
  9
$PSLTSCALE
 70
     1
  9
$TREEDEPTH
 70
  3020
  9
$CMLSTYLE
  2
Standard
  9
$CMLJUST
 70
     0
  9
$CMLSCALE
 40
1.0
  9
$PROXYGRAPHICS
 70
     1
  9
$MEASUREMENT
 70
     0
  9
$CELWEIGHT
370
    -1
  9
$ENDCAPS
280
     0
  9
$JOINSTYLE
280
     0
  9
$LWDISPLAY
290
     0
  9
$INSUNITS
 70
     0
  9
$HYPERLINKBASE
  1

  9
$STYLESHEET
  1

  9
$XEDIT
290
     1
  9
$CEPSNTYPE
380
     0
  9
$PSTYLEMODE
290
     1
  9
$FINGERPRINTGUID
  2
{7320C08A-B6B2-43F2-8BCC-CC7606452B38}
  9
$VERSIONGUID
  2
{43125A6A-FBB5-4358-B473-1D9ABE773A07}
  9
$EXTNAMES
290
     1
  9
$PSVPSCALE
 40
0.0
  9
$OLESTARTUP
290
     0
  9
$SORTENTS
280
   127
  9
$INDEXCTL
280
     0
  9
$HIDETEXT
280
     0
  9
$XCLIPFRAME
290
     0
  9
$HALOGAP
280
     0
  9
$OBSCOLOR
 70
   257
  9
$OBSLTYPE
280
     0
  9
$INTERSECTIONDISPLAY
280
     0
  9
$INTERSECTIONCOLOR
 70
   257
  9
$DIMASSOC
280
     1
  9
$PROJECTNAME
  1

  0
ENDSEC
  0
SECTION
  2
CLASSES
  0
CLASS
  1
ACDBDICTIONARYWDFLT
  2
AcDbDictionaryWithDefault
  3
ObjectDBX Classes
 90
        0
 91
        1
280
     0
281
     0
  0
CLASS
  1
TABLESTYLE
  2
AcDbTableStyle
  3
ObjectDBX Classes
 90
     2047
 91
        1
280
     0
281
     0
  0
CLASS
  1
DICTIONARYVAR
  2
AcDbDictionaryVar
  3
ObjectDBX Classes
 90
        0
 91
        1
280
     0
281
     0
  0
ENDSEC
  0
SECTION
  2
TABLES
  0
TABLE
  2
VPORT
  5
8
330
0
100
AcDbSymbolTable
 70
     2
  0
VPORT
  5
1F3
330
8
100
AcDbSymbolTableRecord
100
AcDbViewportTableRecord
  2
*Active
 70
     0
 10
0.0
 20
0.0
 11
1.0
 21
1.0
 12
-214.0
 22
145.5
 13
0.0
 23
0.0
 14
1.0
 24
1.0
 15
0.0
 25
0.0
 16
0.0
 26
0.0
 36
1.0
 17
0.0
 27
0.0
 37
0.0
 40
297.3320158102766
 41
1.707124010554089
 42
50.0
 43
0.0
 44
0.0
 50
0.0
 51
0.0
 71
     0
 72
   100
 73
     1
 74
     1
 75
     0
 76
     0
 77
     0
 78
     0
281
     0
 65
     1
110
0.0
120
0.0
130
0.0
111
1.0
121
0.0
131
0.0
112
0.0
122
1.0
132
0.0
 79
     0
146
0.0
  0
ENDTAB
  0
TABLE
  2
LTYPE
  5
5
330
0
100
AcDbSymbolTable
 70
     6
  0
LTYPE
  5
13
330
5
100
AcDbSymbolTableRecord
100
AcDbLinetypeTableRecord
  2
ByBlock
 70
     0
  3

 72
    65
 73
     0
 40
0.0
  0
LTYPE
  5
14
330
5
100
AcDbSymbolTableRecord
100
AcDbLinetypeTableRecord
  2
ByLayer
 70
     0
  3

 72
    65
 73
     0
 40
0.0
  0
LTYPE
  5
15
330
5
100
AcDbSymbolTableRecord
100
AcDbLinetypeTableRecord
  2
CONTINUOUS
 70
     0
  3
Solid line
 72
    65
 73
     0
 40
0.0
  0
LTYPE
  5
26
330
5
100
AcDbSymbolTableRecord
100
AcDbLinetypeTableRecord
  2
DASHED
 70
     0
  3
__ __ __ __ __ __ __ __ __ __ __ __ __ __ __
 72
    65
 73
     2
 40
3.5
 49
2.0
 74
     0
 49
-1.5
 74
     0
  0
LTYPE
  5
27
330
5
100
AcDbSymbolTableRecord
100
AcDbLinetypeTableRecord
  2
CENTER
 70
     0
  3
____ _ ____ _ ____ _ ____ _ ____ _ ____ _ ____
 72
    65
 73
     4
 40
17.5
 49
13.0
 74
     0
 49
-1.5
 74
     0
 49
1.5
 74
     0
 49
-1.5
 74
     0
  0
LTYPE
  5
28
330
5
100
AcDbSymbolTableRecord
100
AcDbLinetypeTableRecord
  2
PHANTOM
 70
     0
  3
_____ _ _ _____ _ _ _____ _ _ _____ _ _ ____  
 72
    65
 73
     6
 40
15.5
 49
8.0
 74
     0
 49
-1.5
 74
     0
 49
1.5
 74
     0
 49
-1.5
 74
     0
 49
1.5
 74
     0
 49
-1.5
 74
     0
  0
LTYPE
  5
29
330
5
100
AcDbSymbolTableRecord
100
AcDbLinetypeTableRecord
  2
DOT
 70
     0
  3
. . . . . . . . . . . . . . . . . . . . . . . .
 72
    65
 73
     2
 40
0.25
 49
0.0
 74
     0
 49
-0.25
 74
     0
  0
LTYPE
  5
2A
330
5
100
AcDbSymbolTableRecord
100
AcDbLinetypeTableRecord
  2
HIDDEN
 70
     0
  3
__ __ __ __ __ __ __ __ __ __ __ __ __ __ __
 72
    65
 73
     2
 40
3.5
 49
2.0
 74
     0
 49
-1.5
 74
     0
  0
ENDTAB
  0
TABLE
  2
LAYER
  5
2
330
0
100
AcDbSymbolTable
 70
     3
  0
LAYER
  5
10
330
2
100
AcDbSymbolTableRecord
100
AcDbLayerTableRecord
  2
0
 70
     0
 62
     7
  6
CONTINUOUS
370
    -3
390
F
  0
LAYER
  5
2B
330
2
100
AcDbSymbolTableRecord
100
AcDbLayerTableRecord
  2
1
 70
     0
 62
     7
  6
CONTINUOUS
370
    -3
390
F
  0
LAYER
  5
2C
330
2
100
AcDbSymbolTableRecord
100
AcDbLayerTableRecord
  2
DEFPOINTS
 70
     0
 62
     7
  6
CONTINUOUS
290
     0
370
    -3
390
F
  0
ENDTAB
  0
TABLE
  2
STYLE
  5
3
330
0
100
AcDbSymbolTable
 70
     2
  0
STYLE
  5
11
330
3
100
AcDbSymbolTableRecord
100
AcDbTextStyleTableRecord
  2
STANDARD
 70
     0
 40
0.0
 41
1.0
 50
0.0
 71
     0
 42
0.2
  3

  4

1001
ACAD
1000
MS Gothic
1071
    32817
  0
ENDTAB
  0
TABLE
  2
VIEW
  5
6
330
0
100
AcDbSymbolTable
 70
     0
  0
ENDTAB
  0
TABLE
  2
UCS
  5
7
330
0
100
AcDbSymbolTable
 70
     0
  0
ENDTAB
  0
TABLE
  2
APPID
  5
9
330
0
100
AcDbSymbolTable
 70
     2
  0
APPID
  5
12
330
9
100
AcDbSymbolTableRecord
100
AcDbRegAppTableRecord
  2
ACAD
 70
     0
  0
APPID
  5
1E8
330
9
100
AcDbSymbolTableRecord
100
AcDbRegAppTableRecord
  2
ACAD_PSEXT
 70
     0
  0
ENDTAB
  0
TABLE
  2
DIMSTYLE
  5
A
330
0
100
AcDbSymbolTable
 70
     5
100
AcDbDimStyleTable
 71
     1
340
2D
  0
DIMSTYLE
105
2D
102
{ACAD_REACTORS
330
1E1
102
}
330
A
100
AcDbSymbolTableRecord
100
AcDbDimStyleTableRecord
  2
DIMSTYLE1
 70
     0
 41
1.0
 42
2.54
 44
2.54
 73
     0
 74
     0
 77
     1
140
3.0
145
1.0
147
1.5
172
     1
173
     1
279
     2
340
11
  0
DIMSTYLE
105
2E
102
{ACAD_REACTORS
330
1E2
102
}
330
A
100
AcDbSymbolTableRecord
100
AcDbDimStyleTableRecord
  2
DIMSTYLE2
 70
     0
 41
1.0
 42
2.54
 44
2.54
 73
     0
 74
     0
 75
     1
 76
     1
 77
     1
140
3.0
145
1.0
147
1.5
172
     1
173
     1
279
     2
340
11
  0
DIMSTYLE
105
2F
102
{ACAD_REACTORS
330
1E3
102
}
330
A
100
AcDbSymbolTableRecord
100
AcDbDimStyleTableRecord
  2
DIMSTYLE3
 70
     0
 41
1.0
 42
2.54
 44
2.54
 73
     0
 74
     0
 75
     1
 76
     1
 77
     1
140
3.0
145
1.0
147
1.5
172
     1
173
     1
279
     2
340
11
  0
DIMSTYLE
105
30
102
{ACAD_REACTORS
330
1E4
102
}
330
A
100
AcDbSymbolTableRecord
100
AcDbDimStyleTableRecord
  2
DIMSTYLE4
 70
     0
 41
1.0
 42
2.54
 44
2.54
 73
     0
 74
     0
 75
     1
 76
     1
 77
     1
140
3.0
145
1.0
147
1.5
172
     1
173
     1
279
     2
340
11
  0
ENDTAB
  0
TABLE
  2
BLOCK_RECORD
  5
1
330
0
100
AcDbSymbolTable
 70
     7
  0
BLOCK_RECORD
  5
22
330
1
100
AcDbSymbolTableRecord
100
AcDbBlockTableRecord
  2
*Model_Space
340
25
  0
BLOCK_RECORD
  5
1E
330
1
100
AcDbSymbolTableRecord
100
AcDbBlockTableRecord
  2
*Paper_Space
340
21
  0
BLOCK_RECORD
  5
34
330
1
100
AcDbSymbolTableRecord
100
AcDbBlockTableRecord
  2
_OPEN30
340
0
102
{BLKREFS
331
3D
331
3E
331
4A
331
4B
331
54
331
55
331
5E
331
5F
102
}
  0
BLOCK_RECORD
  5
3A
330
1
100
AcDbSymbolTableRecord
100
AcDbBlockTableRecord
  2
*D1
340
0
  0
BLOCK_RECORD
  5
46
330
1
100
AcDbSymbolTableRecord
100
AcDbBlockTableRecord
  2
*D2
340
0
  0
BLOCK_RECORD
  5
50
330
1
100
AcDbSymbolTableRecord
100
AcDbBlockTableRecord
  2
*D3
340
0
  0
BLOCK_RECORD
  5
5A
330
1
100
AcDbSymbolTableRecord
100
AcDbBlockTableRecord
  2
*D4
340
0
  0
BLOCK_RECORD
  5
64
330
1
100
AcDbSymbolTableRecord
100
AcDbBlockTableRecord
  2
KOZU0001
340
0
102
{BLKREFS
331
1E5
102
}
  0
ENDTAB
  0
ENDSEC
  0
SECTION
  2
BLOCKS
  0
BLOCK
  5
23
330
22
100
AcDbEntity
  8
0
100
AcDbBlockBegin
  2
*Model_Space
 70
     0
 10
0.0
 20
0.0
 30
0.0
  3
*Model_Space
  1

  0
ENDBLK
  5
24
330
22
100
AcDbEntity
  8
0
100
AcDbBlockEnd
  0
BLOCK
  5
1F
330
1E
100
AcDbEntity
 67
     1
  8
0
100
AcDbBlockBegin
  2
*Paper_Space
 70
     0
 10
0.0
 20
0.0
 30
0.0
  3
*Paper_Space
  1

  0
ENDBLK
  5
20
330
1E
100
AcDbEntity
 67
     1
  8
0
100
AcDbBlockEnd
  0
BLOCK
  5
35
330
34
100
AcDbEntity
  8
0
100
AcDbBlockBegin
  2
_OPEN30
 70
     0
 10
0.0
 20
0.0
 30
0.0
  3
_OPEN30
  1

  0
LINE
  5
36
330
34
100
AcDbEntity
  8
0
  6
ByBlock
 62
     0
100
AcDbLine
 10
0.0
 20
0.0
 30
0.0
 11
-2.999999999999993
 21
-1.000000000000017
 31
0.0
  0
LINE
  5
37
330
34
100
AcDbEntity
  8
0
  6
ByBlock
 62
     0
100
AcDbLine
 10
0.0
 20
0.0
 30
0.0
 11
-3.000000000000006
 21
0.9999999999999815
 31
0.0
  0
LINE
  5
38
330
34
100
AcDbEntity
  8
0
  6
ByBlock
 62
     0
100
AcDbLine
 10
0.0
 20
0.0
 30
0.0
 11
-3.0
 21
0.0
 31
0.0
  0
ENDBLK
  5
39
330
34
100
AcDbEntity
  8
0
100
AcDbBlockEnd
  0
BLOCK
  5
3B
330
3A
100
AcDbEntity
  8
0
100
AcDbBlockBegin
  2
*D1
 70
     1
 10
0.0
 20
0.0
 30
0.0
  3
*D1
  1

  0
LINE
  5
3C
330
3A
100
AcDbEntity
  8
0
  6
Continuous
 62
     7
100
AcDbLine
 10
-155.1834564208984
 20
97.63588714599608
 30
0.0
 11
-155.1834564208984
 21
140.6358947753906
 31
0.0
  0
INSERT
  5
3D
330
3A
100
AcDbEntity
  8
0
  6
Continuous
 62
     7
100
AcDbBlockReference
  2
_OPEN30
 10
-155.1834564208984
 20
94.63588714599607
 30
0.0
 50
270.0000000000005
  0
INSERT
  5
3E
330
3A
100
AcDbEntity
  8
0
  6
Continuous
 62
     7
100
AcDbBlockReference
  2
_OPEN30
 10
-155.1834564208984
 20
143.6358947753906
 30
0.0
 50
90.00000000000019
  0
LINE
  5
3F
330
3A
100
AcDbEntity
  8
0
  6
Continuous
 62
     7
100
AcDbLine
 10
-185.7459497070313
 20
94.63588714599607
 30
0.0
 11
-152.8974456787109
 21
94.63588714599607
 31
0.0
  0
LINE
  5
40
330
3A
100
AcDbEntity
  8
0
  6
Continuous
 62
     7
100
AcDbLine
 10
-177.7459497070313
 20
143.6358947753906
 30
0.0
 11
-152.8974456787109
 21
143.6358947753906
 31
0.0
  0
TEXT
  5
41
330
3A
100
AcDbEntity
  8
0
  6
Continuous
 62
     7
100
AcDbText
 10
-155.9334563085602
 20
116.5658870011558
 30
0.0
 40
3.0
  1
49
 50
90.00000250447815
 41
1.028000020980834
100
AcDbText
  0
POINT
  5
42
330
3A
100
AcDbEntity
  8
DEFPOINTS
  6
Continuous
 62
     7
100
AcDbPoint
 10
-188.2859497070313
 20
94.63588714599607
 30
0.0
  0
POINT
  5
43
330
3A
100
AcDbEntity
  8
DEFPOINTS
  6
Continuous
 62
     7
100
AcDbPoint
 10
-180.2859497070313
 20
143.6358947753906
 30
0.0
  0
POINT
  5
44
330
3A
100
AcDbEntity
  8
DEFPOINTS
  6
Continuous
 62
     7
100
AcDbPoint
 10
-155.1834564208984
 20
143.6358947753906
 30
0.0
  0
ENDBLK
  5
45
330
3A
100
AcDbEntity
  8
0
100
AcDbBlockEnd
  0
BLOCK
  5
47
330
46
100
AcDbEntity
  8
0
100
AcDbBlockBegin
  2
*D2
 70
     1
 10
0.0
 20
0.0
 30
0.0
  3
*D2
  1

  0
LINE
  5
48
330
46
100
AcDbEntity
  8
0
  6
Continuous
 62
     7
100
AcDbLine
 10
-182.8506164550781
 20
235.6487884521484
 30
0.0
 11
-149.7330780029297
 21
249.6134033203125
 31
0.0
  0
LINE
  5
49
330
46
100
AcDbEntity
  8
0
  6
Continuous
 62
     7
100
AcDbLine
 10
-258.4080662701841
 20
203.7886024297274
 30
0.0
 11
-185.6149134661441
 21
234.4831718622648
 31
0.0
  0
INSERT
  5
4A
330
46
100
AcDbEntity
  8
0
  6
Continuous
 62
     7
100
AcDbBlockReference
  2
_OPEN30
 10
-261.17236328125
 20
202.6229858398438
 30
0.0
 50
202.8636137165036
  0
INSERT
  5
4B
330
46
100
AcDbEntity
  8
0
  6
Continuous
 62
     7
100
AcDbBlockReference
  2
_OPEN30
 10
-182.8506164550781
 20
235.6487884521484
 30
0.0
 50
22.86361371650289
  0
TEXT
  5
4C
330
46
100
AcDbEntity
  8
0
  6
Continuous
 62
     7
100
AcDbText
 10
-174.1079360103257
 20
240.1402407580967
 30
0.0
 40
3.0
  1
%%C８５（本体外径）
 50
22.90000040957758
 41
0.8448610247221777
100
AcDbText
  0
POINT
  5
4D
330
46
100
AcDbEntity
  8
DEFPOINTS
  6
Continuous
 62
     7
100
AcDbPoint
 10
-261.17236328125
 20
202.6229858398438
 30
0.0
  0
POINT
  5
4E
330
46
100
AcDbEntity
  8
DEFPOINTS
  6
Continuous
 62
     7
100
AcDbPoint
 10
-182.8506164550781
 20
235.6487884521484
 30
0.0
  0
ENDBLK
  5
4F
330
46
100
AcDbEntity
  8
0
100
AcDbBlockEnd
  0
BLOCK
  5
51
330
50
100
AcDbEntity
  8
0
100
AcDbBlockBegin
  2
*D3
 70
     1
 10
0.0
 20
0.0
 30
0.0
  3
*D3
  1

  0
LINE
  5
52
330
50
100
AcDbEntity
  8
0
  6
Continuous
 62
     7
100
AcDbLine
 10
-189.7933197021484
 20
223.4066467285156
 30
0.0
 11
-139.496826171875
 21
230.0738372802734
 31
0.0
  0
LINE
  5
53
330
50
100
AcDbEntity
  8
0
  6
Continuous
 62
     7
100
AcDbLine
 10
-251.2556901682019
 20
215.2593514562902
 30
0.0
 11
-192.7673048269153
 21
223.012422835702
 31
0.0
  0
INSERT
  5
54
330
50
100
AcDbEntity
  8
0
  6
Continuous
 62
     7
100
AcDbBlockReference
  2
_OPEN30
 10
-254.2296752929688
 20
214.8651275634766
 30
0.0
 50
187.5509607581639
  0
INSERT
  5
55
330
50
100
AcDbEntity
  8
0
  6
Continuous
 62
     7
100
AcDbBlockReference
  2
_OPEN30
 10
-189.7933197021484
 20
223.4066467285156
 30
0.0
 50
7.550960758163223
  0
TEXT
  5
56
330
50
100
AcDbEntity
  8
0
  6
Continuous
 62
     7
100
AcDbText
 10
-171.4554863804057
 20
226.5801637615065
 30
0.0
 40
3.0
  1
%%C６５（排水共栓外径）
 50
7.600000154571024
 41
0.8440126077968535
100
AcDbText
  0
POINT
  5
57
330
50
100
AcDbEntity
  8
DEFPOINTS
  6
Continuous
 62
     7
100
AcDbPoint
 10
-254.2296752929688
 20
214.8651275634766
 30
0.0
  0
POINT
  5
58
330
50
100
AcDbEntity
  8
DEFPOINTS
  6
Continuous
 62
     7
100
AcDbPoint
 10
-189.7933197021484
 20
223.4066467285156
 30
0.0
  0
ENDBLK
  5
59
330
50
100
AcDbEntity
  8
0
100
AcDbBlockEnd
  0
BLOCK
  5
5B
330
5A
100
AcDbEntity
  8
0
100
AcDbBlockBegin
  2
*D4
 70
     1
 10
0.0
 20
0.0
 30
0.0
  3
*D4
  1

  0
LINE
  5
5C
330
5A
100
AcDbEntity
  8
0
  6
Continuous
 62
     7
100
AcDbLine
 10
-203.2209014892578
 20
212.2865295410156
 30
0.0
 11
-150.3965911865234
 21
193.0315551757813
 31
0.0
  0
LINE
  5
5D
330
5A
100
AcDbEntity
  8
0
  6
Continuous
 62
     7
100
AcDbLine
 10
-237.9835048020319
 20
224.9578413644452
 30
0.0
 11
-206.0394901930853
 21
213.3139329275471
 31
0.0
  0
INSERT
  5
5E
330
5A
100
AcDbEntity
  8
0
  6
Continuous
 62
     7
100
AcDbBlockReference
  2
_OPEN30
 10
-240.8020935058594
 20
225.9852447509766
 30
0.0
 50
159.9727029825974
  0
INSERT
  5
5F
330
5A
100
AcDbEntity
  8
0
  6
Continuous
 62
     7
100
AcDbBlockReference
  2
_OPEN30
 10
-203.2209014892578
 20
212.2865295410156
 30
0.0
 50
339.9727029825981
  0
TEXT
  5
60
330
5A
100
AcDbEntity
  8
0
  6
Continuous
 62
     7
100
AcDbText
 10
-174.7015222685573
 20
202.6825869335142
 30
0.0
 40
3.0
  1
%%C４０（子栓外径）
 50
340.0000005818142
 41
0.8448610247221777
100
AcDbText
  0
POINT
  5
61
330
5A
100
AcDbEntity
  8
DEFPOINTS
  6
Continuous
 62
     7
100
AcDbPoint
 10
-240.8020935058594
 20
225.9852447509766
 30
0.0
  0
POINT
  5
62
330
5A
100
AcDbEntity
  8
DEFPOINTS
  6
Continuous
 62
     7
100
AcDbPoint
 10
-203.2209014892578
 20
212.2865295410156
 30
0.0
  0
ENDBLK
  5
63
330
5A
100
AcDbEntity
  8
0
100
AcDbBlockEnd
  0
BLOCK
  5
65
330
64
100
AcDbEntity
  8
0
100
AcDbBlockBegin
  2
KOZU0001
 70
     0
 10
0.0
 20
0.0
 30
0.0
  3
KOZU0001
  1

  0
LINE
  5
66
330
64
100
AcDbEntity
  8
0
  6
Continuous
 62
     7
100
AcDbLine
 10
0.0
 20
0.0
 30
0.0
 11
-8.063461303710937
 21
-23.17103576660156
 31
0.0
  0
LINE
  5
67
330
64
100
AcDbEntity
  8
0
  6
Continuous
 62
     7
100
AcDbLine
 10
-8.063461303710937
 20
-23.17103576660156
 30
0.0
 11
-32.33888244628906
 21
-23.17103576660156
 31
0.0
  0
LINE
  5
68
330
64
100
AcDbEntity
  8
0
  6
Continuous
 62
     7
100
AcDbLine
 10
0.0
 20
0.0
 30
0.0
 11
-0.0415484170409366
 21
-3.162004700983443
 31
0.0
  0
LINE
  5
69
330
64
100
AcDbEntity
  8
0
  6
Continuous
 62
     7
100
AcDbLine
 10
0.0
 20
0.0
 30
0.0
 11
-1.930441554222815
 21
-2.504674710562193
 31
0.0
  0
TEXT
  5
6A
330
64
100
AcDbEntity
  8
0
  6
Continuous
 62
     7
100
AcDbText
 10
-30.61888194084168
 20
-22.42103576660156
 30
0.0
 40
3.0
  1
配管接続口
 41
0.8487395020950888
100
AcDbText
  0
TEXT
  5
6B
330
64
100
AcDbEntity
  8
0
  6
Continuous
 62
     7
100
AcDbText
 10
-30.61888194084168
 20
-27.68603576660156
 30
0.0
 40
3.0
  1
Ｇ２（５０Ａ）
 41
0.8462184918026965
100
AcDbText
  0
ENDBLK
  5
6C
330
64
100
AcDbEntity
  8
0
100
AcDbBlockEnd
  0
ENDSEC
  0
SECTION
  2
ENTITIES
  0
POINT
  5
6D
330
22
100
AcDbEntity
  8
0
  6
Continuous
 62
     7
100
AcDbPoint
 10
-221.7859497070314
 20
219.1358947753906
 30
0.0
  0
POINT
  5
6E
330
22
100
AcDbEntity
  8
0
  6
Continuous
 62
     7
100
AcDbPoint
 10
-193.2859497070313
 20
95.83588409423828
 30
0.0
  0
POINT
  5
6F
330
22
100
AcDbEntity
  8
0
  6
Continuous
 62
     7
100
AcDbPoint
 10
-193.2859497070313
 20
105.4358901977539
 30
0.0
  0
POINT
  5
70
330
22
100
AcDbEntity
  8
0
  6
Continuous
 62
     7
100
AcDbPoint
 10
-192.0859527587891
 20
106.6358871459961
 30
0.0
  0
POINT
  5
71
330
22
100
AcDbEntity
  8
0
  6
Continuous
 62
     7
100
AcDbPoint
 10
-221.7859497070314
 20
219.1358947753906
 30
0.0
  0
POINT
  5
72
330
22
100
AcDbEntity
  8
0
  6
Continuous
 62
     7
100
AcDbPoint
 10
-193.2859497070313
 20
95.83588409423828
 30
0.0
  0
POINT
  5
73
330
22
100
AcDbEntity
  8
0
  6
Continuous
 62
     7
100
AcDbPoint
 10
-193.2859497070313
 20
99.03588867187501
 30
0.0
  0
POINT
  5
74
330
22
100
AcDbEntity
  8
0
  6
Continuous
 62
     7
100
AcDbPoint
 10
-193.2859497070313
 20
102.2358856201172
 30
0.0
  0
POINT
  5
75
330
22
100
AcDbEntity
  8
0
  6
Continuous
 62
     7
100
AcDbPoint
 10
-193.2859497070313
 20
105.4358901977539
 30
0.0
  0
LINE
  5
76
330
22
100
AcDbEntity
  8
0
  6
CENTER
 62
     7
100
AcDbLine
 10
-172.4362945556641
 20
219.1358947753906
 30
0.0
 11
-270.655792236328
 21
219.1358947753906
 31
0.0
  0
LINE
  5
77
330
22
100
AcDbEntity
  8
0
  6
Continuous
 62
     7
100
AcDbLine
 10
-217.0059509277344
 20
126.3259963989258
 30
0.0
 11
-215.0991058349609
 21
124.4191436767578
 31
0.0
  0
LINE
  5
78
330
22
100
AcDbEntity
  8
0
  6
Continuous
 62
     7
100
AcDbLine
 10
-217.0059509277344
 20
127.3866500854492
 30
0.0
 11
-214.5059509277344
 21
124.8866500854492
 31
0.0
  0
LINE
  5
79
330
22
100
AcDbEntity
  8
0
  6
Continuous
 62
     7
100
AcDbLine
 10
-216.9016418457031
 20
127.6358871459961
 30
0.0
 11
-214.5059509277344
 21
125.2402038574219
 31
0.0
  0
LINE
  5
7A
330
22
100
AcDbEntity
  8
0
  6
Continuous
 62
     7
100
AcDbLine
 10
-215.8409729003906
 20
127.6358871459961
 30
0.0
 11
-214.5059509277344
 21
126.3008651733398
 31
0.0
  0
LINE
  5
7B
330
22
100
AcDbEntity
  8
0
  6
Continuous
 62
     7
100
AcDbLine
 10
-215.4874267578125
 20
127.6358871459961
 30
0.0
 11
-214.5059509277344
 21
126.6544189453125
 31
0.0
  0
LINE
  5
7C
330
22
100
AcDbEntity
  8
0
  6
Continuous
 62
     7
100
AcDbLine
 10
-205.7059478759766
 20
124.9254913330078
 30
0.0
 11
-205.4163513183594
 21
124.6358871459961
 31
0.0
  0
LINE
  5
7D
330
22
100
AcDbEntity
  8
0
  6
Continuous
 62
     7
100
AcDbLine
 10
-205.7059478759766
 20
125.9861450195313
 30
0.0
 11
-204.3556976318359
 21
124.6358871459961
 31
0.0
  0
LINE
  5
7E
330
22
100
AcDbEntity
  8
0
  6
Continuous
 62
     7
100
AcDbLine
 10
-205.7059478759766
 20
126.3396987915039
 30
0.0
 11
-204.0021362304688
 21
124.6358871459961
 31
0.0
  0
LINE
  5
7F
330
22
100
AcDbEntity
  8
0
  6
Continuous
 62
     7
100
AcDbLine
 10
-205.7059478759766
 20
127.4003601074219
 30
0.0
 11
-202.9414825439453
 21
124.6358871459961
 31
0.0
  0
LINE
  5
80
330
22
100
AcDbEntity
  8
0
  6
Continuous
 62
     7
100
AcDbLine
 10
-205.5879211425781
 20
127.6358871459961
 30
0.0
 11
-202.5980529785156
 21
124.6460037231445
 31
0.0
  0
LINE
  5
81
330
22
100
AcDbEntity
  8
0
  6
Continuous
 62
     7
100
AcDbLine
 10
-195.0429992675781
 20
117.0909576416016
 30
0.0
 11
-194.5879211425781
 21
116.6358871459961
 31
0.0
  0
LINE
  5
82
330
22
100
AcDbEntity
  8
0
  6
Continuous
 62
     7
100
AcDbLine
 10
-204.5272674560547
 20
127.6358871459961
 30
0.0
 11
-201.7855987548828
 21
124.8942260742188
 31
0.0
  0
LINE
  5
83
330
22
100
AcDbEntity
  8
0
  6
Continuous
 62
     7
100
AcDbLine
 10
-195.1369781494141
 20
118.2455978393555
 30
0.0
 11
-193.5272674560547
 21
116.6358871459961
 31
0.0
  0
LINE
  5
84
330
22
100
AcDbEntity
  8
0
  6
Continuous
 62
     7
100
AcDbLine
 10
-204.1737213134766
 20
127.6358871459961
 30
0.0
 11
-201.5652618408203
 21
125.0274353027344
 31
0.0
  0
LINE
  5
85
330
22
100
AcDbEntity
  8
0
  6
Continuous
 62
     7
100
AcDbLine
 10
-195.1683044433594
 20
118.6304779052734
 30
0.0
 11
-193.1737213134766
 21
116.6358871459961
 31
0.0
  0
LINE
  5
86
330
22
100
AcDbEntity
  8
0
  6
Continuous
 62
     7
100
AcDbLine
 10
-203.787353515625
 20
128.3101959228516
 30
0.0
 11
-201.0574645996094
 21
125.5802993774414
 31
0.0
  0
LINE
  5
87
330
22
100
AcDbEntity
  8
0
  6
Continuous
 62
     7
100
AcDbLine
 10
-195.2622833251953
 20
119.7851257324219
 30
0.0
 11
-192.1685333251953
 21
116.6913681030273
 31
0.0
  0
LINE
  5
88
330
22
100
AcDbEntity
  8
0
  6
Continuous
 62
     7
100
AcDbLine
 10
-203.787353515625
 20
128.6637420654297
 30
0.0
 11
-200.9385223388672
 21
125.8149108886719
 31
0.0
  0
LINE
  5
89
330
22
100
AcDbEntity
  8
0
  6
Continuous
 62
     7
100
AcDbLine
 10
-195.2936096191406
 20
120.1700057983398
 30
0.0
 11
-191.9817504882813
 21
116.8581390380859
 31
0.0
  0
LINE
  5
8A
330
22
100
AcDbEntity
  8
0
  6
Continuous
 62
     7
100
AcDbLine
 10
-203.787353515625
 20
129.7244110107422
 30
0.0
 11
-200.7411956787109
 21
126.6782455444336
 31
0.0
  0
LINE
  5
8B
330
22
100
AcDbEntity
  8
0
  6
Continuous
 62
     7
100
AcDbLine
 10
-195.3876037597656
 20
121.3246459960938
 30
0.0
 11
-191.8859558105469
 21
117.8230056762695
 31
0.0
  0
LINE
  5
8C
330
22
100
AcDbEntity
  8
0
  6
Continuous
 62
     7
100
AcDbLine
 10
-203.787353515625
 20
130.0779571533203
 30
0.0
 11
-200.7136993408203
 21
127.0043029785156
 31
0.0
  0
LINE
  5
8D
330
22
100
AcDbEntity
  8
0
  6
Continuous
 62
     7
100
AcDbLine
 10
-195.4189300537109
 20
121.7095260620117
 30
0.0
 11
-191.8859558105469
 21
118.1765594482422
 31
0.0
  0
LINE
  5
8E
330
22
100
AcDbEntity
  8
0
  6
Continuous
 62
     7
100
AcDbLine
 10
-203.787353515625
 20
131.1386260986328
 30
0.0
 11
-200.6312255859375
 21
127.9824829101563
 31
0.0
  0
LINE
  5
8F
330
22
100
AcDbEntity
  8
0
  6
Continuous
 62
     7
100
AcDbLine
 10
-195.5129089355469
 20
122.8641662597656
 30
0.0
 11
-191.8859558105469
 21
119.2372131347656
 31
0.0
  0
LINE
  5
90
330
22
100
AcDbEntity
  8
0
  6
Continuous
 62
     7
100
AcDbLine
 10
-203.787353515625
 20
131.4921722412109
 30
0.0
 11
-200.6037292480469
 21
128.3085327148437
 31
0.0
  0
LINE
  5
91
330
22
100
AcDbEntity
  8
0
  6
Continuous
 62
     7
100
AcDbLine
 10
-195.5442352294922
 20
123.2490463256836
 30
0.0
 11
-191.8859558105469
 21
119.5907669067383
 31
0.0
  0
LINE
  5
92
330
22
100
AcDbEntity
  8
0
  6
Continuous
 62
     7
100
AcDbLine
 10
-203.787353515625
 20
132.5528411865234
 30
0.0
 11
-200.521240234375
 21
129.2867126464844
 31
0.0
  0
LINE
  5
93
330
22
100
AcDbEntity
  8
0
  6
Continuous
 62
     7
100
AcDbLine
 10
-195.6382141113281
 20
124.403694152832
 30
0.0
 11
-191.8859558105469
 21
120.6514282226563
 31
0.0
  0
LINE
  5
94
330
22
100
AcDbEntity
  8
0
  6
Continuous
 62
     7
100
AcDbLine
 10
-203.787353515625
 20
132.9063873291016
 30
0.0
 11
-200.4937438964844
 21
129.6127624511719
 31
0.0
  0
LINE
  5
95
330
22
100
AcDbEntity
  8
0
  6
Continuous
 62
     7
100
AcDbLine
 10
-195.6695404052734
 20
124.78857421875
 30
0.0
 11
-191.8859558105469
 21
121.0049819946289
 31
0.0
  0
LINE
  5
96
330
22
100
AcDbEntity
  8
0
  6
Continuous
 62
     7
100
AcDbLine
 10
-203.7873229980469
 20
133.9670104980469
 30
0.0
 11
-200.4112548828125
 21
130.5909423828125
 31
0.0
  0
LINE
  5
97
330
22
100
AcDbEntity
  8
0
  6
Continuous
 62
     7
100
AcDbLine
 10
-195.7635345458984
 20
125.9432144165039
 30
0.0
 11
-191.8859558105469
 21
122.0656433105469
 31
0.0
  0
LINE
  5
98
330
22
100
AcDbEntity
  8
0
  6
Continuous
 62
     7
100
AcDbLine
 10
-203.7210083007813
 20
134.2542572021484
 30
0.0
 11
-200.3837585449219
 21
130.9170074462891
 31
0.0
  0
LINE
  5
99
330
22
100
AcDbEntity
  8
0
  6
Continuous
 62
     7
100
AcDbLine
 10
-195.7948608398438
 20
126.3280944824219
 30
0.0
 11
-191.8859558105469
 21
122.4191970825195
 31
0.0
  0
LINE
  5
9A
330
22
100
AcDbEntity
  8
0
  6
Continuous
 62
     7
100
AcDbLine
 10
-203.5220642089844
 20
135.115966796875
 30
0.0
 11
-200.30126953125
 21
131.8951721191406
 31
0.0
  0
LINE
  5
9B
330
22
100
AcDbEntity
  8
0
  6
Continuous
 62
     7
100
AcDbLine
 10
-195.8888397216797
 20
127.4827423095703
 30
0.0
 11
-193.7859497070313
 21
125.3798599243164
 31
0.0
  0
LINE
  5
9C
330
22
100
AcDbEntity
  8
0
  6
Continuous
 62
     7
100
AcDbLine
 10
-193.5437774658203
 20
125.1376800537109
 30
0.0
 11
-191.8859558105469
 21
123.4798583984375
 31
0.0
  0
LINE
  5
9D
330
22
100
AcDbEntity
  8
0
  6
Continuous
 62
     7
100
AcDbLine
 10
-203.4557495117188
 20
135.4032135009766
 30
0.0
 11
-200.2737731933594
 21
132.2212371826172
 31
0.0
  0
LINE
  5
9E
330
22
100
AcDbEntity
  8
0
  6
Continuous
 62
     7
100
AcDbLine
 10
-195.920166015625
 20
127.8676223754883
 30
0.0
 11
-193.7859497070313
 21
125.7334136962891
 31
0.0
  0
LINE
  5
9F
330
22
100
AcDbEntity
  8
0
  6
Continuous
 62
     7
100
AcDbLine
 10
-193.1902313232422
 20
125.1376800537109
 30
0.0
 11
-191.8859558105469
 21
123.8334121704102
 31
0.0
  0
LINE
  5
A0
330
22
100
AcDbEntity
  8
0
  6
Continuous
 62
     7
100
AcDbLine
 10
-203.2568054199219
 20
136.2649230957031
 30
0.0
 11
-200.1912841796875
 21
133.1994018554688
 31
0.0
  0
LINE
  5
A1
330
22
100
AcDbEntity
  8
0
  6
Continuous
 62
     7
100
AcDbLine
 10
-196.0141448974609
 20
129.0222625732422
 30
0.0
 11
-193.7859497070313
 21
126.7940673828125
 31
0.0
  0
LINE
  5
A2
330
22
100
AcDbEntity
  8
0
  6
Continuous
 62
     7
100
AcDbLine
 10
-192.1295623779297
 20
125.1376800537109
 30
0.0
 11
-191.8859558105469
 21
124.8940734863281
 31
0.0
  0
LINE
  5
A3
330
22
100
AcDbEntity
  8
0
  6
Continuous
 62
     7
100
AcDbLine
 10
-203.1904907226564
 20
136.5521697998047
 30
0.0
 11
-200.1638031005859
 21
133.5254669189453
 31
0.0
  0
LINE
  5
A4
330
22
100
AcDbEntity
  8
0
  6
Continuous
 62
     7
100
AcDbLine
 10
-196.0454711914063
 20
129.4071502685547
 30
0.0
 11
-193.7859497070313
 21
127.1476211547852
 31
0.0
  0
LINE
  5
A5
330
22
100
AcDbEntity
  8
0
  6
Continuous
 62
     7
100
AcDbLine
 10
-202.9915466308594
 20
137.4138793945313
 30
0.0
 11
-200.0813140869141
 21
134.5036315917969
 31
0.0
  0
LINE
  5
A6
330
22
100
AcDbEntity
  8
0
  6
Continuous
 62
     7
100
AcDbLine
 10
-196.1394653320313
 20
130.5617828369141
 30
0.0
 11
-193.2153472900391
 21
127.6376800537109
 31
0.0
  0
LINE
  5
A7
330
22
100
AcDbEntity
  8
0
  6
Continuous
 62
     7
100
AcDbLine
 10
-202.9252319335938
 20
137.7011260986328
 30
0.0
 11
-200.0538177490234
 21
134.8296966552734
 31
0.0
  0
LINE
  5
A8
330
22
100
AcDbEntity
  8
0
  6
Continuous
 62
     7
100
AcDbLine
 10
-196.1707916259766
 20
130.9466705322266
 30
0.0
 11
-192.8618011474609
 21
127.6376800537109
 31
0.0
  0
LINE
  5
A9
330
22
100
AcDbEntity
  8
0
  6
Continuous
 62
     7
100
AcDbLine
 10
-202.7262878417969
 20
138.5628356933594
 30
0.0
 11
-199.9713287353516
 21
135.8078765869141
 31
0.0
  0
LINE
  5
AA
330
22
100
AcDbEntity
  8
0
  6
Continuous
 62
     7
100
AcDbLine
 10
-196.2647705078125
 20
132.101318359375
 30
0.0
 11
-191.9235382080078
 21
127.7600708007813
 31
0.0
  0
LINE
  5
AB
330
22
100
AcDbEntity
  8
0
  6
Continuous
 62
     7
100
AcDbLine
 10
-202.6599731445313
 20
138.8500671386719
 30
0.0
 11
-199.9438323974609
 21
136.1339263916016
 31
0.0
  0
LINE
  5
AC
330
22
100
AcDbEntity
  8
0
  6
Continuous
 62
     7
100
AcDbLine
 10
-196.2960968017578
 20
132.4861907958984
 30
0.0
 11
-191.7859497070313
 21
127.9760513305664
 31
0.0
  0
LINE
  5
AD
330
22
100
AcDbEntity
  8
0
  6
Continuous
 62
     7
100
AcDbLine
 10
-202.4610290527344
 20
139.7117919921875
 30
0.0
 11
-199.840087890625
 21
137.0908355712891
 31
0.0
  0
LINE
  5
AE
330
22
100
AcDbEntity
  8
0
  6
Continuous
 62
     7
100
AcDbLine
 10
-196.3900756835938
 20
133.6408386230469
 30
0.0
 11
-191.6991577148438
 21
128.9499206542969
 31
0.0
  0
LINE
  5
AF
330
22
100
AcDbEntity
  8
0
  6
Continuous
 62
     7
100
AcDbLine
 10
-202.3947143554688
 20
139.9990234375
 30
0.0
 11
-199.75146484375
 21
137.3557739257813
 31
0.0
  0
LINE
  5
B0
330
22
100
AcDbEntity
  8
0
  6
Continuous
 62
     7
100
AcDbLine
 10
-196.4214019775391
 20
134.0257110595703
 30
0.0
 11
-191.6461639404296
 21
129.2504730224609
 31
0.0
  0
LINE
  5
B1
330
22
100
AcDbEntity
  8
0
  6
Continuous
 62
     7
100
AcDbLine
 10
-202.1957855224609
 20
140.8607482910156
 30
0.0
 11
-199.2859191894531
 21
137.9508819580077
 31
0.0
  0
LINE
  5
B2
330
22
100
AcDbEntity
  8
0
  6
Continuous
 62
     7
100
AcDbLine
 10
-196.5153961181641
 20
135.1803588867187
 30
0.0
 11
-191.4871826171875
 21
130.1521453857422
 31
0.0
  0
LINE
  5
B3
330
22
100
AcDbEntity
  8
0
  6
Continuous
 62
     7
100
AcDbLine
 10
-202.1294708251953
 20
141.1479797363281
 30
0.0
 11
-199.0662536621094
 21
138.0847778320313
 31
0.0
  0
LINE
  5
B4
330
22
100
AcDbEntity
  8
0
  6
Continuous
 62
     7
100
AcDbLine
 10
-196.5467224121094
 20
135.5652465820313
 30
0.0
 11
-191.4341735839844
 21
130.4526977539063
 31
0.0
  0
LINE
  5
B5
330
22
100
AcDbEntity
  8
0
  6
Continuous
 62
     7
100
AcDbLine
 10
-201.9305267333984
 20
142.0097045898438
 30
0.0
 11
-198.1715850830078
 21
138.2507781982422
 31
0.0
  0
LINE
  5
B6
330
22
100
AcDbEntity
  8
0
  6
Continuous
 62
     7
100
AcDbLine
 10
-196.6407012939453
 20
136.7198791503906
 30
0.0
 11
-191.2751922607422
 21
131.3543701171875
 31
0.0
  0
LINE
  5
B7
330
22
100
AcDbEntity
  8
0
  6
Continuous
 62
     7
100
AcDbLine
 10
-201.8609161376953
 20
142.2936553955078
 30
0.0
 11
-197.7620086669922
 21
138.1947326660156
 31
0.0
  0
LINE
  5
B8
330
22
100
AcDbEntity
  8
0
  6
Continuous
 62
     7
100
AcDbLine
 10
-196.7066802978516
 20
137.1394195556641
 30
0.0
 11
-191.2221984863281
 21
131.6549377441406
 31
0.0
  0
LINE
  5
B9
330
22
100
AcDbEntity
  8
0
  6
Continuous
 62
     7
100
AcDbLine
 10
-201.1424865722656
 20
142.6358947753906
 30
0.0
 11
-191.0632019042969
 21
132.5565948486328
 31
0.0
  0
LINE
  5
BA
330
22
100
AcDbEntity
  8
0
  6
Continuous
 62
     7
100
AcDbLine
 10
-200.7889404296875
 20
142.6358947753906
 30
0.0
 11
-191.0102081298828
 21
132.8571624755859
 31
0.0
  0
LINE
  5
BB
330
22
100
AcDbEntity
  8
0
  6
Continuous
 62
     7
100
AcDbLine
 10
-199.728271484375
 20
142.6358947753906
 30
0.0
 11
-190.8512268066406
 21
133.7588348388672
 31
0.0
  0
LINE
  5
BC
330
22
100
AcDbEntity
  8
0
  6
Continuous
 62
     7
100
AcDbLine
 10
-199.3747253417969
 20
142.6358947753906
 30
0.0
 11
-190.7982177734375
 21
134.0593872070312
 31
0.0
  0
LINE
  5
BD
330
22
100
AcDbEntity
  8
0
  6
Continuous
 62
     7
100
AcDbLine
 10
-198.3140563964844
 20
142.6358947753906
 30
0.0
 11
-190.6392364501953
 21
134.9610595703125
 31
0.0
  0
LINE
  5
BE
330
22
100
AcDbEntity
  8
0
  6
Continuous
 62
     7
100
AcDbLine
 10
-197.9605102539063
 20
142.6358947753906
 30
0.0
 11
-190.5862426757813
 21
135.2616119384766
 31
0.0
  0
LINE
  5
BF
330
22
100
AcDbEntity
  8
0
  6
Continuous
 62
     7
100
AcDbLine
 10
-196.8998565673828
 20
142.6358947753906
 30
0.0
 11
-190.42724609375
 21
136.1632843017578
 31
0.0
  0
LINE
  5
C0
330
22
100
AcDbEntity
  8
0
  6
Continuous
 62
     7
100
AcDbLine
 10
-196.5462951660156
 20
142.6358947753906
 30
0.0
 11
-190.3742523193359
 21
136.4638366699219
 31
0.0
  0
LINE
  5
C1
330
22
100
AcDbEntity
  8
0
  6
Continuous
 62
     7
100
AcDbLine
 10
-195.4856414794922
 20
142.6358947753906
 30
0.0
 11
-190.2152709960938
 21
137.3655090332031
 31
0.0
  0
LINE
  5
C2
330
22
100
AcDbEntity
  8
0
  6
Continuous
 62
     7
100
AcDbLine
 10
-195.132080078125
 20
142.6358947753906
 30
0.0
 11
-190.1622619628906
 21
137.6660766601563
 31
0.0
  0
LINE
  5
C3
330
22
100
AcDbEntity
  8
0
  6
Continuous
 62
     7
100
AcDbLine
 10
-194.0714263916016
 20
142.6358947753906
 30
0.0
 11
-190.0032806396484
 21
138.5677490234375
 31
0.0
  0
LINE
  5
C4
330
22
100
AcDbEntity
  8
0
  6
Continuous
 62
     7
100
AcDbLine
 10
-193.7178649902344
 20
142.6358947753906
 30
0.0
 11
-189.9502868652344
 21
138.8683013916016
 31
0.0
  0
LINE
  5
C5
330
22
100
AcDbEntity
  8
0
  6
Continuous
 62
     7
100
AcDbLine
 10
-192.6572113037109
 20
142.6358947753906
 30
0.0
 11
-189.7912902832031
 21
139.7699737548828
 31
0.0
  0
LINE
  5
C6
330
22
100
AcDbEntity
  8
0
  6
Continuous
 62
     7
100
AcDbLine
 10
-192.3036499023438
 20
142.6358947753906
 30
0.0
 11
-189.7382965087891
 21
140.0705261230469
 31
0.0
  0
LINE
  5
C7
330
22
100
AcDbEntity
  8
0
  6
Continuous
 62
     7
100
AcDbLine
 10
-191.2429962158203
 20
142.6358947753906
 30
0.0
 11
-189.5793151855469
 21
140.9721984863281
 31
0.0
  0
LINE
  5
C8
330
22
100
AcDbEntity
  8
0
  6
Continuous
 62
     7
100
AcDbLine
 10
-190.8894500732422
 20
142.6358947753906
 30
0.0
 11
-189.5263061523438
 21
141.2727508544922
 31
0.0
  0
LINE
  5
C9
330
22
100
AcDbEntity
  8
0
  6
Continuous
 62
     7
100
AcDbLine
 10
-189.8247375488281
 20
142.6318359375
 30
0.0
 11
-189.3948211669922
 21
142.2019195556641
 31
0.0
  0
LINE
  5
CA
330
22
100
AcDbEntity
  8
0
  6
Continuous
 62
     7
100
AcDbLine
 10
-194.8059539794922
 20
116.6358871459961
 30
0.0
 11
-217.7859497070314
 21
116.6358871459961
 31
0.0
  0
LINE
  5
CB
330
22
100
AcDbEntity
  8
0
  6
Continuous
 62
     7
100
AcDbLine
 10
-219.5359497070313
 20
141.6358947753906
 30
0.0
 11
-219.5359497070313
 21
139.6358947753906
 31
0.0
  0
LINE
  5
CC
330
22
100
AcDbEntity
  8
0
  6
Continuous
 62
     7
100
AcDbLine
 10
-263.2859497070313
 20
143.6358947753906
 30
0.0
 11
-221.7803802490234
 21
143.6358947753906
 31
0.0
  0
LINE
  5
CD
330
22
100
AcDbEntity
  8
0
  6
Continuous
 62
     7
100
AcDbLine
 10
-263.2859497070313
 20
139.6358947753906
 30
0.0
 11
-221.7859497070314
 21
139.6358947753906
 31
0.0
  0
LINE
  5
CE
330
22
100
AcDbEntity
  8
0
  6
Continuous
 62
     7
100
AcDbLine
 10
-258.8688049316406
 20
138.7424163818359
 30
0.0
 11
-221.7859497070314
 21
138.7424163818359
 31
0.0
  0
LINE
  5
CF
330
22
100
AcDbEntity
  8
0
  6
Continuous
 62
     7
100
AcDbLine
 10
-256.3026123046875
 20
95.63574981689452
 30
0.0
 11
-221.7859497070314
 21
95.63574981689452
 31
0.0
  0
LINE
  5
D0
330
22
100
AcDbEntity
  8
0
  6
Continuous
 62
     7
100
AcDbLine
 10
-221.7859497070314
 20
94.63588714599607
 30
0.0
 11
-255.2859497070314
 21
94.63588714599607
 31
0.0
  0
LINE
  5
D1
330
22
100
AcDbEntity
  8
0
  6
Continuous
 62
     7
100
AcDbLine
 10
-218.5359497070313
 20
142.6358947753906
 30
0.0
 11
-221.7859497070314
 21
142.6358947753906
 31
0.0
  0
LINE
  5
D2
330
22
100
AcDbEntity
  8
0
  6
Continuous
 62
     7
100
AcDbLine
 10
-213.7859497070313
 20
133.6358947753906
 30
0.0
 11
-221.7859497070314
 21
133.6358947753906
 31
0.0
  0
LINE
  5
D3
330
22
100
AcDbEntity
  8
0
  6
Continuous
 62
     7
100
AcDbLine
 10
-215.7859497070313
 20
108.6358871459961
 30
0.0
 11
-221.7859497070314
 21
108.6358871459961
 31
0.0
  0
LINE
  5
D4
330
22
100
AcDbEntity
  8
0
  6
Continuous
 62
     7
100
AcDbLine
 10
-221.7859497070314
 20
112.1358871459961
 30
0.0
 11
-215.7859497070313
 21
112.1358871459961
 31
0.0
  0
LINE
  5
D5
330
22
100
AcDbEntity
  8
0
  6
Continuous
 62
     7
100
AcDbLine
 10
-217.5386962890625
 20
108.6358871459961
 30
0.0
 11
-215.7859497070313
 21
110.3886260986328
 31
0.0
  0
LINE
  5
D6
330
22
100
AcDbEntity
  8
0
  6
Continuous
 62
     7
100
AcDbLine
 10
-219.6600189208984
 20
108.6358871459961
 30
0.0
 11
-216.1600189208984
 21
112.1358871459961
 31
0.0
  0
LINE
  5
D7
330
22
100
AcDbEntity
  8
0
  6
Continuous
 62
     7
100
AcDbLine
 10
-221.7813262939453
 20
108.6358871459961
 30
0.0
 11
-218.2813262939453
 21
112.1358871459961
 31
0.0
  0
LINE
  5
D8
330
22
100
AcDbEntity
  8
0
  6
Continuous
 62
     7
100
AcDbLine
 10
-218.2813262939453
 20
112.1358871459961
 30
0.0
 11
-217.7859497070314
 21
112.6312637329102
 31
0.0
  0
LINE
  5
D9
330
22
100
AcDbEntity
  8
0
  6
Continuous
 62
     7
100
AcDbLine
 10
-221.7859497070314
 20
110.7525863647461
 30
0.0
 11
-220.4026489257813
 21
112.1358871459961
 31
0.0
  0
LINE
  5
DA
330
22
100
AcDbEntity
  8
0
  6
Continuous
 62
     7
100
AcDbLine
 10
-220.4026489257813
 20
112.1358871459961
 30
0.0
 11
-217.7859497070314
 21
114.7525863647461
 31
0.0
  0
LINE
  5
DB
330
22
100
AcDbEntity
  8
0
  6
Continuous
 62
     7
100
AcDbLine
 10
-221.7859497070314
 20
112.873908996582
 30
0.0
 11
-217.7859497070314
 21
116.873908996582
 31
0.0
  0
LINE
  5
DC
330
22
100
AcDbEntity
  8
0
  6
Continuous
 62
     7
100
AcDbLine
 10
-206.0239715576172
 20
128.6358947753906
 30
0.0
 11
-203.8855590820313
 21
130.7743072509766
 31
0.0
  0
LINE
  5
DD
330
22
100
AcDbEntity
  8
0
  6
Continuous
 62
     7
100
AcDbLine
 10
-221.7859497070314
 20
114.9952239990234
 30
0.0
 11
-217.7859497070314
 21
118.9952239990234
 31
0.0
  0
LINE
  5
DE
330
22
100
AcDbEntity
  8
0
  6
Continuous
 62
     7
100
AcDbLine
 10
-207.5096130371094
 20
129.2715759277344
 30
0.0
 11
-205.6452941894531
 21
131.1358947753906
 31
0.0
  0
LINE
  5
DF
330
22
100
AcDbEntity
  8
0
  6
Continuous
 62
     7
100
AcDbLine
 10
-221.7859497070314
 20
117.1165466308594
 30
0.0
 11
-217.7859497070314
 21
121.1165466308594
 31
0.0
  0
LINE
  5
E0
330
22
100
AcDbEntity
  8
0
  6
Continuous
 62
     7
100
AcDbLine
 10
-208.010986328125
 20
130.8915100097656
 30
0.0
 11
-205.7855529785156
 21
133.116943359375
 31
0.0
  0
LINE
  5
E1
330
22
100
AcDbEntity
  8
0
  6
Continuous
 62
     7
100
AcDbLine
 10
-205.2671508789063
 20
133.6353454589844
 30
0.0
 11
-203.4426727294922
 21
135.4598236083984
 31
0.0
  0
LINE
  5
E2
330
22
100
AcDbEntity
  8
0
  6
Continuous
 62
     7
100
AcDbLine
 10
-221.7859497070314
 20
119.2378692626953
 30
0.0
 11
-217.7859497070314
 21
123.2378692626953
 31
0.0
  0
LINE
  5
E3
330
22
100
AcDbEntity
  8
0
  6
Continuous
 62
     7
100
AcDbLine
 10
-209.7384796142578
 20
131.2853546142578
 30
0.0
 11
-202.8059234619141
 21
138.2178955078125
 31
0.0
  0
LINE
  5
E4
330
22
100
AcDbEntity
  8
0
  6
Continuous
 62
     7
100
AcDbLine
 10
-221.7859497070314
 20
121.3591918945313
 30
0.0
 11
-217.7859497070314
 21
125.3591918945313
 31
0.0
  0
LINE
  5
E5
330
22
100
AcDbEntity
  8
0
  6
Continuous
 62
     7
100
AcDbLine
 10
-211.8597869873047
 20
131.2853546142578
 30
0.0
 11
-202.1691741943359
 21
140.9759674072266
 31
0.0
  0
LINE
  5
E6
330
22
100
AcDbEntity
  8
0
  6
Continuous
 62
     7
100
AcDbLine
 10
-221.7859497070314
 20
123.4805068969727
 30
0.0
 11
-217.7859497070314
 21
127.4805068969727
 31
0.0
  0
LINE
  5
E7
330
22
100
AcDbEntity
  8
0
  6
Continuous
 62
     7
100
AcDbLine
 10
-213.9811096191406
 20
131.2853546142578
 30
0.0
 11
-202.6305694580078
 21
142.6358947753906
 31
0.0
  0
LINE
  5
E8
330
22
100
AcDbEntity
  8
0
  6
Continuous
 62
     7
100
AcDbLine
 10
-221.7859497070314
 20
125.6018295288086
 30
0.0
 11
-204.7518920898439
 21
142.6358947753906
 31
0.0
  0
LINE
  5
E9
330
22
100
AcDbEntity
  8
0
  6
Continuous
 62
     7
100
AcDbLine
 10
-221.7859497070314
 20
127.7231521606445
 30
0.0
 11
-215.8732147216797
 21
133.6358947753906
 31
0.0
  0
LINE
  5
EA
330
22
100
AcDbEntity
  8
0
  6
Continuous
 62
     7
100
AcDbLine
 10
-213.7859497070313
 20
135.72314453125
 30
0.0
 11
-206.8732147216797
 21
142.6358947753906
 31
0.0
  0
LINE
  5
EB
330
22
100
AcDbEntity
  8
0
  6
Continuous
 62
     7
100
AcDbLine
 10
-221.7859497070314
 20
129.8444671630859
 30
0.0
 11
-217.9945373535156
 21
133.6358947753906
 31
0.0
  0
LINE
  5
EC
330
22
100
AcDbEntity
  8
0
  6
Continuous
 62
     7
100
AcDbLine
 10
-213.7859497070313
 20
137.8444671630859
 30
0.0
 11
-208.9945373535156
 21
142.6358947753906
 31
0.0
  0
LINE
  5
ED
330
22
100
AcDbEntity
  8
0
  6
Continuous
 62
     7
100
AcDbLine
 10
-221.7859497070314
 20
131.9657897949219
 30
0.0
 11
-220.1158599853516
 21
133.6358947753906
 31
0.0
  0
LINE
  5
EE
330
22
100
AcDbEntity
  8
0
  6
Continuous
 62
     7
100
AcDbLine
 10
-213.7887573242188
 20
139.9629821777344
 30
0.0
 11
-211.1158599853516
 21
142.6358947753906
 31
0.0
  0
LINE
  5
EF
330
22
100
AcDbEntity
  8
0
  6
Continuous
 62
     7
100
AcDbLine
 10
-215.098876953125
 20
140.7742004394531
 30
0.0
 11
-213.2371826171875
 21
142.6358947753906
 31
0.0
  0
LINE
  5
F0
330
22
100
AcDbEntity
  8
0
  6
Continuous
 62
     7
100
AcDbLine
 10
-217.2201995849609
 20
140.7742004394531
 30
0.0
 11
-215.3585052490234
 21
142.6358947753906
 31
0.0
  0
LINE
  5
F1
330
22
100
AcDbEntity
  8
0
  6
Continuous
 62
     7
100
AcDbLine
 10
-219.3240509033203
 20
140.7916564941406
 30
0.0
 11
-217.4798126220703
 21
142.6358947753906
 31
0.0
  0
LINE
  5
F2
330
22
100
AcDbEntity
  8
0
  6
Continuous
 62
     7
100
AcDbLine
 10
-216.47802734375
 20
108.6358871459961
 30
0.0
 11
-215.7859497070313
 21
109.3279647827148
 31
0.0
  0
LINE
  5
F3
330
22
100
AcDbEntity
  8
0
  6
Continuous
 62
     7
100
AcDbLine
 10
-218.5993499755859
 20
108.6358871459961
 30
0.0
 11
-215.7859497070313
 21
111.4492874145508
 31
0.0
  0
LINE
  5
F4
330
22
100
AcDbEntity
  8
0
  6
Continuous
 62
     7
100
AcDbLine
 10
-220.7206726074219
 20
108.6358871459961
 30
0.0
 11
-217.2206726074219
 21
112.1358871459961
 31
0.0
  0
LINE
  5
F5
330
22
100
AcDbEntity
  8
0
  6
Continuous
 62
     7
100
AcDbLine
 10
-221.7859497070314
 20
109.691925048828
 30
0.0
 11
-219.3419952392578
 21
112.1358871459961
 31
0.0
  0
LINE
  5
F6
330
22
100
AcDbEntity
  8
0
  6
Continuous
 62
     7
100
AcDbLine
 10
-219.3419952392578
 20
112.1358871459961
 30
0.0
 11
-217.7859497070314
 21
113.6919250488281
 31
0.0
  0
LINE
  5
F7
330
22
100
AcDbEntity
  8
0
  6
Continuous
 62
     7
100
AcDbLine
 10
-221.7859497070314
 20
111.8132476806641
 30
0.0
 11
-221.4633178710939
 21
112.1358871459961
 31
0.0
  0
LINE
  5
F8
330
22
100
AcDbEntity
  8
0
  6
Continuous
 62
     7
100
AcDbLine
 10
-221.4633178710939
 20
112.1358871459961
 30
0.0
 11
-217.7859497070314
 21
115.8132476806641
 31
0.0
  0
LINE
  5
F9
330
22
100
AcDbEntity
  8
0
  6
Continuous
 62
     7
100
AcDbLine
 10
-204.9633178710938
 20
128.6358947753906
 30
0.0
 11
-203.8855590820313
 21
129.7136535644531
 31
0.0
  0
LINE
  5
FA
330
22
100
AcDbEntity
  8
0
  6
Continuous
 62
     7
100
AcDbLine
 10
-221.7859497070314
 20
113.9345703125
 30
0.0
 11
-217.7859497070314
 21
117.9345703125
 31
0.0
  0
LINE
  5
FB
330
22
100
AcDbEntity
  8
0
  6
Continuous
 62
     7
100
AcDbLine
 10
-206.9312438964844
 20
128.7892761230469
 30
0.0
 11
-204.5846405029297
 21
131.1358947753906
 31
0.0
  0
LINE
  5
FC
330
22
100
AcDbEntity
  8
0
  6
Continuous
 62
     7
100
AcDbLine
 10
-221.7859497070314
 20
116.0558853149414
 30
0.0
 11
-217.7859497070314
 21
120.0558853149414
 31
0.0
  0
LINE
  5
FD
330
22
100
AcDbEntity
  8
0
  6
Continuous
 62
     7
100
AcDbLine
 10
-207.779541015625
 20
130.0623016357422
 30
0.0
 11
-205.7855529785156
 21
132.0562896728516
 31
0.0
  0
LINE
  5
FE
330
22
100
AcDbEntity
  8
0
  6
Continuous
 62
     7
100
AcDbLine
 10
-204.2064971923828
 20
133.6353454589844
 30
0.0
 11
-203.7610626220703
 21
134.0807800292969
 31
0.0
  0
LINE
  5
FF
330
22
100
AcDbEntity
  8
0
  6
Continuous
 62
     7
100
AcDbLine
 10
-221.7859497070314
 20
118.1772079467773
 30
0.0
 11
-217.7859497070314
 21
122.1772079467773
 31
0.0
  0
LINE
  5
100
330
22
100
AcDbEntity
  8
0
  6
CENTER
 62
     7
100
AcDbLine
 10
-221.7859497070314
 20
89.3613510131836
 30
0.0
 11
-221.7859497070314
 21
150.3094482421875
 31
0.0
  0
LINE
  5
101
330
22
100
AcDbEntity
  8
0
  6
Continuous
 62
     7
100
AcDbLine
 10
-208.6956939697266
 20
131.2674713134766
 30
0.0
 11
-203.1242980957031
 21
136.8388519287109
 31
0.0
  0
LINE
  5
102
330
22
100
AcDbEntity
  8
0
  6
Continuous
 62
     7
100
AcDbLine
 10
-221.7859497070314
 20
120.2985305786133
 30
0.0
 11
-217.7859497070314
 21
124.2985305786133
 31
0.0
  0
LINE
  5
103
330
22
100
AcDbEntity
  8
0
  6
Continuous
 62
     7
100
AcDbLine
 10
-210.7991333007813
 20
131.2853546142578
 30
0.0
 11
-202.487548828125
 21
139.596923828125
 31
0.0
  0
LINE
  5
104
330
22
100
AcDbEntity
  8
0
  6
Continuous
 62
     7
100
AcDbLine
 10
-221.7859497070314
 20
122.4198455810547
 30
0.0
 11
-217.7859497070314
 21
126.4198455810547
 31
0.0
  0
LINE
  5
105
330
22
100
AcDbEntity
  8
0
  6
Continuous
 62
     7
100
AcDbLine
 10
-212.9204559326172
 20
131.2853546142578
 30
0.0
 11
-201.9361114501953
 21
142.2696990966796
 31
0.0
  0
LINE
  5
106
330
22
100
AcDbEntity
  8
0
  6
Continuous
 62
     7
100
AcDbLine
 10
-221.7859497070314
 20
124.5411682128906
 30
0.0
 11
-217.7580108642578
 21
128.5691223144531
 31
0.0
  0
LINE
  5
107
330
22
100
AcDbEntity
  8
0
  6
Continuous
 62
     7
100
AcDbLine
 10
-215.0697174072266
 20
131.2574005126952
 30
0.0
 11
-203.6912384033203
 21
142.6358947753906
 31
0.0
  0
LINE
  5
108
330
22
100
AcDbEntity
  8
0
  6
Continuous
 62
     7
100
AcDbLine
 10
-221.7859497070314
 20
126.6624908447266
 30
0.0
 11
-214.8125610351563
 21
133.6358947753906
 31
0.0
  0
LINE
  5
109
330
22
100
AcDbEntity
  8
0
  6
Continuous
 62
     7
100
AcDbLine
 10
-213.7859497070313
 20
134.6624908447266
 30
0.0
 11
-205.8125610351563
 21
142.6358947753906
 31
0.0
  0
LINE
  5
10A
330
22
100
AcDbEntity
  8
0
  6
Continuous
 62
     7
100
AcDbLine
 10
-221.7859497070314
 20
128.7838134765625
 30
0.0
 11
-216.9338836669922
 21
133.6358947753906
 31
0.0
  0
LINE
  5
10B
330
22
100
AcDbEntity
  8
0
  6
Continuous
 62
     7
100
AcDbLine
 10
-213.7859497070313
 20
136.7838134765625
 30
0.0
 11
-207.9338836669922
 21
142.6358947753906
 31
0.0
  0
LINE
  5
10C
330
22
100
AcDbEntity
  8
0
  6
Continuous
 62
     7
100
AcDbLine
 10
-221.7859497070314
 20
130.9051361083984
 30
0.0
 11
-219.0551910400391
 21
133.6358947753906
 31
0.0
  0
LINE
  5
10D
330
22
100
AcDbEntity
  8
0
  6
Continuous
 62
     7
100
AcDbLine
 10
-213.7859497070313
 20
138.9051361083984
 30
0.0
 11
-210.0551910400391
 21
142.6358947753906
 31
0.0
  0
LINE
  5
10E
330
22
100
AcDbEntity
  8
0
  6
Continuous
 62
     7
100
AcDbLine
 10
-221.7859497070314
 20
133.0264434814453
 30
0.0
 11
-221.176513671875
 21
133.6358947753906
 31
0.0
  0
LINE
  5
10F
330
22
100
AcDbEntity
  8
0
  6
Continuous
 62
     7
100
AcDbLine
 10
-214.0382080078125
 20
140.7742004394531
 30
0.0
 11
-212.176513671875
 21
142.6358947753906
 31
0.0
  0
LINE
  5
110
330
22
100
AcDbEntity
  8
0
  6
Continuous
 62
     7
100
AcDbLine
 10
-216.1595306396484
 20
140.7742004394531
 30
0.0
 11
-214.2978363037109
 21
142.6358947753906
 31
0.0
  0
LINE
  5
111
330
22
100
AcDbEntity
  8
0
  6
Continuous
 62
     7
100
AcDbLine
 10
-218.2808532714844
 20
140.7742004394531
 30
0.0
 11
-216.4191589355469
 21
142.6358947753906
 31
0.0
  0
LINE
  5
112
330
22
100
AcDbEntity
  8
0
  6
Continuous
 62
     7
100
AcDbLine
 10
-219.5352935791016
 20
141.6410675048828
 30
0.0
 11
-218.5411224365234
 21
142.63525390625
 31
0.0
  0
LINE
  5
113
330
22
100
AcDbEntity
  8
0
  6
Continuous
 62
     7
100
AcDbLine
 10
-180.2859497070313
 20
143.6358947753906
 30
0.0
 11
-221.7803802490234
 21
143.6358947753906
 31
0.0
  0
LINE
  5
114
330
22
100
AcDbEntity
  8
0
  6
Continuous
 62
     7
100
AcDbLine
 10
-193.2859497070313
 20
95.83588409423828
 30
0.0
 11
-221.7859497070314
 21
95.83588409423828
 31
0.0
  0
LINE
  5
115
330
22
100
AcDbEntity
  8
0
  6
Continuous
 62
     7
100
AcDbLine
 10
-194.8059539794922
 20
116.6358871459961
 30
0.0
 11
-195.0221862792969
 21
116.8352279663086
 31
0.0
  0
LINE
  5
116
330
22
100
AcDbEntity
  8
0
  6
Continuous
 62
     7
100
AcDbLine
 10
-191.8859558105469
 20
125.1376800537109
 30
0.0
 11
-191.8859558105469
 21
117.1358871459961
 31
0.0
  0
LINE
  5
117
330
22
100
AcDbEntity
  8
0
  6
Continuous
 62
     7
100
AcDbLine
 10
-192.3859558105469
 20
116.6358871459961
 30
0.0
 11
-194.8059539794922
 21
116.6358871459961
 31
0.0
  0
LINE
  5
118
330
22
100
AcDbEntity
  8
0
  6
Continuous
 62
     7
100
AcDbLine
 10
-191.7859497070313
 20
114.4358901977539
 30
0.0
 11
-191.7859497070313
 21
128.4576873779297
 31
0.0
  0
LINE
  5
119
330
22
100
AcDbEntity
  8
0
  6
Continuous
 62
     7
100
AcDbLine
 10
-184.7526245117188
 20
123.6353302001953
 30
0.0
 11
-185.20263671875
 21
99.63477325439452
 31
0.0
  0
LINE
  5
11A
330
22
100
AcDbEntity
  8
0
  6
Continuous
 62
     7
100
AcDbLine
 10
-196.6531219482422
 20
136.8725738525391
 30
0.0
 11
-195.0221862792969
 21
116.8352279663086
 31
0.0
  0
LINE
  5
11B
330
22
100
AcDbEntity
  8
0
  6
Continuous
 62
     7
100
AcDbLine
 10
-195.0223541259766
 20
116.8372802734375
 30
0.0
 11
-194.9980773925781
 21
116.8130035400391
 31
0.0
  0
LINE
  5
11C
330
22
100
AcDbEntity
  8
0
  6
Continuous
 62
     7
100
AcDbLine
 10
-226.0046997070313
 20
97.63574981689451
 30
0.0
 11
-226.5046997070313
 21
138.6357421875
 31
0.0
  0
LINE
  5
11D
330
22
100
AcDbEntity
  8
0
  6
Continuous
 62
     7
100
AcDbLine
 10
-256.825439453125
 20
124.0043106079102
 30
0.0
 11
-256.3026123046875
 21
95.63574981689452
 31
0.0
  0
LINE
  5
11E
330
22
100
AcDbEntity
  8
0
  6
Continuous
 62
     7
100
AcDbLine
 10
-258.8192749023438
 20
123.6353302001953
 30
0.0
 11
-258.3692626953125
 21
99.63477325439452
 31
0.0
  0
LINE
  5
11F
330
22
100
AcDbEntity
  8
0
  6
Continuous
 62
     7
100
AcDbLine
 10
-258.3692626953125
 20
99.63477325439452
 30
0.0
 11
-256.3359375
 21
97.6350555419922
 31
0.0
  0
LINE
  5
120
330
22
100
AcDbEntity
  8
0
  6
Continuous
 62
     7
100
AcDbLine
 10
-256.3026123046875
 20
95.63574981689452
 30
0.0
 11
-255.2859497070314
 21
94.63588714599607
 31
0.0
  0
LINE
  5
121
330
22
100
AcDbEntity
  8
0
  6
Continuous
 62
     7
100
AcDbLine
 10
-189.6746215820313
 20
94.63588714599607
 30
0.0
 11
-187.2429046630859
 21
97.0676040649414
 31
0.0
  0
LINE
  5
122
330
22
100
AcDbEntity
  8
0
  6
Continuous
 62
     7
100
AcDbLine
 10
-191.0888366699219
 20
94.63588714599607
 30
0.0
 11
-185.1856842041016
 21
100.5390319824219
 31
0.0
  0
LINE
  5
123
330
22
100
AcDbEntity
  8
0
  6
Continuous
 62
     7
100
AcDbLine
 10
-192.0859527587891
 20
95.05297851562501
 30
0.0
 11
-185.1586608886719
 21
101.9802703857422
 31
0.0
  0
LINE
  5
124
330
22
100
AcDbEntity
  8
0
  6
Continuous
 62
     7
100
AcDbLine
 10
-192.0859527587891
 20
96.46718597412109
 30
0.0
 11
-185.1316375732421
 21
103.421501159668
 31
0.0
  0
LINE
  5
125
330
22
100
AcDbEntity
  8
0
  6
Continuous
 62
     7
100
AcDbLine
 10
-192.0859527587891
 20
97.88140106201172
 30
0.0
 11
-185.1046142578125
 21
104.8627395629883
 31
0.0
  0
LINE
  5
126
330
22
100
AcDbEntity
  8
0
  6
Continuous
 62
     7
100
AcDbLine
 10
-192.0859527587891
 20
99.29561614990234
 30
0.0
 11
-185.0775909423828
 21
106.3039779663086
 31
0.0
  0
LINE
  5
127
330
22
100
AcDbEntity
  8
0
  6
Continuous
 62
     7
100
AcDbLine
 10
-192.0859527587891
 20
100.709831237793
 30
0.0
 11
-185.0505676269531
 21
107.7452163696289
 31
0.0
  0
LINE
  5
128
330
22
100
AcDbEntity
  8
0
  6
Continuous
 62
     7
100
AcDbLine
 10
-192.0859527587891
 20
102.1240463256836
 30
0.0
 11
-185.0235443115234
 21
109.1864547729492
 31
0.0
  0
LINE
  5
129
330
22
100
AcDbEntity
  8
0
  6
Continuous
 62
     7
100
AcDbLine
 10
-192.0859527587891
 20
103.5382537841797
 30
0.0
 11
-184.9965209960938
 21
110.627685546875
 31
0.0
  0
LINE
  5
12A
330
22
100
AcDbEntity
  8
0
  6
Continuous
 62
     7
100
AcDbLine
 10
-192.0859527587891
 20
104.9524688720703
 30
0.0
 11
-184.9694976806641
 21
112.0689239501953
 31
0.0
  0
LINE
  5
12B
330
22
100
AcDbEntity
  8
0
  6
Continuous
 62
     7
100
AcDbLine
 10
-192.0859527587891
 20
106.3666839599609
 30
0.0
 11
-184.9424743652344
 21
113.5101623535156
 31
0.0
  0
LINE
  5
12C
330
22
100
AcDbEntity
  8
0
  6
Continuous
 62
     7
100
AcDbLine
 10
-192.0859527587891
 20
107.7808990478516
 30
0.0
 11
-184.9154510498047
 21
114.9514007568359
 31
0.0
  0
LINE
  5
12D
330
22
100
AcDbEntity
  8
0
  6
Continuous
 62
     7
100
AcDbLine
 10
-192.6451721191406
 20
108.6358871459961
 30
0.0
 11
-184.888427734375
 21
116.3926315307617
 31
0.0
  0
LINE
  5
12E
330
22
100
AcDbEntity
  8
0
  6
Continuous
 62
     7
100
AcDbLine
 10
-194.0593872070313
 20
108.6358871459961
 30
0.0
 11
-184.8614044189453
 21
117.833869934082
 31
0.0
  0
LINE
  5
12F
330
22
100
AcDbEntity
  8
0
  6
Continuous
 62
     7
100
AcDbLine
 10
-195.4736022949219
 20
108.6358871459961
 30
0.0
 11
-184.8343811035156
 21
119.2751083374023
 31
0.0
  0
LINE
  5
130
330
22
100
AcDbEntity
  8
0
  6
Continuous
 62
     7
100
AcDbLine
 10
-196.8878173828125
 20
108.6358871459961
 30
0.0
 11
-184.8073577880859
 21
120.7163467407227
 31
0.0
  0
LINE
  5
131
330
22
100
AcDbEntity
  8
0
  6
Continuous
 62
     7
100
AcDbLine
 10
-198.3020324707031
 20
108.6358871459961
 30
0.0
 11
-193.3020324707031
 21
113.6358871459961
 31
0.0
  0
LINE
  5
132
330
22
100
AcDbEntity
  8
0
  6
Continuous
 62
     7
100
AcDbLine
 10
-191.7859497070313
 20
115.1519622802734
 30
0.0
 11
-184.7803344726563
 21
122.157585144043
 31
0.0
  0
LINE
  5
133
330
22
100
AcDbEntity
  8
0
  6
Continuous
 62
     7
100
AcDbLine
 10
-199.7162475585938
 20
108.6358871459961
 30
0.0
 11
-195.7162475585938
 21
112.6358871459961
 31
0.0
  0
LINE
  5
134
330
22
100
AcDbEntity
  8
0
  6
Continuous
 62
     7
100
AcDbLine
 10
-191.7859497070313
 20
116.5661773681641
 30
0.0
 11
-184.7769012451172
 21
123.5752258300781
 31
0.0
  0
LINE
  5
135
330
22
100
AcDbEntity
  8
0
  6
Continuous
 62
     7
100
AcDbLine
 10
-201.1304626464844
 20
108.6358871459961
 30
0.0
 11
-197.1304626464844
 21
112.6358871459961
 31
0.0
  0
LINE
  5
136
330
22
100
AcDbEntity
  8
0
  6
Continuous
 62
     7
100
AcDbLine
 10
-191.7859497070313
 20
117.9803924560547
 30
0.0
 11
-184.5740356445313
 21
125.1923141479492
 31
0.0
  0
LINE
  5
137
330
22
100
AcDbEntity
  8
0
  6
Continuous
 62
     7
100
AcDbLine
 10
-202.544677734375
 20
108.6358871459961
 30
0.0
 11
-198.544677734375
 21
112.6358871459961
 31
0.0
  0
LINE
  5
138
330
22
100
AcDbEntity
  8
0
  6
Continuous
 62
     7
100
AcDbLine
 10
-191.7859497070313
 20
119.3946075439453
 30
0.0
 11
-184.3511199951172
 21
126.8294448852539
 31
0.0
  0
LINE
  5
139
330
22
100
AcDbEntity
  8
0
  6
Continuous
 62
     7
100
AcDbLine
 10
-203.9588928222656
 20
108.6358871459961
 30
0.0
 11
-199.9588928222656
 21
112.6358871459961
 31
0.0
  0
LINE
  5
13A
330
22
100
AcDbEntity
  8
0
  6
Continuous
 62
     7
100
AcDbLine
 10
-191.7859497070313
 20
120.8088226318359
 30
0.0
 11
-184.1282043457031
 21
128.4665679931641
 31
0.0
  0
LINE
  5
13B
330
22
100
AcDbEntity
  8
0
  6
Continuous
 62
     7
100
AcDbLine
 10
-205.3731079101563
 20
108.6358871459961
 30
0.0
 11
-201.3731079101563
 21
112.6358871459961
 31
0.0
  0
LINE
  5
13C
330
22
100
AcDbEntity
  8
0
  6
Continuous
 62
     7
100
AcDbLine
 10
-191.7859497070313
 20
122.223030090332
 30
0.0
 11
-183.9052886962891
 21
130.1036987304688
 31
0.0
  0
LINE
  5
13D
330
22
100
AcDbEntity
  8
0
  6
Continuous
 62
     7
100
AcDbLine
 10
-206.7873077392578
 20
108.6358871459961
 30
0.0
 11
-202.7873077392578
 21
112.6358871459961
 31
0.0
  0
LINE
  5
13E
330
22
100
AcDbEntity
  8
0
  6
Continuous
 62
     7
100
AcDbLine
 10
-191.7859497070313
 20
123.6372451782227
 30
0.0
 11
-183.6823883056641
 21
131.7408142089844
 31
0.0
  0
LINE
  5
13F
330
22
100
AcDbEntity
  8
0
  6
Continuous
 62
     7
100
AcDbLine
 10
-208.2015228271484
 20
108.6358871459961
 30
0.0
 11
-204.2015228271484
 21
112.6358871459961
 31
0.0
  0
LINE
  5
140
330
22
100
AcDbEntity
  8
0
  6
Continuous
 62
     7
100
AcDbLine
 10
-191.7859497070313
 20
125.0514602661133
 30
0.0
 11
-183.45947265625
 21
133.3779449462891
 31
0.0
  0
LINE
  5
141
330
22
100
AcDbEntity
  8
0
  6
Continuous
 62
     7
100
AcDbLine
 10
-209.6157379150391
 20
108.6358871459961
 30
0.0
 11
-205.6157379150391
 21
112.6358871459961
 31
0.0
  0
LINE
  5
142
330
22
100
AcDbEntity
  8
0
  6
Continuous
 62
     7
100
AcDbLine
 10
-191.7859497070313
 20
126.4656753540039
 30
0.0
 11
-183.2365570068359
 21
135.0150756835938
 31
0.0
  0
LINE
  5
143
330
22
100
AcDbEntity
  8
0
  6
Continuous
 62
     7
100
AcDbLine
 10
-211.0299530029297
 20
108.6358871459961
 30
0.0
 11
-207.0299530029297
 21
112.6358871459961
 31
0.0
  0
LINE
  5
144
330
22
100
AcDbEntity
  8
0
  6
Continuous
 62
     7
100
AcDbLine
 10
-191.7859497070313
 20
127.8798904418945
 30
0.0
 11
-183.0136413574219
 21
136.6521911621094
 31
0.0
  0
LINE
  5
145
330
22
100
AcDbEntity
  8
0
  6
Continuous
 62
     7
100
AcDbLine
 10
-180.0299530029297
 20
139.6358947753906
 30
0.0
 11
-179.2859497070313
 21
140.3798828125
 31
0.0
  0
LINE
  5
146
330
22
100
AcDbEntity
  8
0
  6
Continuous
 62
     7
100
AcDbLine
 10
-211.7859497070313
 20
109.2940979003905
 30
0.0
 11
-208.4441680908203
 21
112.6358871459961
 31
0.0
  0
LINE
  5
147
330
22
100
AcDbEntity
  8
0
  6
Continuous
 62
     7
100
AcDbLine
 10
-191.6069030761719
 20
129.4731597900391
 30
0.0
 11
-182.7907257080078
 21
138.2893218994141
 31
0.0
  0
LINE
  5
148
330
22
100
AcDbEntity
  8
0
  6
Continuous
 62
     7
100
AcDbLine
 10
-181.4441680908203
 20
139.6358947753906
 30
0.0
 11
-179.2859497070313
 21
141.7940979003906
 31
0.0
  0
LINE
  5
149
330
22
100
AcDbEntity
  8
0
  6
Continuous
 62
     7
100
AcDbLine
 10
-211.7859497070313
 20
110.7083129882813
 30
0.0
 11
-209.8583831787109
 21
112.6358871459961
 31
0.0
  0
LINE
  5
14A
330
22
100
AcDbEntity
  8
0
  6
CENTER
 62
     7
100
AcDbLine
 10
-221.7859497070314
 20
171.7948303222656
 30
0.0
 11
-221.7859497070314
 21
267.5433959960938
 31
0.0
  0
LINE
  5
14B
330
22
100
AcDbEntity
  8
0
  6
Continuous
 62
     7
100
AcDbLine
 10
-191.3041534423828
 20
131.1901092529297
 30
0.0
 11
-179.4075927734375
 21
143.0866851806641
 31
0.0
  0
LINE
  5
14C
330
22
100
AcDbEntity
  8
0
  6
Continuous
 62
     7
100
AcDbLine
 10
-211.7859497070313
 20
112.1225280761719
 30
0.0
 11
-211.2725982666016
 21
112.6358871459961
 31
0.0
  0
LINE
  5
14D
330
22
100
AcDbEntity
  8
0
  6
Continuous
 62
     7
100
AcDbLine
 10
-191.0014038085938
 20
132.9070739746094
 30
0.0
 11
-180.2751159667969
 21
143.6333618164063
 31
0.0
  0
LINE
  5
14E
330
22
100
AcDbEntity
  8
0
  6
Continuous
 62
     7
100
AcDbLine
 10
-190.6986541748047
 20
134.6240386962891
 30
0.0
 11
-182.6868133544922
 21
142.6358947753906
 31
0.0
  0
LINE
  5
14F
330
22
100
AcDbEntity
  8
0
  6
Continuous
 62
     7
100
AcDbLine
 10
-190.3959197998046
 20
136.3410034179687
 30
0.0
 11
-184.1010284423828
 21
142.6358947753906
 31
0.0
  0
LINE
  5
150
330
22
100
AcDbEntity
  8
0
  6
Continuous
 62
     7
100
AcDbLine
 10
-190.0931701660156
 20
138.0579528808594
 30
0.0
 11
-185.5152435302734
 21
142.6358947753906
 31
0.0
  0
LINE
  5
151
330
22
100
AcDbEntity
  8
0
  6
Continuous
 62
     7
100
AcDbLine
 10
-189.7904205322266
 20
139.7749176025391
 30
0.0
 11
-186.929443359375
 21
142.6358947753906
 31
0.0
  0
LINE
  5
152
330
22
100
AcDbEntity
  8
0
  6
Continuous
 62
     7
100
AcDbLine
 10
-189.4876708984375
 20
141.4918823242188
 30
0.0
 11
-188.3436584472656
 21
142.6358947753906
 31
0.0
  0
LINE
  5
153
330
22
100
AcDbEntity
  8
0
  6
Continuous
 62
     7
100
AcDbLine
 10
-211.7859497070313
 20
112.6358871459961
 30
0.0
 11
-195.2859497070313
 21
112.6358871459961
 31
0.0
  0
LINE
  5
154
330
22
100
AcDbEntity
  8
0
  6
Continuous
 62
     7
100
AcDbLine
 10
-194.2869567871094
 20
113.6358871459961
 30
0.0
 11
-195.2859497070313
 21
112.6368865966797
 31
0.0
  0
LINE
  5
155
330
22
100
AcDbEntity
  8
0
  6
Continuous
 62
     7
100
AcDbLine
 10
-192.5859527587891
 20
113.6358871459961
 30
0.0
 11
-194.2869567871094
 21
113.6358871459961
 31
0.0
  0
LINE
  5
156
330
22
100
AcDbEntity
  8
0
  6
Continuous
 62
     7
100
AcDbLine
 10
-211.7859497070313
 20
108.6358871459961
 30
0.0
 11
-215.7859497070313
 21
108.6358871459961
 31
0.0
  0
LINE
  5
157
330
22
100
AcDbEntity
  8
0
  6
Continuous
 62
     7
100
AcDbLine
 10
-215.7859497070313
 20
112.1358871459961
 30
0.0
 11
-215.7859497070313
 21
108.6358871459961
 31
0.0
  0
LINE
  5
158
330
22
100
AcDbEntity
  8
0
  6
Continuous
 62
     7
100
AcDbLine
 10
-256.825439453125
 20
124.0043106079102
 30
0.0
 11
-226.3479309082031
 21
124.0043106079102
 31
0.0
  0
LINE
  5
159
330
22
100
AcDbEntity
  8
0
  6
Continuous
 62
     7
100
AcDbLine
 10
-264.2859497070313
 20
142.6358947753906
 30
0.0
 11
-264.2859497070313
 21
140.1358947753906
 31
0.0
  0
LINE
  5
15A
330
22
100
AcDbEntity
  8
0
  6
Continuous
 62
     7
100
AcDbLine
 10
-263.7859497070313
 20
139.6358947753906
 30
0.0
 11
-259.8630981445313
 21
139.6358947753906
 31
0.0
  0
LINE
  5
15B
330
22
100
AcDbEntity
  8
0
  6
Continuous
 62
     7
100
AcDbLine
 10
-256.825439453125
 20
124.0043106079102
 30
0.0
 11
-258.8688049316406
 21
138.7424163818359
 31
0.0
  0
LINE
  5
15C
330
22
100
AcDbEntity
  8
0
  6
Continuous
 62
     7
100
AcDbLine
 10
-258.7859497070313
 20
123.6358871459961
 30
0.0
 11
-260.9645385742188
 21
139.6358947753906
 31
0.0
  0
LINE
  5
15D
330
22
100
AcDbEntity
  8
0
  6
Continuous
 62
     7
100
AcDbLine
 10
-192.0859527587891
 20
108.6358871459961
 30
0.0
 11
-211.7859497070313
 21
108.6358871459961
 31
0.0
  0
LINE
  5
15E
330
22
100
AcDbEntity
  8
0
  6
Continuous
 62
     7
100
AcDbLine
 10
-192.0859527587891
 20
108.6358871459961
 30
0.0
 11
-192.0859527587891
 21
94.63588714599607
 31
0.0
  0
LINE
  5
15F
330
22
100
AcDbEntity
  8
0
  6
Continuous
 62
     7
100
AcDbLine
 10
-193.2859497070313
 20
105.4358901977539
 30
0.0
 11
-192.0859527587891
 21
106.6358871459961
 31
0.0
  0
LINE
  5
160
330
22
100
AcDbEntity
  8
0
  6
Continuous
 62
     7
100
AcDbLine
 10
-192.0859527587891
 20
94.63588714599607
 30
0.0
 11
-193.2859497070313
 21
95.83588409423828
 31
0.0
  0
LINE
  5
161
330
22
100
AcDbEntity
  8
0
  6
Continuous
 62
     7
100
AcDbLine
 10
-193.2859497070313
 20
95.83588409423828
 30
0.0
 11
-193.2859497070313
 21
105.4358901977539
 31
0.0
  0
LINE
  5
162
330
22
100
AcDbEntity
  8
0
  6
Continuous
 62
     7
100
AcDbLine
 10
-185.20263671875
 20
99.63477325439452
 30
0.0
 11
-187.2359619140625
 21
97.6350555419922
 31
0.0
  0
LINE
  5
163
330
22
100
AcDbEntity
  8
0
  6
Continuous
 62
     7
100
AcDbLine
 10
-187.269287109375
 20
95.63574981689452
 30
0.0
 11
-188.2859497070313
 21
94.63588714599607
 31
0.0
  0
LINE
  5
164
330
22
100
AcDbEntity
  8
0
  6
Continuous
 62
     7
100
AcDbLine
 10
-187.2323760986328
 20
97.63858032226565
 30
0.0
 11
-187.269287109375
 21
95.63574981689452
 31
0.0
  0
LINE
  5
165
330
22
100
AcDbEntity
  8
0
  6
Continuous
 62
     7
100
AcDbLine
 10
-188.2859497070313
 20
94.63588714599607
 30
0.0
 11
-221.7859497070314
 21
94.63588714599607
 31
0.0
  0
LINE
  5
166
330
22
100
AcDbEntity
  8
0
  6
Continuous
 62
     7
100
AcDbLine
 10
-211.7859497070313
 20
108.6358871459961
 30
0.0
 11
-211.7859497070313
 21
112.6358871459961
 31
0.0
  0
LINE
  5
167
330
22
100
AcDbEntity
  8
0
  6
Continuous
 62
     7
100
AcDbLine
 10
-193.7859497070313
 20
125.1376800537109
 30
0.0
 11
-191.8859558105469
 21
125.1376800537109
 31
0.0
  0
LINE
  5
168
330
22
100
AcDbEntity
  8
0
  6
Continuous
 62
     7
100
AcDbLine
 10
-203.787353515625
 20
133.9668426513672
 30
0.0
 11
-203.787353515625
 21
127.6358871459961
 31
0.0
  0
LINE
  5
169
330
22
100
AcDbEntity
  8
0
  6
Continuous
 62
     7
100
AcDbLine
 10
-205.7855529785156
 20
133.6353454589844
 30
0.0
 11
-205.7855529785156
 21
131.1358947753906
 31
0.0
  0
LINE
  5
16A
330
22
100
AcDbEntity
  8
0
  6
Continuous
 62
     7
100
AcDbLine
 10
-203.8855590820313
 20
131.1358947753906
 30
0.0
 11
-203.8855590820313
 21
129.1358947753906
 31
0.0
  0
LINE
  5
16B
330
22
100
AcDbEntity
  8
0
  6
Continuous
 62
     7
100
AcDbLine
 10
-189.3894348144531
 20
142.0490570068359
 30
0.0
 11
-191.7859497070313
 21
128.4576873779297
 31
0.0
  0
LINE
  5
16C
330
22
100
AcDbEntity
  8
0
  6
Continuous
 62
     7
100
AcDbLine
 10
-181.6275939941406
 20
142.6358947753906
 30
0.0
 11
-188.8664093017578
 21
142.6358947753906
 31
0.0
  0
LINE
  5
16D
330
22
100
AcDbEntity
  8
0
  6
Continuous
 62
     7
100
AcDbLine
 10
-189.6526336669922
 20
142.5802612304688
 30
0.0
 11
-189.4374542236328
 21
142.3650817871094
 31
0.0
  0
LINE
  5
16E
330
22
100
AcDbEntity
  8
0
  6
Continuous
 62
     7
100
AcDbLine
 10
-201.3882293701172
 20
142.6358947753906
 30
0.0
 11
-189.8818359375
 21
142.6358947753906
 31
0.0
  0
LINE
  5
16F
330
22
100
AcDbEntity
  8
0
  6
Continuous
 62
     7
100
AcDbLine
 10
-191.7859497070313
 20
127.6376800537109
 30
0.0
 11
-193.7859497070313
 21
127.6376800537109
 31
0.0
  0
LINE
  5
170
330
22
100
AcDbEntity
  8
0
  6
Continuous
 62
     7
100
AcDbLine
 10
-192.0090484619141
 20
125.1376800537109
 30
0.0
 11
-191.8859558105469
 21
125.0145950317383
 31
0.0
  0
LINE
  5
171
330
22
100
AcDbEntity
  8
0
  6
Continuous
 62
     7
100
AcDbLine
 10
-193.7859497070313
 20
127.6376800537109
 30
0.0
 11
-193.7859497070313
 21
125.1376800537109
 31
0.0
  0
LINE
  5
172
330
22
100
AcDbEntity
  8
0
  6
Continuous
 62
     7
100
AcDbLine
 10
-184.7859497070313
 20
123.6358871459961
 30
0.0
 11
-182.6073760986328
 21
139.6358947753906
 31
0.0
  0
LINE
  5
173
330
22
100
AcDbEntity
  8
0
  6
Continuous
 62
     7
100
AcDbLine
 10
-208.7855529785156
 20
131.2853546142578
 30
0.0
 11
-214.7859497070313
 21
131.2853546142578
 31
0.0
  0
LINE
  5
174
330
22
100
AcDbEntity
  8
0
  6
Continuous
 62
     7
100
AcDbLine
 10
-214.5059509277344
 20
127.6358871459961
 30
0.0
 11
-214.5059509277344
 21
124.6358871459961
 31
0.0
  0
LINE
  5
175
330
22
100
AcDbEntity
  8
0
  6
Continuous
 62
     7
100
AcDbLine
 10
-202.7518768310547
 20
124.6358871459961
 30
0.0
 11
-214.5059509277344
 21
124.6358871459961
 31
0.0
  0
LINE
  5
176
330
22
100
AcDbEntity
  8
0
  6
Continuous
 62
     7
100
AcDbLine
 10
-192.0859527587891
 20
106.6358871459961
 30
0.0
 11
-221.7859497070314
 21
106.6358871459961
 31
0.0
  0
LINE
  5
177
330
22
100
AcDbEntity
  8
0
  6
Continuous
 62
     7
100
AcDbLine
 10
-193.2859497070313
 20
105.4358901977539
 30
0.0
 11
-221.7859497070314
 21
105.4358901977539
 31
0.0
  0
LINE
  5
178
330
22
100
AcDbEntity
  8
0
  6
Continuous
 62
     7
100
AcDbLine
 10
-205.7855529785156
 20
131.1358947753906
 30
0.0
 11
-203.8855590820313
 21
131.1358947753906
 31
0.0
  0
LINE
  5
179
330
22
100
AcDbEntity
  8
0
  6
Continuous
 62
     7
100
AcDbLine
 10
-199.8811798095703
 20
136.8769226074219
 30
0.0
 11
-200.7589416503906
 21
126.4678268432617
 31
0.0
  0
LINE
  5
17A
330
22
100
AcDbEntity
  8
0
  6
Continuous
 62
     7
100
AcDbLine
 10
-204.3855590820313
 20
128.6358947753906
 30
0.0
 11
-206.2855529785156
 21
128.6358947753906
 31
0.0
  0
LINE
  5
17B
330
22
100
AcDbEntity
  8
0
  6
Continuous
 62
     7
100
AcDbLine
 10
-205.7059478759766
 20
124.6924591064453
 30
0.0
 11
-205.6493835449219
 21
124.6358871459961
 31
0.0
  0
LINE
  5
17C
330
22
100
AcDbEntity
  8
0
  6
Continuous
 62
     7
100
AcDbLine
 10
-191.7859497070313
 20
127.6376800537109
 30
0.0
 11
-191.7859497070313
 21
128.4576873779297
 31
0.0
  0
LINE
  5
17D
330
22
100
AcDbEntity
  8
0
  6
Continuous
 62
     7
100
AcDbLine
 10
-179.2859497070313
 20
142.6358947753906
 30
0.0
 11
-179.2859497070313
 21
140.1358947753906
 31
0.0
  0
LINE
  5
17E
330
22
100
AcDbEntity
  8
0
  6
Continuous
 62
     7
100
AcDbLine
 10
-179.7859497070313
 20
139.6358947753906
 30
0.0
 11
-182.6073760986328
 21
139.6358947753906
 31
0.0
  0
LINE
  5
17F
330
22
100
AcDbEntity
  8
0
  6
Continuous
 62
     7
100
AcDbLine
 10
-202.4403686523438
 20
142.6324462890625
 30
0.0
 11
-202.4369201660156
 21
142.6358947753906
 31
0.0
  0
LINE
  5
180
330
22
100
AcDbEntity
  8
0
  6
Continuous
 62
     7
100
AcDbLine
 10
-203.787353515625
 20
133.6353454589844
 30
0.0
 11
-203.787353515625
 21
133.9668426513672
 31
0.0
  0
LINE
  5
181
330
22
100
AcDbEntity
  8
0
  6
Continuous
 62
     7
100
AcDbLine
 10
-201.9273529052734
 20
142.0234069824219
 30
0.0
 11
-203.787353515625
 21
133.9668426513672
 31
0.0
  0
LINE
  5
182
330
22
100
AcDbEntity
  8
0
  6
Continuous
 62
     7
100
AcDbLine
 10
-201.8754272460938
 20
142.2483673095703
 30
0.0
 11
-203.787353515625
 21
133.9668426513672
 31
0.0
  0
LINE
  5
183
330
22
100
AcDbEntity
  8
0
  6
Continuous
 62
     7
100
AcDbLine
 10
-198.1481781005859
 20
138.2508850097656
 30
0.0
 11
-198.386474609375
 21
138.2508850097656
 31
0.0
  0
LINE
  5
184
330
22
100
AcDbEntity
  8
0
  6
Continuous
 62
     7
100
AcDbLine
 10
-203.787353515625
 20
133.6353454589844
 30
0.0
 11
-205.7855529785156
 21
133.6353454589844
 31
0.0
  0
LINE
  5
185
330
22
100
AcDbEntity
  8
0
  6
Continuous
 62
     7
100
AcDbLine
 10
-213.7887573242188
 20
140.7742004394531
 30
0.0
 11
-213.7887573242188
 21
139.6249542236328
 31
0.0
  0
LINE
  5
186
330
22
100
AcDbEntity
  8
0
  6
Continuous
 62
     7
100
AcDbLine
 10
-213.7859497070313
 20
139.6358947753906
 30
0.0
 11
-213.7859497070313
 21
133.6358947753906
 31
0.0
  0
LINE
  5
187
330
22
100
AcDbEntity
  8
0
  6
Continuous
 62
     7
100
AcDbLine
 10
-207.7855529785156
 20
130.1358947753906
 30
0.0
 11
-207.7855529785156
 21
130.2853546142578
 31
0.0
  0
LINE
  5
188
330
22
100
AcDbEntity
  8
0
  6
Continuous
 62
     7
100
AcDbLine
 10
-218.0711212158203
 20
221.5858917236328
 30
0.0
 11
-214.3359527587891
 21
221.5858917236328
 31
0.0
  0
LINE
  5
189
330
22
100
AcDbEntity
  8
0
  6
Continuous
 62
     7
100
AcDbLine
 10
-218.0711212158203
 20
216.6858825683594
 30
0.0
 11
-214.3359527587891
 21
216.6858825683594
 31
0.0
  0
LINE
  5
18A
330
22
100
AcDbEntity
  8
0
  6
Continuous
 62
     7
100
AcDbLine
 10
-229.2359619140625
 20
216.6858825683594
 30
0.0
 11
-229.2359619140625
 21
221.5858917236328
 31
0.0
  0
LINE
  5
18B
330
22
100
AcDbEntity
  8
0
  6
Continuous
 62
     7
100
AcDbLine
 10
-225.5007934570314
 20
216.6858825683594
 30
0.0
 11
-229.2359619140625
 21
216.6858825683594
 31
0.0
  0
LINE
  5
18C
330
22
100
AcDbEntity
  8
0
  6
Continuous
 62
     7
100
AcDbLine
 10
-205.7059478759766
 20
124.6358871459961
 30
0.0
 11
-205.7059478759766
 21
127.6358871459961
 31
0.0
  0
LINE
  5
18D
330
22
100
AcDbEntity
  8
0
  6
Continuous
 62
     7
100
AcDbLine
 10
-225.5007934570314
 20
221.5858917236328
 30
0.0
 11
-229.2359619140625
 21
221.5858917236328
 31
0.0
  0
LINE
  5
18E
330
22
100
AcDbEntity
  8
0
  6
Continuous
 62
     7
100
AcDbLine
 10
-214.3359527587891
 20
216.6858825683594
 30
0.0
 11
-214.3359527587891
 21
221.5858917236328
 31
0.0
  0
LINE
  5
18F
330
22
100
AcDbEntity
  8
0
  6
Continuous
 62
     7
100
AcDbLine
 10
-217.0059509277344
 20
125.9724426269531
 30
0.0
 11
-215.2785339355469
 21
124.2450180053711
 31
0.0
  0
LINE
  5
190
330
22
100
AcDbEntity
  8
0
  6
Continuous
 62
     7
100
AcDbLine
 10
-217.0059509277344
 20
124.9117813110352
 30
0.0
 11
-215.5455932617188
 21
123.4514236450195
 31
0.0
  0
LINE
  5
191
330
22
100
AcDbEntity
  8
0
  6
Continuous
 62
     7
100
AcDbLine
 10
-217.0059509277344
 20
124.5582275390625
 30
0.0
 11
-215.7000885009766
 21
123.2523574829102
 31
0.0
  0
LINE
  5
192
330
22
100
AcDbEntity
  8
0
  6
Continuous
 62
     7
100
AcDbLine
 10
-217.0059509277344
 20
123.4975662231445
 30
0.0
 11
-216.6442718505859
 21
123.1358871459961
 31
0.0
  0
LINE
  5
193
330
22
100
AcDbEntity
  8
0
  6
Continuous
 62
     7
100
AcDbLine
 10
-217.0059509277344
 20
123.1440124511719
 30
0.0
 11
-216.9978332519531
 21
123.1358871459961
 31
0.0
  0
LINE
  5
194
330
22
100
AcDbEntity
  8
0
  6
Continuous
 62
     7
100
AcDbLine
 10
-217.0059509277344
 20
123.264533996582
 30
0.0
 11
-217.7859497070314
 21
123.264533996582
 31
0.0
  0
LINE
  5
195
330
22
100
AcDbEntity
  8
0
  6
Continuous
 62
     7
100
AcDbLine
 10
-217.0059509277344
 20
127.6358871459961
 30
0.0
 11
-217.7859497070314
 21
127.6358871459961
 31
0.0
  0
LINE
  5
196
330
22
100
AcDbEntity
  8
0
  6
Continuous
 62
     7
100
AcDbLine
 10
-217.0059509277344
 20
127.6358871459961
 30
0.0
 11
-203.787353515625
 21
127.6358871459961
 31
0.0
  0
LINE
  5
197
330
22
100
AcDbEntity
  8
0
  6
Continuous
 62
     7
100
AcDbLine
 10
-217.0059509277344
 20
123.264533996582
 30
0.0
 11
-216.8773040771484
 21
123.1358871459961
 31
0.0
  0
LINE
  5
198
330
22
100
AcDbEntity
  8
0
  6
Continuous
 62
     7
100
AcDbLine
 10
-217.0059509277344
 20
123.1358871459961
 30
0.0
 11
-217.0059509277344
 21
127.6358871459961
 31
0.0
  0
LINE
  5
199
330
22
100
AcDbEntity
  8
0
  6
Continuous
 62
     7
100
AcDbLine
 10
-216.0059509277344
 20
123.1358871459961
 30
0.0
 11
-217.0059509277344
 21
123.1358871459961
 31
0.0
  0
LINE
  5
19A
330
22
100
AcDbEntity
  8
0
  6
Continuous
 62
     7
100
AcDbLine
 10
-217.7859497070314
 20
112.1358871459961
 30
0.0
 11
-217.7859497070314
 21
128.2853546142578
 31
0.0
  0
LINE
  5
19B
330
22
100
AcDbEntity
  8
0
  6
Continuous
 62
     7
100
AcDbLine
 10
-211.7859497070313
 20
112.6358871459961
 30
0.0
 11
-217.7859497070314
 21
112.6358871459961
 31
0.0
  0
LINE
  5
19C
330
22
100
AcDbEntity
  8
0
  6
Continuous
 62
     7
100
AcDbLine
 10
-218.5359497070313
 20
142.6358947753906
 30
0.0
 11
-202.4145355224609
 21
142.6358947753906
 31
0.0
  0
LINE
  5
19D
330
22
100
AcDbEntity
  8
0
  6
Continuous
 62
     7
100
AcDbLine
 10
-219.4976501464844
 20
140.7742004394531
 30
0.0
 11
-213.7887573242188
 21
140.7742004394531
 31
0.0
  0
LINE
  5
19E
330
22
100
AcDbEntity
  8
0
  6
Continuous
 62
     7
100
AcDbLine
 10
-219.5359497070313
 20
139.6358947753906
 30
0.0
 11
-213.7859497070313
 21
139.6358947753906
 31
0.0
  0
LINE
  5
19F
330
22
100
AcDbEntity
  8
0
  6
Continuous
 62
     7
100
AcDbLine
 10
-221.7859497070314
 20
97.63574981689451
 30
0.0
 11
-226.0046997070313
 21
97.63574981689451
 31
0.0
  0
LINE
  5
1A0
330
22
100
AcDbEntity
  8
0
  6
Continuous
 62
     7
100
AcDbLine
 10
-226.0303344726563
 20
99.63477325439452
 30
0.0
 11
-221.7975921630859
 21
99.63477325439452
 31
0.0
  0
ARC
  5
1A1
330
22
100
AcDbEntity
  8
0
  6
Continuous
 62
     7
100
AcDbCircle
 10
-192.3859558105469
 20
117.1358871459961
 30
0.0
 40
0.5
100
AcDbArc
 50
270.0000000000005
 51
0.0
  0
ARC
  5
1A2
330
22
100
AcDbEntity
  8
0
  6
Continuous
 62
     7
100
AcDbCircle
 10
-192.5859527587891
 20
114.4358901977539
 30
0.0
 40
0.8000000119209291
100
AcDbArc
 50
270.0000000000005
 51
0.0
  0
ARC
  5
1A3
330
22
100
AcDbEntity
  8
0
  6
Continuous
 62
     7
100
AcDbCircle
 10
-263.2859497070313
 20
142.6358947753906
 30
0.0
 40
1.0
100
AcDbArc
 50
90.00000000000019
 51
180.0000000000004
  0
ARC
  5
1A4
330
22
100
AcDbEntity
  8
0
  6
Continuous
 62
     7
100
AcDbCircle
 10
-263.7859497070313
 20
140.1358947753906
 30
0.0
 40
0.5
100
AcDbArc
 50
180.0000000000004
 51
270.0000000000005
  0
ARC
  5
1A5
330
22
100
AcDbEntity
  8
0
  6
Continuous
 62
     7
100
AcDbCircle
 10
-259.8630981445313
 20
138.6358947753906
 30
0.0
 40
1.0
100
AcDbArc
 50
6.114944728156551
 51
90.00000000000019
  0
ARC
  5
1A6
330
22
100
AcDbEntity
  8
0
  6
Continuous
 62
     7
100
AcDbCircle
 10
-204.3855590820313
 20
129.1358947753906
 30
0.0
 40
0.5
100
AcDbArc
 50
270.0000000000005
 51
0.0
  0
ARC
  5
1A7
330
22
100
AcDbEntity
  8
0
  6
Continuous
 62
     7
100
AcDbCircle
 10
-202.7518768310547
 20
126.6358871459961
 30
0.0
 40
2.0
100
AcDbArc
 50
270.0000000000005
 51
355.1797639697097
  0
ARC
  5
1A8
330
22
100
AcDbEntity
  8
0
  6
Continuous
 62
     7
100
AcDbCircle
 10
-188.8664093017578
 20
142.1358947753906
 30
0.0
 40
0.5
100
AcDbArc
 50
90.00000000000019
 51
170.000123409552
  0
ARC
  5
1A9
330
22
100
AcDbEntity
  8
0
  6
Continuous
 62
     7
100
AcDbCircle
 10
-214.5059509277344
 20
123.6358871459961
 30
0.0
 40
1.0
100
AcDbArc
 50
90.00000000000019
 51
180.0000000000004
  0
ARC
  5
1AA
330
22
100
AcDbEntity
  8
0
  6
Continuous
 62
     7
100
AcDbCircle
 10
-216.0059509277344
 20
123.6358871459961
 30
0.0
 40
0.5
100
AcDbArc
 50
270.0000000000005
 51
0.0
  0
CIRCLE
  5
1AB
330
22
100
AcDbEntity
  8
0
  6
Continuous
 62
     7
100
AcDbCircle
 10
-204.7855529785156
 20
132.3358917236328
 30
0.0
 40
1.0
  0
CIRCLE
  5
1AC
330
22
100
AcDbEntity
  8
0
  6
Continuous
 62
     7
100
AcDbCircle
 10
-192.7859497070313
 20
126.3876800537109
 30
0.0
 40
1.0
  0
ARC
  5
1AD
330
22
100
AcDbEntity
  8
0
  6
Continuous
 62
     7
100
AcDbCircle
 10
-189.8818359375
 20
142.1358947753906
 30
0.0
 40
0.5
100
AcDbArc
 50
349.9984014433896
 51
90.00000000000019
  0
ARC
  5
1AE
330
22
100
AcDbEntity
  8
0
  6
Continuous
 62
     7
100
AcDbCircle
 10
-179.7859497070313
 20
140.1358947753906
 30
0.0
 40
0.5
100
AcDbArc
 50
270.0000000000005
 51
0.0
  0
ARC
  5
1AF
330
22
100
AcDbEntity
  8
0
  6
Continuous
 62
     7
100
AcDbCircle
 10
-180.2859497070313
 20
142.6358947753906
 30
0.0
 40
1.0
100
AcDbArc
 50
90.00000000000019
 51
163.3988987215728
  0
ARC
  5
1B0
330
22
100
AcDbEntity
  8
0
  6
Continuous
 62
     7
100
AcDbCircle
 10
-180.2859497070313
 20
142.6358947753906
 30
0.0
 40
1.0
100
AcDbArc
 50
0.0
 51
90.00000000000019
  0
ARC
  5
1B1
330
22
100
AcDbEntity
  8
0
  6
Continuous
 62
     7
100
AcDbCircle
 10
-181.6275939941406
 20
143.035888671875
 30
0.0
 40
0.4000000059604645
100
AcDbArc
 50
270.0000000000005
 51
343.3983106911117
  0
ARC
  5
1B2
330
22
100
AcDbEntity
  8
0
  6
Continuous
 62
     7
100
AcDbCircle
 10
-202.4145355224609
 20
142.1358947753906
 30
0.0
 40
0.5
100
AcDbArc
 50
346.9985682107818
 51
90.00000000000019
  0
ARC
  5
1B3
330
22
100
AcDbEntity
  8
0
  6
Continuous
 62
     7
100
AcDbCircle
 10
-198.386474609375
 20
136.7508850097656
 30
0.0
 40
1.5
100
AcDbArc
 50
90.00000000000019
 51
175.1800666025081
  0
ARC
  5
1B4
330
22
100
AcDbEntity
  8
0
  6
Continuous
 62
     7
100
AcDbCircle
 10
-198.1481781005859
 20
136.7508850097656
 30
0.0
 40
1.5
100
AcDbArc
 50
4.653284038258425
 51
90.00000000000019
  0
ARC
  5
1B5
330
22
100
AcDbEntity
  8
0
  6
Continuous
 62
     7
100
AcDbCircle
 10
-201.3882293701172
 20
142.1358947753906
 30
0.0
 40
0.5
100
AcDbArc
 50
90.00000000000019
 51
167.0006652409346
  0
ARC
  5
1B6
330
22
100
AcDbEntity
  8
0
  6
Continuous
 62
     7
100
AcDbCircle
 10
-221.7859497070314
 20
219.1358947753906
 30
0.0
 40
4.449999809265136
100
AcDbArc
 50
33.40557740054741
 51
146.5945307648596
  0
ARC
  5
1B7
330
22
100
AcDbEntity
  8
0
  6
Continuous
 62
     7
100
AcDbCircle
 10
-221.7859497070314
 20
219.1358947753906
 30
0.0
 40
4.449999809265136
100
AcDbArc
 50
213.4056332417444
 51
326.5942585925848
  0
ARC
  5
1B8
330
22
100
AcDbEntity
  8
0
  6
Continuous
 62
     7
100
AcDbCircle
 10
-208.7855529785156
 20
130.2853546142578
 30
0.0
 40
1.0
100
AcDbArc
 50
0.0
 51
90.00000000000019
  0
ARC
  5
1B9
330
22
100
AcDbEntity
  8
0
  6
Continuous
 62
     7
100
AcDbCircle
 10
-206.2855529785156
 20
130.1358947753906
 30
0.0
 40
1.5
100
AcDbArc
 50
180.0000000000004
 51
270.0000000000005
  0
CIRCLE
  5
1BA
330
22
100
AcDbEntity
  8
0
  6
Continuous
 62
     7
100
AcDbCircle
 10
-221.7859497070314
 20
219.1358947753906
 30
0.0
 40
20.0
  0
CIRCLE
  5
1BB
330
22
100
AcDbEntity
  8
0
  6
Continuous
 62
     7
100
AcDbCircle
 10
-221.7859497070314
 20
219.1358947753906
 30
0.0
 40
40.49999999999999
  0
CIRCLE
  5
1BC
330
22
100
AcDbEntity
  8
0
  6
Continuous
 62
     7
100
AcDbCircle
 10
-221.7859497070314
 20
219.1358947753906
 30
0.0
 40
42.5
  0
CIRCLE
  5
1BD
330
22
100
AcDbEntity
  8
0
  6
Continuous
 62
     7
100
AcDbCircle
 10
-221.7859497070314
 20
219.1358947753906
 30
0.0
 40
32.5
  0
ARC
  5
1BE
330
22
100
AcDbEntity
  8
0
  6
Continuous
 62
     7
100
AcDbCircle
 10
-214.7859497070313
 20
128.2853546142578
 30
0.0
 40
3.0
100
AcDbArc
 50
90.00000000000019
 51
180.0000000000004
  0
ARC
  5
1BF
330
22
100
AcDbEntity
  8
0
  6
Continuous
 62
     7
100
AcDbCircle
 10
-218.5359497070313
 20
141.6358947753906
 30
0.0
 40
1.0
100
AcDbArc
 50
90.00000000000019
 51
180.0000000000004
  0
TEXT
  5
1C0
330
22
100
AcDbEntity
  8
0
  6
Continuous
 62
     7
100
AcDbText
 10
-268.2002801895142
 20
53.78638076782227
 30
0.0
 40
7.0
  1
ＤＬ－ＣＨＧ－５０
 41
0.8448610808647003
100
AcDbText
  0
SOLID
  5
1C1
330
22
100
AcDbEntity
  8
0
  6
Continuous
 62
     7
100
AcDbTrace
 10
-204.22998046875
 20
133.1673583984375
 30
0.0
 11
-205.3411254882813
 21
133.1673583984375
 31
0.0
 12
-204.4028625488281
 22
133.259765625
 32
0.0
 13
-205.1682281494141
 23
133.259765625
 33
0.0
  0
SOLID
  5
1C2
330
22
100
AcDbEntity
  8
0
  6
Continuous
 62
     7
100
AcDbTrace
 10
-192.5908660888672
 20
125.4068984985352
 30
0.0
 11
-192.9810485839844
 21
125.4068984985352
 31
0.0
 12
-192.4032745361328
 22
125.4638061523438
 32
0.0
 13
-193.1686401367188
 23
125.4638061523438
 33
0.0
  0
SOLID
  5
1C3
330
22
100
AcDbEntity
  8
0
  6
Continuous
 62
     7
100
AcDbTrace
 10
-192.4032745361328
 20
125.4638061523438
 30
0.0
 11
-193.1686401367188
 21
125.4638061523438
 31
0.0
 12
-192.2303771972656
 22
125.5562133789063
 32
0.0
 13
-193.3415222167969
 23
125.5562133789063
 33
0.0
  0
SOLID
  5
1C4
330
22
100
AcDbEntity
  8
0
  6
Continuous
 62
     7
100
AcDbTrace
 10
-192.2303771972656
 20
125.5562133789063
 30
0.0
 11
-193.3415222167969
 21
125.5562133789063
 31
0.0
 12
-192.0788421630859
 22
125.6805725097656
 32
0.0
 13
-193.4930572509766
 23
125.6805725097656
 33
0.0
  0
SOLID
  5
1C5
330
22
100
AcDbEntity
  8
0
  6
Continuous
 62
     7
100
AcDbTrace
 10
-192.0788421630859
 20
125.6805725097656
 30
0.0
 11
-193.4930572509766
 21
125.6805725097656
 31
0.0
 12
-191.9544830322266
 22
125.8321151733398
 32
0.0
 13
-193.617431640625
 23
125.8321151733398
 33
0.0
  0
SOLID
  5
1C6
330
22
100
AcDbEntity
  8
0
  6
Continuous
 62
     7
100
AcDbTrace
 10
-191.9544830322266
 20
125.8321151733398
 30
0.0
 11
-193.617431640625
 21
125.8321151733398
 31
0.0
 12
-191.8620758056641
 22
126.004997253418
 32
0.0
 13
-193.7098388671875
 23
126.004997253418
 33
0.0
  0
SOLID
  5
1C7
330
22
100
AcDbEntity
  8
0
  6
Continuous
 62
     7
100
AcDbTrace
 10
-191.8620758056641
 20
126.004997253418
 30
0.0
 11
-193.7098388671875
 21
126.004997253418
 31
0.0
 12
-191.80517578125
 22
126.1925964355469
 32
0.0
 13
-193.7667388916016
 23
126.1925964355469
 33
0.0
  0
SOLID
  5
1C8
330
22
100
AcDbEntity
  8
0
  6
Continuous
 62
     7
100
AcDbTrace
 10
-191.80517578125
 20
126.1925964355469
 30
0.0
 11
-193.7667388916016
 21
126.1925964355469
 31
0.0
 12
-191.7859497070313
 22
126.3876800537109
 32
0.0
 13
-193.7859497070313
 23
126.3876800537109
 33
0.0
  0
SOLID
  5
1C9
330
22
100
AcDbEntity
  8
0
  6
Continuous
 62
     7
100
AcDbTrace
 10
-191.7859497070313
 20
126.3876800537109
 30
0.0
 11
-193.7859497070313
 21
126.3876800537109
 31
0.0
 12
-191.80517578125
 22
126.5827713012695
 32
0.0
 13
-193.7667388916016
 23
126.5827713012695
 33
0.0
  0
SOLID
  5
1CA
330
22
100
AcDbEntity
  8
0
  6
Continuous
 62
     7
100
AcDbTrace
 10
-191.80517578125
 20
126.5827713012695
 30
0.0
 11
-193.7667388916016
 21
126.5827713012695
 31
0.0
 12
-191.8620758056641
 22
126.7703628540039
 32
0.0
 13
-193.7098388671875
 23
126.7703628540039
 33
0.0
  0
SOLID
  5
1CB
330
22
100
AcDbEntity
  8
0
  6
Continuous
 62
     7
100
AcDbTrace
 10
-191.8620758056641
 20
126.7703628540039
 30
0.0
 11
-193.7098388671875
 21
126.7703628540039
 31
0.0
 12
-191.9544830322266
 22
126.9432525634766
 32
0.0
 13
-193.617431640625
 23
126.9432525634766
 33
0.0
  0
SOLID
  5
1CC
330
22
100
AcDbEntity
  8
0
  6
Continuous
 62
     7
100
AcDbTrace
 10
-191.9544830322266
 20
126.9432525634766
 30
0.0
 11
-193.617431640625
 21
126.9432525634766
 31
0.0
 12
-192.0788421630859
 22
127.0947875976563
 32
0.0
 13
-193.4930572509766
 23
127.0947875976563
 33
0.0
  0
SOLID
  5
1CD
330
22
100
AcDbEntity
  8
0
  6
Continuous
 62
     7
100
AcDbTrace
 10
-192.0788421630859
 20
127.0947875976563
 30
0.0
 11
-193.4930572509766
 21
127.0947875976563
 31
0.0
 12
-192.2303771972656
 22
127.2191543579102
 32
0.0
 13
-193.3415222167969
 23
127.2191543579102
 33
0.0
  0
SOLID
  5
1CE
330
22
100
AcDbEntity
  8
0
  6
Continuous
 62
     7
100
AcDbTrace
 10
-192.2303771972656
 20
127.2191543579102
 30
0.0
 11
-193.3415222167969
 21
127.2191543579102
 31
0.0
 12
-192.4032745361328
 22
127.3115615844727
 32
0.0
 13
-193.1686401367188
 23
127.3115615844727
 33
0.0
  0
SOLID
  5
1CF
330
22
100
AcDbEntity
  8
0
  6
Continuous
 62
     7
100
AcDbTrace
 10
-192.4032745361328
 20
127.3115615844727
 30
0.0
 11
-193.1686401367188
 21
127.3115615844727
 31
0.0
 12
-192.5908660888672
 22
127.3684692382813
 32
0.0
 13
-192.9810485839844
 23
127.3684692382813
 33
0.0
  0
SOLID
  5
1D0
330
22
100
AcDbEntity
  8
0
  6
Continuous
 62
     7
100
AcDbTrace
 10
-192.7859497070313
 20
125.3876800537109
 30
0.0
 11
-192.9810485839844
 21
125.4068984985352
 31
0.0
 12
-192.5908660888672
 22
125.4068984985352
 32
0.0
 13
-192.5908660888672
 23
125.4068984985352
 33
0.0
  0
SOLID
  5
1D1
330
22
100
AcDbEntity
  8
0
  6
Continuous
 62
     7
100
AcDbTrace
 10
-192.5908660888672
 20
127.3684692382813
 30
0.0
 11
-192.9810485839844
 21
127.3684692382813
 31
0.0
 12
-192.7859497070313
 22
127.3876800537109
 32
0.0
 13
-192.7859497070313
 23
127.3876800537109
 33
0.0
  0
SOLID
  5
1D2
330
22
100
AcDbEntity
  8
0
  6
Continuous
 62
     7
100
AcDbTrace
 10
-204.5904541015625
 20
131.3551025390625
 30
0.0
 11
-204.9806365966797
 21
131.3551025390625
 31
0.0
 12
-204.4028625488281
 22
131.4120025634766
 32
0.0
 13
-205.1682281494141
 23
131.4120025634766
 33
0.0
  0
SOLID
  5
1D3
330
22
100
AcDbEntity
  8
0
  6
Continuous
 62
     7
100
AcDbTrace
 10
-204.4028625488281
 20
131.4120025634766
 30
0.0
 11
-205.1682281494141
 21
131.4120025634766
 31
0.0
 12
-204.22998046875
 22
131.5044250488281
 32
0.0
 13
-205.3411254882813
 23
131.5044250488281
 33
0.0
  0
SOLID
  5
1D4
330
22
100
AcDbEntity
  8
0
  6
Continuous
 62
     7
100
AcDbTrace
 10
-204.22998046875
 20
131.5044250488281
 30
0.0
 11
-205.3411254882813
 21
131.5044250488281
 31
0.0
 12
-204.0784454345703
 22
131.6287841796875
 32
0.0
 13
-205.4926605224609
 23
131.6287841796875
 33
0.0
  0
SOLID
  5
1D5
330
22
100
AcDbEntity
  8
0
  6
Continuous
 62
     7
100
AcDbTrace
 10
-204.0784454345703
 20
131.6287841796875
 30
0.0
 11
-205.4926605224609
 21
131.6287841796875
 31
0.0
 12
-203.9540863037109
 22
131.7803192138672
 32
0.0
 13
-205.6170196533203
 23
131.7803192138672
 33
0.0
  0
SOLID
  5
1D6
330
22
100
AcDbEntity
  8
0
  6
Continuous
 62
     7
100
AcDbTrace
 10
-203.9540863037109
 20
131.7803192138672
 30
0.0
 11
-205.6170196533203
 21
131.7803192138672
 31
0.0
 12
-203.8616790771484
 22
131.9532012939452
 32
0.0
 13
-205.7094268798828
 23
131.9532012939452
 33
0.0
  0
SOLID
  5
1D7
330
22
100
AcDbEntity
  8
0
  6
Continuous
 62
     7
100
AcDbTrace
 10
-203.8616790771484
 20
131.9532012939452
 30
0.0
 11
-205.7094268798828
 21
131.9532012939452
 31
0.0
 12
-203.8047637939453
 22
132.1407928466797
 32
0.0
 13
-205.7663421630859
 23
132.1407928466797
 33
0.0
  0
SOLID
  5
1D8
330
22
100
AcDbEntity
  8
0
  6
Continuous
 62
     7
100
AcDbTrace
 10
-203.8047637939453
 20
132.1407928466797
 30
0.0
 11
-205.7663421630859
 21
132.1407928466797
 31
0.0
 12
-203.7855529785156
 22
132.3358917236328
 32
0.0
 13
-205.7855529785156
 23
132.3358917236328
 33
0.0
  0
SOLID
  5
1D9
330
22
100
AcDbEntity
  8
0
  6
Continuous
 62
     7
100
AcDbTrace
 10
-203.8047637939453
 20
132.5309753417969
 30
0.0
 11
-205.7663421630859
 21
132.5309753417969
 31
0.0
 12
-203.8616790771484
 22
132.7185668945312
 32
0.0
 13
-205.7094268798828
 23
132.7185668945312
 33
0.0
  0
SOLID
  5
1DA
330
22
100
AcDbEntity
  8
0
  6
Continuous
 62
     7
100
AcDbTrace
 10
-203.9540863037109
 20
132.8914642333984
 30
0.0
 11
-205.6170196533203
 21
132.8914642333984
 31
0.0
 12
-204.0784454345703
 22
133.0429992675781
 32
0.0
 13
-205.4926605224609
 23
133.0429992675781
 33
0.0
  0
SOLID
  5
1DB
330
22
100
AcDbEntity
  8
0
  6
Continuous
 62
     7
100
AcDbTrace
 10
-203.7855529785156
 20
132.3358917236328
 30
0.0
 11
-205.7855529785156
 21
132.3358917236328
 31
0.0
 12
-203.8047637939453
 22
132.5309753417969
 32
0.0
 13
-205.7663421630859
 23
132.5309753417969
 33
0.0
  0
SOLID
  5
1DC
330
22
100
AcDbEntity
  8
0
  6
Continuous
 62
     7
100
AcDbTrace
 10
-203.8616790771484
 20
132.7185668945312
 30
0.0
 11
-205.7094268798828
 21
132.7185668945312
 31
0.0
 12
-203.9540863037109
 22
132.8914642333984
 32
0.0
 13
-205.6170196533203
 23
132.8914642333984
 33
0.0
  0
SOLID
  5
1DD
330
22
100
AcDbEntity
  8
0
  6
Continuous
 62
     7
100
AcDbTrace
 10
-204.5904541015625
 20
133.3166656494141
 30
0.0
 11
-204.9806365966797
 21
133.3166656494141
 31
0.0
 12
-204.7855529785156
 22
133.3358917236328
 32
0.0
 13
-204.7855529785156
 23
133.3358917236328
 33
0.0
  0
SOLID
  5
1DE
330
22
100
AcDbEntity
  8
0
  6
Continuous
 62
     7
100
AcDbTrace
 10
-204.0784454345703
 20
133.0429992675781
 30
0.0
 11
-205.4926605224609
 21
133.0429992675781
 31
0.0
 12
-204.22998046875
 22
133.1673583984375
 32
0.0
 13
-205.3411254882813
 23
133.1673583984375
 33
0.0
  0
SOLID
  5
1DF
330
22
100
AcDbEntity
  8
0
  6
Continuous
 62
     7
100
AcDbTrace
 10
-204.4028625488281
 20
133.259765625
 30
0.0
 11
-205.1682281494141
 21
133.259765625
 31
0.0
 12
-204.5904541015625
 22
133.3166656494141
 32
0.0
 13
-204.9806365966797
 23
133.3166656494141
 33
0.0
  0
SOLID
  5
1E0
330
22
100
AcDbEntity
  8
0
  6
Continuous
 62
     7
100
AcDbTrace
 10
-204.7855529785156
 20
131.3358917236328
 30
0.0
 11
-204.9806365966797
 21
131.3551025390625
 31
0.0
 12
-204.5904541015625
 22
131.3551025390625
 32
0.0
 13
-204.5904541015625
 23
131.3551025390625
 33
0.0
  0
DIMENSION
  5
1E1
330
22
100
AcDbEntity
  8
0
  6
Continuous
 62
     7
100
AcDbDimension
  2
*D1
 10
-155.1834564208984
 20
143.6358947753906
 30
0.0
 11
-155.1834564208984
 21
119.1358871459961
 31
0.0
 71
     5
 42
-1.0
  3
DIMSTYLE1
100
AcDbAlignedDimension
 13
-188.2859497070313
 23
94.63588714599607
 33
0.0
 14
-180.2859497070313
 24
143.6358947753906
 34
0.0
 50
90.0
100
AcDbRotatedDimension
  0
DIMENSION
  5
1E2
330
22
100
AcDbEntity
  8
0
  6
Continuous
 62
     7
100
AcDbDimension
  2
*D2
 10
-261.1723650121961
 20
202.6229950314469
 30
0.0
 11
-161.7761993408203
 21
244.5352020263672
 31
0.0
 70
     3
 71
     5
 42
-1.0
  3
DIMSTYLE2
100
AcDbDiametricDimension
 15
-182.850614724132
 25
235.6487945193343
 35
0.0
 40
0.0
  0
DIMENSION
  5
1E3
330
22
100
AcDbEntity
  8
0
  6
Continuous
 62
     7
100
AcDbDimension
  2
*D3
 10
-254.2296615818947
 20
214.8651323815591
 30
0.0
 11
-155.4274597167969
 21
227.9621124267578
 31
0.0
 70
     3
 71
     5
 42
-1.0
  3
DIMSTYLE3
100
AcDbDiametricDimension
 15
-189.7933181544334
 25
223.4066571692221
 35
0.0
 40
0.0
  0
DIMENSION
  5
1E4
330
22
100
AcDbEntity
  8
0
  6
Continuous
 62
     7
100
AcDbDimension
  2
*D4
 10
-240.802082132963
 20
225.9852482002096
 30
0.0
 11
-162.6762542724609
 21
197.5076141357422
 31
0.0
 70
     3
 71
     5
 42
-1.0
  3
DIMSTYLE4
100
AcDbDiametricDimension
 15
-203.2208976033651
 25
212.2865413505716
 35
0.0
 40
0.0
  0
INSERT
  5
1E5
330
22
100
AcDbEntity
  8
0
  6
Continuous
 62
     7
100
AcDbBlockReference
  2
KOZU0001
 10
-193.2859497070313
 20
102.2358856201172
 30
0.0
  0
ENDSEC
  0
SECTION
  2
OBJECTS
  0
DICTIONARY
  5
C
330
0
100
AcDbDictionary
281
     1
  3
ACAD_COLOR
350
1B
  3
ACAD_GROUP
350
D
  3
ACAD_LAYOUT
350
19
  3
ACAD_MATERIAL
350
1A
  3
ACAD_MLINESTYLE
350
16
  3
ACAD_PLOTSETTINGS
350
18
  3
ACAD_PLOTSTYLENAME
350
E
  3
ACAD_TABLESTYLE
350
1C
  3
AcDbVariableDictionary
350
1F1
  0
DICTIONARY
  5
1B
102
{ACAD_REACTORS
330
C
102
}
330
C
100
AcDbDictionary
281
     1
  0
DICTIONARY
  5
D
102
{ACAD_REACTORS
330
C
102
}
330
C
100
AcDbDictionary
281
     1
  0
DICTIONARY
  5
19
102
{ACAD_REACTORS
330
C
102
}
330
C
100
AcDbDictionary
281
     1
  3
Model
350
25
  3
レイアウト1
350
21
  0
DICTIONARY
  5
1A
102
{ACAD_REACTORS
330
C
102
}
330
C
100
AcDbDictionary
281
     1
  0
DICTIONARY
  5
16
102
{ACAD_REACTORS
330
C
102
}
330
C
100
AcDbDictionary
281
     1
  3
Standard
350
17
  0
DICTIONARY
  5
18
102
{ACAD_REACTORS
330
C
102
}
330
C
100
AcDbDictionary
281
     1
  0
ACDBDICTIONARYWDFLT
  5
E
102
{ACAD_REACTORS
330
C
102
}
330
C
100
AcDbDictionary
281
     1
  3
Normal
350
F
100
AcDbDictionaryWithDefault
340
F
  0
DICTIONARY
  5
1C
102
{ACAD_REACTORS
330
C
102
}
330
C
100
AcDbDictionary
281
     1
  3
Standard
350
1D
  0
DICTIONARY
  5
1F1
102
{ACAD_REACTORS
330
C
102
}
330
C
100
AcDbDictionary
281
     1
  3
CTABLESTYLE
350
1F2
  0
LAYOUT
  5
25
102
{ACAD_REACTORS
330
19
102
}
330
19
100
AcDbPlotSettings
  1

  2
PDF reDirect v2
  4
A3
  6

 40
3.174999952316284
 41
3.174999952316284
 42
3.17498779296875
 43
3.17498779296875
 44
297.0530090332031
 45
420.1583251953125
 46
0.0
 47
0.0
 48
0.0
 49
0.0
140
0.0
141
0.0
142
1.0
143
1.0
 70
 11952
 72
     1
 73
     1
 74
     2
  7
C:\Users\ck\AppData\Roaming\Autodesk\AutoCAD 2005\R16.1\jpn\Plot Styles\black.ctb
 75
    16
147
1.0
 76
     0
 77
     2
 78
   300
148
423.0
149
2.0
100
AcDbLayout
  1
Model
 70
     1
 71
     0
 10
0.0
 20
0.0
 11
12.0
 21
9.0
 12
0.0
 22
0.0
 32
0.0
 14
0.0
 24
0.0
 34
0.0
 15
0.0
 25
0.0
 35
0.0
146
0.0
 13
0.0
 23
0.0
 33
0.0
 16
1.0
 26
0.0
 36
0.0
 17
0.0
 27
1.0
 37
0.0
 76
     0
330
22
1001
ACAD_PSEXT
1000
PDF reDirect v2
1000
PDF reDirect Pro
1000
PDF_REDIRECT_PORT:
1000
PDF reDirect provided by EXP Systems
1070
     0
  0
LAYOUT
  5
21
102
{ACAD_REACTORS
330
19
102
}
330
19
100
AcDbPlotSettings
  1

  2
PDF reDirect v2
  4

  6

 40
0.0
 41
0.0
 42
0.0
 43
0.0
 44
0.0
 45
0.0
 46
0.0
 47
0.0
 48
0.0
 49
0.0
140
0.0
141
0.0
142
1.0
143
1.0
 70
   688
 72
     0
 73
     0
 74
     5
  7
C:\Users\ck\AppData\Roaming\Autodesk\AutoCAD 2005\R16.1\jpn\Plot Styles\black.ctb
 75
    16
147
1.0
 76
     0
 77
     2
 78
   300
148
0.0
149
0.0
100
AcDbLayout
  1
レイアウト1
 70
     1
 71
     1
 10
-423.0
 20
-2.0
 11
-5.0
 21
293.0
 12
0.0
 22
0.0
 32
0.0
 14
1.000000000000000E+20
 24
1.000000000000000E+20
 34
1.000000000000000E+20
 15
-1.000000000000000E+20
 25
-1.000000000000000E+20
 35
-1.000000000000000E+20
146
0.0
 13
0.0
 23
0.0
 33
0.0
 16
1.0
 26
0.0
 36
0.0
 17
0.0
 27
1.0
 37
0.0
 76
     0
330
1E
  0
MLINESTYLE
  5
17
102
{ACAD_REACTORS
330
16
102
}
330
16
100
AcDbMlineStyle
  2
STANDARD
 70
     0
  3

 62
   256
 51
90.0
 52
90.0
 71
     2
 49
0.5
 62
   256
  6
BYLAYER
 49
-0.5
 62
   256
  6
BYLAYER
  0
ACDBPLACEHOLDER
  5
F
102
{ACAD_REACTORS
330
E
102
}
330
E
  0
TABLESTYLE
  5
1D
102
{ACAD_REACTORS
330
1C
102
}
330
1C
100
AcDbTableStyle
  3
Standard
 70
     0
 71
     0
 40
0.06
 41
0.06
280
     0
281
     0
  7
STANDARD
140
0.18
170
     2
 62
     0
 63
     7
283
     0
274
    -2
284
     1
 64
     0
275
    -2
285
     1
 65
     0
276
    -2
286
     1
 66
     0
277
    -2
287
     1
 67
     0
278
    -2
288
     1
 68
     0
279
    -2
289
     1
 69
     0
  7
STANDARD
140
0.25
170
     5
 62
     0
 63
     7
283
     0
274
    -2
284
     1
 64
     0
275
    -2
285
     1
 65
     0
276
    -2
286
     1
 66
     0
277
    -2
287
     1
 67
     0
278
    -2
288
     1
 68
     0
279
    -2
289
     1
 69
     0
  7
STANDARD
140
0.18
170
     5
 62
     0
 63
     7
283
     0
274
    -2
284
     1
 64
     0
275
    -2
285
     1
 65
     0
276
    -2
286
     1
 66
     0
277
    -2
287
     1
 67
     0
278
    -2
288
     1
 68
     0
279
    -2
289
     1
 69
     0
  0
DICTIONARYVAR
  5
1F2
102
{ACAD_REACTORS
330
1F1
102
}
330
1F1
100
DictionaryVariables
280
     0
  1
STANDARD
  0
ENDSEC
  0
EOF
